osu file format v8

[General]
AudioFilename: Itou Kanako - Shoes of Glass02.mp3
AudioLeadIn: 507
PreviewTime: 78676
Countdown: 1
SampleSet: Soft
StackLeniency: 0.7
Mode: 0
LetterboxInBreaks: 1

[Editor]
Bookmarks: 5453,14803,27660,30777,43245,52985,57637,59219,71686,77141,79868,88222,88342,88829,93894,97790,101686,107531,112595
DistanceSpacing: 1.39999997615814
BeatDivisor: 8
GridSize: 8

[Metadata]
Title:Garasu no Kutsu
Artist:Itou Kanako
Creator:pete2528
Version:Easy
Source:Saya no Uta
Tags:

[Difficulty]
HPDrainRate:1
CircleSize:4
OverallDifficulty:2
ApproachRate:2
SliderMultiplier:1.4
SliderTickRate:2

[Events]
//Background and Video events
0,0,"es.jpg"
//Break Periods
2,49266,51402
//Storyboard Layer 0 (Background)
//Storyboard Layer 1 (Fail)
//Storyboard Layer 2 (Pass)
//Storyboard Layer 3 (Foreground)
//Storyboard Sound Samples
//Background Colour Transformations
3,100,0,0,0

[TimingPoints]
2313.11688311688,779.220779220779,4,2,0,51,1,0
2313.11688311688,-100,4,2,0,47,0,0
78676,-100,4,1,0,70,0,1
91533,-200,4,1,0,46,0,0
98546,-100,4,1,0,46,0,0
117832,-100,4,1,0,47,0,0

[Colours]
Combo1 : 0,128,0
Combo2 : 116,116,116
Combo3 : 255,74,74

[HitObjects]
128,104,14780,1,8
240,152,15559,1,2
126,216,16339,2,2,L|270:216,1,140,8|2
392,216,17897,5,8
440,96,18676,1,2
312,96,19455,2,2,L|312:240,1,140,8|2
216,320,21014,5,10
104,264,21793,1,8
96,136,22572,1,8
152,160,22962,1,0
208,184,23352,1,2
136,80,24131,5,8
256,128,24910,1,2
192,144,25300,1,0
128,160,25689,1,8
128,160,26468,5,2
80,112,26858,1,0
32,64,27248,1,4
32,64,27637,6,0,C|255:134|444:330,1,490,2|8
439,351,30754,6,0,C|224:256|29:72,1,490,2|8
168,96,34261,1,2
288,96,35040,5,8
184,176,35819,1,2
104,272,36598,2,0,C|256:272,1,140,8|2
304,255,37767,1,0
363,233,38157,1,8
239,209,38936,2,0,C|99:210,1,140,2|4
48,232,40105,6,0,C|240:72|480:24,1,490,2|8
488,64,43222,6,0,C|328:224|72:352,1,490,2|8
96,216,46728,5,2
96,88,47507,1,8
96,88,47897,1,0
96,88,48287,2,0,B|248:88,1,140,2|8
160,64,52962,6,0,C|64:64,2,70,8|0|2
160,128,54131,2,0,L|72:128,1,70,0|8
88,192,54910,2,0,L|192:192,1,70,0|2
160,256,55689,2,0,L|64:256,1,70,0|8
88,320,56468,2,0,L|176:320,1,70,0|2
212,288,57248,1,0
260,247,57637,1,8
260,183,58027,1,0
260,119,58417,1,4
360,56,59196,6,0,C|456:56,1,70,8|0
432,120,59975,2,0,L|352:120,2,70,2|0|8
432,184,61144,1,0
368,184,61533,2,0,L|368:248|448:248,1,140,2|8
448,312,62702,2,0,L|296:312,1,140,8|0
304,248,63871,1,8
304,184,64261,2,0,B|216:184,1,70,0|2
448,256,65430,5,8
256,320,66988,1,2
64,256,68546,1,8
64,64,70105,1,4
256,96,71663,5,8
152,184,72442,1,0
80,64,73222,1,8
72,200,74001,1,0
103,262,74391,1,0
137,323,74780,5,8
175,263,75170,1,0
205,199,75559,1,2
246,256,75949,1,0
288,312,76339,1,8
384,208,77118,1,12
168,64,78676,6,8,C|264:64,1,70
296,64,79455,2,8,C|296:144,2,70,8|0|8
358,64,80624,1,0
416,64,81014,2,8,C|416:160,1,70,8|0
448,184,81793,2,8,C|464:216|440:272,2,70,0|0|8
384,192,82962,6,0,C|344:192|312:240,1,70,0|4
272,192,83741,2,0,C|232:192|208:160,1,70,0|8
152,168,84520,2,0,C|136:128|80:120,1,70,0|0
96,64,85300,1,12
96,64,86079,2,0,C|216:48|312:40|248:88|336:120,1,385
416,141,88806,6,8,C|352:189,1,70,8|0
312,224,89585,1,0
256,248,89975,2,0,B|184:248,3,70,0|8|0|0
120,248,91533,2,2,L|120:160|208:160,1,175
128,64,94261,5,0
256,64,95040,1,8
384,64,95819,1,4
368,192,96598,5,0
320,152,96988,1,0
272,192,97378,1,8
288,256,97767,1,8
352,256,98157,1,0
416,240,98546,6,2,B|400:312|224:392|40:296|56:144,1,490
96,96,101663,5,0
168,96,102053,1,0
240,96,102442,1,0
384,96,103222,1,0
256,192,104001,12,8,106728
256,64,107507,5,8
256,208,108287,1,8
136,144,109066,1,8
136,280,109845,5,8
136,280,110235,1,0
136,280,110624,1,8
256,216,111404,5,12
256,144,111793,1,0
256,72,112183,1,8
256,192,112572,12,4,117637
