osu file format v13

[General]
AudioFilename: Find the blue (Short Ver.).mp3
AudioLeadIn: 1500
PreviewTime: 64633
Countdown: 0
SampleSet: Normal
StackLeniency: 0.7
Mode: 0
LetterboxInBreaks: 0
WidescreenStoryboard: 0

[Editor]
DistanceSpacing: 0.9
BeatDivisor: 4
GridSize: 4
TimelineZoom: 1

[Metadata]
Title:Find the blue (Short Ver)
TitleUnicode:Find the blue (Short Ver)
Artist:Itou Kanako
ArtistUnicode:いとうかなこ
Creator:Kurokami
Version:Normal
Source:ChäoS;HEAd
Tags:カオスヘッド Chaos;Head visual novel nitroplus 5pb. lussy_6 Norbi kajiyatta
BeatmapID:149246
BeatmapSetID:46843

[Difficulty]
HPDrainRate:4
CircleSize:3
OverallDifficulty:4
ApproachRate:5
SliderMultiplier:1
SliderTickRate:2

[Events]
//Background and Video events
0,0,"chaos;head.jpg",0,0
Video,-300,"Find the blue (Short Ver.).avi"
//Break Periods
//Storyboard Layer 0 (Background)
//Storyboard Layer 1 (Fail)
//Storyboard Layer 2 (Pass)
//Storyboard Layer 3 (Foreground)
//Storyboard Sound Samples
//Background Colour Transformations
3,100,163,162,255

[TimingPoints]
1190,352.941176470588,4,1,1,70,1,0
12837,-100,4,3,0,60,0,0
17425,-100,4,1,1,70,0,0
24131,-100,4,3,0,60,0,0
28719,-100,4,1,1,70,0,0
64719,-100,4,1,1,70,0,1
102131,-100,4,1,1,70,0,1
102660,-100,4,1,1,45,0,1
105660,-100,4,1,1,45,0,0
106013,-100,4,1,1,70,0,0
114131,-100,4,2,0,50,0,0
114837,-100,4,2,0,40,0,0
115542,-100,4,2,0,25,0,0
116248,-100,4,2,0,20,0,0
116954,-100,4,2,0,15,0,0
117660,-100,4,2,0,10,0,0
118366,-100,4,2,0,5,0,0

[Colours]
Combo1 : 238,224,176
Combo2 : 214,100,133
Combo3 : 219,179,4
SliderBorder : 130,125,135

[HitObjects]
260,296,1190,5,12,0:0:0:0:
348,316,1542,2,0,P|444:280|448:192,1,200,8|8,0:0|0:0,0:0:0:0:
376,140,2601,1,12,0:0:0:0:
368,232,2954,2,0,P|320:216|288:176,2,100,8|8|8,0:0|0:0|0:0,0:0:0:0:
448,192,4013,5,12,0:0:0:0:
460,104,4366,2,0,P|384:48|296:92,1,200,8|8,0:0|0:0,0:0:0:0:
248,164,5425,2,0,P|196:156|152:172,1,100,12|8,0:0|0:0,0:0:0:0:
109,247,6131,2,0,P|157:259|204:244,1,100,8|8,0:0|0:0,0:0:0:0:
296,244,6837,5,12,0:0:0:0:
372,292,7189,2,0,B|392:240|380:200|352:176|352:176|360:100,1,200,8|8,0:0|0:0,0:0:0:0:
324,20,8248,1,12,0:0:0:0:
256,76,8601,2,0,L|244:176,2,100,8|8|8,0:0|0:0|0:0,0:0:0:0:
184,20,9660,5,12,0:0:0:0:
108,68,10013,2,0,B|96:168|96:168|48:256,1,200,8|8,0:0|0:0,0:0:0:0:
96,332,11072,2,0,L|144:244,1,100,12|8,0:0|0:0,0:0:0:0:
196,172,11778,2,0,P|244:184|292:172,1,100,8|8,0:0|0:0,0:0:0:0:
368,124,12484,5,4,0:0:0:0:
376,212,12837,2,0,L|444:284,2,100,2|0|2,0:0|0:0|0:0,0:0:0:0:
292,172,13895,2,0,P|284:224|304:268,1,100,0|2,0:0|0:0,0:0:0:0:
348,344,14601,2,0,L|248:344,1,100,0|2,0:0|0:0,0:0:0:0:
164,312,15307,5,0,0:0:0:0:
92,260,15660,2,0,P|52:228|36:180,2,100,2|0|2,0:0|0:0|0:0,0:0:0:0:
124,176,16719,2,0,P|176:188|220:176,1,100,0|2,0:0|0:0,0:0:0:0:
296,128,17425,2,0,L|336:160,1,50,0|4,0:0|0:0,0:0:0:0:
252,264,18131,5,4,0:0:0:0:
200,336,18484,2,0,B|240:364|292:352|320:320|320:320|388:320,1,200,8|8,0:0|0:0,0:0:0:0:
428,240,19542,2,0,L|324:240,2,100,0|8|0,0:0|0:0|0:0,0:0:0:0:
484,172,20601,1,8,0:0:0:0:
412,120,20954,5,12,0:0:0:0:
492,80,21307,2,0,P|436:32|364:44,1,150,8|0,0:0|0:0,0:0:0:0:
324,124,22189,2,0,P|248:128|208:72,1,150,0|8,0:0|0:0,0:0:0:0:
180,40,22895,2,0,P|108:28|68:84,1,150,0|8,0:0|0:0,0:0:0:0:
140,136,23778,5,4,0:0:0:0:
72,192,24131,2,0,P|56:240|68:288,2,100,2|0|2,0:0|0:0|0:0,0:0:0:0:
144,244,25189,2,0,P|192:260|240:244,1,100,0|2,0:0|0:0,0:0:0:0:
300,180,25895,2,0,P|316:132|300:88,1,100,0|2,0:0|0:0,0:0:0:0:
228,28,26601,5,0,0:0:0:0:
160,88,26954,2,0,L|68:132,2,100,2|0|2,0:0|0:0|0:0,0:0:0:0:
228,28,28013,2,0,P|280:40|328:32,1,100,0|2,0:0|0:0,0:0:0:0:
412,56,28719,2,0,L|396:104,1,50,0|4,0:0|0:0,0:0:0:0:
384,236,29425,5,4,0:0:0:0:
320,296,29778,2,0,P|232:328|160:264,1,200,8|8,0:0|0:0,0:0:0:0:
248,240,30837,2,0,L|308:160,2,100,0|8|0,0:0|0:0|0:0,0:0:0:0:
160,264,31895,1,8,0:0:0:0:
72,240,32248,5,12,0:0:0:0:
140,180,32601,2,0,B|184:128|184:128|180:84|192:44|248:24,1,200,8|8,0:0|0:0,0:0:0:0:
272,112,33660,2,0,L|372:140,2,100,0|8|0,0:0|0:0|0:0,0:0:0:0:
188,84,34719,1,8,0:0:0:0:
100,104,35072,6,0,P|72:140|76:192,1,100,4|0,0:0|0:0,0:0:0:0:
108,276,35778,2,0,P|152:300|200:300,1,100,8|0,0:0|0:0,0:0:0:0:
244,284,36307,1,0,0:0:0:0:
316,232,36660,2,0,P|308:160|244:128,1,150,8|8,0:0|0:0,0:0:0:0:
156,124,37542,1,0,0:0:0:0:
160,212,37895,6,0,P|196:248|244:256,1,100,12|0,0:0|0:0,0:0:0:0:
328,224,38601,2,0,P|344:144|304:92,1,150,8|0,0:0|0:0,0:0:0:0:
206,93,39484,2,0,P|165:153|183:224,1,150,0|8,0:0|0:0,0:0:0:0:
264,296,40366,1,0,0:0:0:0:
224,316,40542,6,0,P|176:324|128:308,1,100,4|8,0:0|0:0,0:0:0:0:
88,288,41072,2,0,P|44:196|88:116,1,200,8|8,0:0|0:0,0:0:0:0:
156,56,42131,2,0,P|112:28|64:28,2,100,0|8|0,0:0|0:0|0:0,0:0:0:0:
184,92,43013,2,0,P|232:108|280:96,1,100
316,72,43542,5,0,0:0:0:0:
392,24,43895,1,8,0:0:0:0:
472,64,44248,1,8,0:0:0:0:
396,112,44601,1,0,0:0:0:0:
396,204,44954,2,0,L|316:264,2,100,0|8|0,0:0|0:0|0:0,0:0:0:0:
472,156,46013,1,8,0:0:0:0:
472,244,46366,5,4,0:0:0:0:
420,316,46719,2,0,B|364:356|364:356|300:384|240:344,1,200,8|8,0:0|0:0,0:0:0:0:
180,276,47778,1,0,0:0:0:0:
116,212,48131,1,8,0:0:0:0:
180,148,48484,1,0,0:0:0:0:
244,212,48837,1,8,0:0:0:0:
320,256,49189,6,0,P|332:208|316:160,1,100,0|8,0:0|0:0,0:0:0:0:
268,84,49895,2,0,P|316:68|364:84,1,100,0|8,0:0|0:0,0:0:0:0:
436,132,50601,1,0,0:0:0:0:
432,220,50954,2,0,L|496:296,2,100,8|0|8,0:0|0:0|0:0,0:0:0:0:
356,172,52013,6,0,P|268:128|192:184,1,200,4|0,0:0|0:0,0:0:0:0:
276,220,53072,1,8,0:0:0:0:
356,260,53425,1,0,0:0:0:0:
280,308,53778,2,0,L|184:336,2,100,8|0|8,0:0|0:0|0:0,0:0:0:0:
356,260,54837,6,0,P|408:180|356:100,1,200,0|0,0:0|0:0,0:0:0:0:
268,104,55895,1,8,0:0:0:0:
316,180,56248,1,0,0:0:0:0:
268,256,56601,2,0,L|268:356,2,100,8|0|8,0:0|0:0|0:0,0:0:0:0:
220,180,57660,5,12,0:0:0:0:
132,200,58013,2,0,B|124:140|152:116|176:100|176:100|256:72,1,200,8|8,0:0|0:0,0:0:0:0:
340,48,59072,1,0,0:0:0:0:
416,96,59425,2,0,B|436:144|420:188|420:188|400:240|420:292,1,200,8|8,0:0|0:0,0:0:0:0:
256,192,60484,12,8,62954,0:0:0:0:
256,108,64719,6,0,P|204:92|156:100,1,100,4|8,0:0|0:0,0:0:0:0:
100,176,65425,2,0,P|152:192|200:184,1,100,0|8,0:0|0:0,0:0:0:0:
284,196,66131,2,0,P|332:212|380:208,2,100,4|8|0,0:0|0:0|0:0,0:0:0:0:
196,184,67189,1,8,0:0:0:0:
144,256,67542,6,0,P|156:308|188:340,1,100,4|8,0:0|0:0,0:0:0:0:
276,332,68248,1,0,0:0:0:0:
364,340,68601,1,8,0:0:0:0:
420,268,68954,2,0,B|372:236|324:256|324:256|272:228|224:256,1,200,4|0,0:0|0:0,0:0:0:0:
144,288,70013,1,8,0:0:0:0:
64,244,70366,6,0,P|88:196|84:144,1,100,4|8,0:0|0:0,0:0:0:0:
80,60,71072,2,0,P|132:76|180:68,1,100,0|8,0:0|0:0,0:0:0:0:
264,40,71778,2,0,P|312:32|360:48,2,100,4|8|0,0:0|0:0|0:0,0:0:0:0:
176,68,72837,1,8,0:0:0:0:
108,128,73189,6,0,P|100:180|120:224,1,100,4|8,0:0|0:0,0:0:0:0:
168,296,73895,1,0,0:0:0:0:
236,356,74248,1,8,0:0:0:0:
324,364,74601,6,0,P|364:332|376:284,1,100,4|0,0:0|0:0,0:0:0:0:
376,240,75131,2,0,P|362:192|323:162,1,100,12|0,0:0|0:0,0:0:0:0:
280,152,75660,1,12,0:0:0:0:
204,104,76013,6,0,P|192:152|204:200,1,100,4|8,0:0|0:0,0:0:0:0:
248,280,76719,2,0,P|196:292|152:276,1,100,0|8,0:0|0:0,0:0:0:0:
80,224,77425,2,0,P|64:272|72:320,2,100,4|8|0,0:0|0:0|0:0,0:0:0:0:
100,136,78484,1,8,0:0:0:0:
144,56,78837,6,0,B|208:28|264:56|264:56|340:72,1,200,4|0,0:0|0:0,0:0:0:0:
412,124,79895,1,8,0:0:0:0:
340,180,80248,2,0,B|264:196|264:196|208:224|144:196,1,200,4|0,0:0|0:0,0:0:0:0:
88,128,81307,1,8,0:0:0:0:
52,212,81660,6,0,P|88:272|160:300,1,150,4|0,0:0|0:0,0:0:0:0:
248,320,82542,1,0,0:0:0:0:
336,296,82895,2,0,B|368:200|368:200|428:144|388:64,1,250,4|0,0:0|0:0,0:0:0:0:
304,36,84131,2,0,L|204:36,1,100,8|4,0:0|0:0,0:0:0:0:
220,124,84837,6,0,L|324:124,2,100,8|0|0,0:0|0:0|0:0,0:0:0:0:
176,116,85719,2,0,P|124:184|148:236,1,150,8|8,0:0|0:0,0:0:0:0:
172,272,86425,2,0,P|228:312|304:292,1,150
368,228,87307,6,0,L|280:180,1,100,4|0,0:0|0:0,0:0:0:0:
196,152,88013,2,0,P|168:104|180:64,1,100,8|0,0:0|0:0,0:0:0:0:
208,28,88542,2,0,P|256:12|300:28,1,100
328,64,89072,2,0,P|356:112|344:152,1,100,0|8,0:0|0:0,0:0:0:0:
256,180,89778,1,0,0:0:0:0:
168,164,90131,5,4,0:0:0:0:
96,108,90484,1,8,0:0:0:0:
88,64,90660,2,0,P|140:68|188:56,1,100,4|0,0:0|0:0,0:0:0:0:
272,24,91366,2,0,P|372:60|336:176,1,250,4|8,0:0|0:0,0:0:0:0:
256,212,92601,1,8,0:0:0:0:
188,272,92954,6,0,P|252:304|320:276,2,150,4|0|8,0:0|0:0|0:0,0:0:0:0:
124,208,94366,2,0,P|88:120|152:48,1,200,4|0,0:0|0:0,0:0:0:0:
240,28,95425,1,8,0:0:0:0:
328,48,95778,6,0,P|390:119|354:207,1,200,4|0,0:0|0:0,0:0:0:0:
300,280,96837,1,8,0:0:0:0:
216,316,97189,2,0,P|168:312|132:276,1,100,12|0,0:0|0:0,0:0:0:0:
128,232,97719,2,0,P|132:188|168:148,1,100,8|0,0:0|0:0,0:0:0:0:
212,140,98248,5,8,0:0:0:0:
300,164,98601,2,0,P|380:168|424:120,2,150,4|0|8,0:0|0:0|0:0,0:0:0:0:
212,140,100013,2,0,P|144:112|76:144,1,150,4|0,0:0|0:0,0:0:0:0:
12,204,100895,2,0,P|80:232|148:200,1,150,0|12,0:0|0:0,0:0:0:0:
256,60,102131,6,0,L|256:160,1,100,0|12,0:0|0:0,0:0:0:0:
256,192,102837,12,4,105660,0:0:0:0:
292,120,107072,6,0,B|316:168|292:216,1,100,8|8,0:0|0:0,0:0:0:0:
216,264,107778,2,0,B|192:216|216:168,1,100,8|8,0:0|0:0,0:0:0:0:
212,76,108484,5,12,0:0:0:0:
144,16,108837,2,0,B|112:76|112:76|64:116|64:116|36:184,1,200,8|8,0:0|0:0,0:0:0:0:
20,268,109895,5,12,0:0:0:0:
84,332,110248,2,0,P|136:332|176:308,2,100,8|8|8,0:0|0:0|0:0,0:0:0:0:
20,268,111307,5,12,0:0:0:0:
108,244,111660,2,0,P|200:216|264:284,1,200,8|8,0:0|0:0,0:0:0:0:
320,356,112719,6,0,P|352:312|352:268,1,100,12|8,0:0|0:0,0:0:0:0:
316,184,113425,2,0,P|276:144|236:128,1,100,8|8,0:0|0:0,0:0:0:0:
256,192,114131,12,0,118366,0:0:0:0:
