osu file format v5

[General]
AudioFilename: 01 - F.D.D..mp3
AudioLeadIn: 0
PreviewTime: -1
Countdown: 1
SampleSet: Normal
StackLeniency: 0.7
Mode: 0
LetterboxInBreaks: 1

[Metadata]
Title:F.D.D.
Artist:Itou Kanako
Creator:luchia_girl
Version:Normal (Short edit)
Source:
Tags:

[Difficulty]
HPDrainRate:2
CircleSize:4
OverallDifficulty:2
SliderMultiplier:1.4
SliderTickRate:1

[Events]
//Background and Video events
0,0,"013261350.jpg"
//Break Periods
2,35596,40589
//Storyboard Layer 0 (Background)
//Storyboard Layer 1 (Failing)
//Storyboard Layer 2 (Passing)
//Storyboard Layer 3 (Foreground)
//Storyboard Sound Samples
//Background Colour Transformations
3,100,64,0,64

[TimingPoints]
38908,360.1605,4,1,0,100,1,0

[Colours]
Combo1 : 64,0,128
Combo2 : 0,64,128
Combo3 : 254,146,186
Combo4 : 255,255,128
Combo5 : 192,192,192

[HitObjects]
64,96,18829,1,2
128,96,19009,1,2
288,96,19549,1,2
352,96,19729,1,2
352,256,20269,1,8
288,256,20449,1,8
128,256,20990,1,8
64,256,21170,1,8
0,96,21800,6,2,B|96:96,1,70
160,96,22340,1,0
256,96,22700,1,2
352,96,23060,1,0
448,96,23421,1,2
448,192,23781,1,4
160,192,24681,6,2,B|160:96,1,70
320,128,25401,2,2,B|416:128,1,70
416,224,25942,2,8,B|320:224,2,70
256,256,26842,2,8,B|160:256,1,70
96,128,27562,6,0,B|160:64,1,70
288,96,28103,1,0
384,96,28463,1,2
480,96,28823,1,0
480,192,29183,1,2
352,192,29543,1,4
160,192,30174,6,2,B|96:160,1,70
96,96,30534,2,2,B|160:64,1,70
288,64,31074,2,8,B|384:96,1,70
354,86,31434,2,8,B|416:96|384:160|352:160|320:160|416:160|384:192|320:224|352:256|384:256|352:288,1,210
320,288,32154,2,6,B|96:288,1,210
96,160,33055,6,8,B|96:64,3,70
256,96,33955,5,0
256,96,34135,5,2
320,96,34315,2,2,B|320:128|288:160|256:160|224:160|192:160|192:128|160:128|160:96|192:96,1,210
178,99,35036,6,6,B|96:96,2,70
32,64,41789,5,0
128,64,42149,1,2
224,64,42509,1,2
320,64,42869,1,0
416,64,43229,1,0
416,160,43590,1,2
416,256,43950,1,2
320,256,44310,1,2
224,256,44670,5,0
128,256,45030,1,8
32,256,45390,1,8
32,160,45751,2,8,B|32:64,1,70
128,128,46291,1,2
192,128,46471,2,6,B|256:160,3,70
160,288,47551,6,2,B|256:256,3,70
320,224,48452,5,0
256,224,48632,1,8
160,192,48992,6,8,B|160:96,3,70
32,96,49892,6,2,B|96:64,3,70
384,64,51513,5,2
384,192,51963,2,12,B|384:288|320:256|288:224|288:96|192:192|160:288|96:256|64:128,1,420
32,160,53404,6,2,B|32:64|128:64|96:160|160:160|192:64|256:64,1,280
96,224,54845,2,2,B|128:160|192:224|192:256|256:224|288:128|352:128|320:192,1,280
352,224,55745,6,8,B|448:224,3,70
416,96,56645,1,8
416,96,56825,1,8
288,96,57186,1,2
160,96,57546,1,2
160,96,57726,2,6,B|32:96|32:192|128:160|160:160|96:192|96:192|0:224,1,280
128,192,58806,6,2,B|192:192|192:256|128:256|96:256|128:288|160:288,3,140
96,96,60247,6,0,B|160:64|192:128|192:128|192:160,3,140,8|2|8|0
416,224,62138,6,8,B|352:160,1,70
320,160,62498,2,8,B|256:192,1,70
192,192,62858,2,8,B|128:160,1,70
32,160,63398,6,2,B|32:64,1,70
32,90,63759,1,8
128,128,64119,2,2,B|288:128,1,140
268,128,64659,5,6
384,128,65019,6,8,B|384:256,1,105
384,320,65559,1,2
320,320,65739,6,8,B|192:320,1,105
128,320,66280,1,2
128,256,66460,6,8,B|128:128,1,105
128,64,67000,1,2
256,96,67360,6,2,B|288:96|320:96|288:128,3,70
224,224,68261,1,2
224,224,68441,1,2
96,224,68801,1,0
96,96,69161,1,2
96,96,69341,1,6
128,160,70692,6,2,B|64:128,1,70
64,32,71142,1,2
128,64,71412,2,2,B|192:32,1,70
256,96,71862,1,2
352,96,72132,2,2,B|352:192,1,70
352,256,72583,1,2
256,256,72853,1,2
256,256,73033,1,2
160,224,73393,5,8
160,224,73573,1,8
32,160,74293,6,8,B|32:64|32:32|224:32|256:96|128:160|96:128|64:192,1,350
224,96,75734,6,8,B|384:96,1,140
364,96,76274,5,2
364,96,76454,1,2
364,96,76634,6,2,B|448:128|384:192|288:224|352:256|416:352,1,280
288,320,77715,5,0
288,320,77895,1,8
128,256,78525,1,0
128,256,78705,1,8
32,192,79065,1,8
32,192,79245,1,8
32,192,79426,1,8
256,32,80326,5,4
384,160,81046,6,2,B|96:160,1,280
104,160,81947,5,6
104,160,82127,5,6
96,256,82487,6,2,B|384:256,1,280
448,320,83928,2,8,B|160:320,1,280
64,320,85008,1,6
32,224,85368,1,6
256,192,85908,12,4,88340
