osu file format v14

[General]
AudioFilename: OP.mp3
AudioLeadIn: 0
PreviewTime: 69699
Countdown: 0
SampleSet: Soft
StackLeniency: 0.7
Mode: 0
LetterboxInBreaks: 0
WidescreenStoryboard: 0

[Editor]
Bookmarks: 13767
DistanceSpacing: 1
BeatDivisor: 2
GridSize: 16
TimelineZoom: 2.899999

[Metadata]
Title:Amadeus
TitleUnicode:アマデウス
Artist:Itou Kanako
ArtistUnicode:いとうかなこ
Creator:ZZHBOY
Version:Normal
Source:STEINS;GATE 0
Tags:
BeatmapID:791968
BeatmapSetID:359472

[Difficulty]
HPDrainRate:4
CircleSize:3
OverallDifficulty:4
ApproachRate:5
SliderMultiplier:1.2
SliderTickRate:1

[Events]
//Background and Video events
0,0,"BG.jpg",0,0
//Break Periods
//Storyboard Layer 0 (Background)
//Storyboard Layer 1 (Fail)
//Storyboard Layer 2 (Pass)
//Storyboard Layer 3 (Foreground)
//Storyboard Sound Samples

[TimingPoints]
208,338.983050847458,4,2,1,50,1,0
208,-133.333333333333,4,2,1,50,0,0
13767,-100,4,2,1,60,0,0
25970,-100,4,2,1,50,0,0
36818,-100,4,2,1,60,0,0
70546,-100,4,2,1,80,0,1
81224,-100,4,2,1,70,0,0
81394,-100,4,2,1,80,0,1
92241,-100,4,2,1,70,0,0

[Colours]
Combo1 : 255,213,85
Combo2 : 160,154,190
Combo3 : 140,192,255
Combo4 : 254,180,237

[HitObjects]
137,116,13767,5,0,1:0:0:0:
161,233,14106,1,8,1:0:0:0:
251,154,14445,2,0,P|320:147|439:160,1,180,0|0,1:0|1:0,0:0:0:0:
471,201,15123,6,0,P|469:279|454:328,1,120,4|8,1:0|0:0,0:0:0:0:
405,348,15631,2,0,P|327:347|271:338,1,120,0|0,1:0|0:0,0:0:0:0:
240,300,16140,1,8,0:0:0:0:
192,264,16309,6,0,P|121:261|59:271,1,120,0|0,1:0|1:0,0:0:0:0:
13,162,16987,2,0,P|14:87|9:32,1,120,0|0,1:0|1:0,0:0:0:0:
62,11,17496,2,0,P|99:8|126:12,1,60,8|0,0:0|0:0,0:0:0:0:
158,58,17835,6,0,P|231:65|310:58,1,120,0|8,1:0|0:0,0:0:0:0:
391,23,18513,1,0,0:0:0:0:
414,78,18682,2,0,P|412:149|403:178,1,60,0|8,0:0|0:0,0:0:0:0:
372,180,19021,6,0,P|372:258|381:320,1,120,0|0,1:0|1:0,0:0:0:0:
265,344,19699,2,0,P|192:346|116:340,1,120,0|0,1:0|1:0,0:0:0:0:
72,178,20546,6,0,P|241:84|154:246,1,480,0|0,1:0|1:0,0:0:0:0:
115,346,22241,1,8,0:0:0:0:
234,342,22580,6,0,P|306:308|338:235,1,120,0|8,1:0|0:0,0:0:0:0:
318,156,23258,2,0,P|316:104|319:84,1,60,0|0,1:0|0:0,0:0:0:0:
354,49,23597,2,0,L|435:51,1,60,8|0,0:0|0:0,0:0:0:0:
453,95,23936,1,0,0:0:0:0:
461,154,24106,1,8,0:0:0:0:
436,208,24275,2,0,P|437:275|447:322,1,60,8|4,0:0|1:0,0:0:0:0:
105,103,25970,5,0,1:0:0:0:
277,156,26479,2,0,P|269:240|210:343,1,180,0|0,1:0|0:0,0:0:0:0:
107,344,27326,1,2,0:0:0:0:
105,103,28682,6,0,P|198:97|289:99,1,180,0|0,1:0|0:0,0:0:0:0:
452,163,29699,1,0,0:0:0:0:
422,279,30038,1,0,0:0:0:0:
105,103,31394,6,0,P|198:97|239:104,1,120,0|0,3:0|0:0,0:0:0:0:
262,146,31902,2,0,P|261:217|246:302,1,120,8|0,3:0|0:0,0:0:0:0:
208,305,32411,1,0,0:0:0:0:
312,364,32750,5,0,3:0:0:0:
430,344,33089,1,0,0:0:0:0:
493,242,33428,2,0,P|477:182|418:124,1,120,0|0,3:0|3:0,0:0:0:0:
374,239,34106,6,0,P|290:238|161:205,1,180,4|8,3:0|3:0,0:0:0:0:
447,53,35462,2,0,P|383:82|361:82,1,60,2|0,0:0|0:0,0:0:0:0:
334,83,35801,2,0,P|305:93|281:110,1,60,8|0,3:0|0:0,0:0:0:0:
265,168,36140,1,0,1:0:0:0:
280,225,36309,2,0,P|279:272|271:301,2,60,0|0|0,0:0|1:0|0:0,0:0:0:0:
340,220,36818,6,0,P|399:215|479:234,1,120,0|8,1:0|0:0,0:0:0:0:
484,280,37326,1,0,3:0:0:0:
385,348,37665,2,0,L|313:351,1,60,8|8,3:0|0:0,0:0:0:0:
204,356,38174,5,0,1:0:0:0:
86,332,38513,2,0,P|79:281|81:254,1,60,8|8,0:0|3:0,0:0:0:0:
90,213,38852,1,0,3:0:0:0:
110,156,39021,2,0,L|100:96,1,60,0|8,3:0|0:0,0:0:0:0:
136,48,39360,6,0,P|183:41|214:43,1,60,0|0,3:0|1:0,0:0:0:0:
298,102,39869,1,8,0:0:0:0:
341,143,40038,2,0,P|390:138|416:129,1,60,0|0,3:0|3:0,0:0:0:0:
458,147,40377,1,0,3:0:0:0:
475,204,40546,6,0,P|468:277|437:343,1,120,0|0,1:0|1:0,0:0:0:0:
391,310,41055,1,0,1:0:0:0:
332,298,41224,2,0,L|246:310,1,60,8|0,0:0|1:0,0:0:0:0:
156,337,41733,1,0,1:0:0:0:
108,300,41902,2,0,P|105:260|110:227,1,60,8|0,0:0|0:0,0:0:0:0:
145,194,42241,6,0,P|150:122|142:64,1,120,0|8,1:0|0:0,0:0:0:0:
192,38,42750,1,0,3:0:0:0:
300,88,43089,2,0,P|299:134|288:161,1,60,0|8,3:0|0:0,0:0:0:0:
244,180,43428,1,0,0:0:0:0:
239,239,43597,6,0,P|318:260|395:244,1,120,0|8,1:0|0:0,0:0:0:0:
410,231,44106,1,0,3:0:0:0:
452,189,44275,2,0,L|451:120,2,60,0|0|8,1:0|1:0|0:0,0:0:0:0:
487,304,44953,5,0,1:0:0:0:
382,363,45292,2,0,L|306:362,1,60,8|0,0:0|1:0,0:0:0:0:
214,307,45801,1,0,3:0:0:0:
156,290,45970,2,0,L|81:299,1,60,8|0,0:0|0:0,0:0:0:0:
43,269,46309,6,0,P|28:182|37:93,1,120,0|8,1:0|0:0,0:0:0:0:
102,55,46987,1,0,3:0:0:0:
160,41,47157,2,0,L|265:45,1,60,0|8,3:0|0:0,0:0:0:0:
277,60,47496,1,0,0:0:0:0:
333,79,47665,6,0,P|424:75|458:66,1,120,6|0,0:1|0:0,0:0:0:0:
503,176,48343,1,8,0:0:0:0:
481,294,48682,1,0,3:0:0:0:
362,272,49021,2,0,P|301:269|219:282,1,120,0|0,0:0|1:0,0:0:0:0:
140,340,49699,1,8,0:0:0:0:
75,238,50038,1,0,1:0:0:0:
181,182,50377,6,0,P|179:109|170:64,1,120,0|0,1:0|0:0,0:0:0:0:
115,37,50885,2,0,P|204:42|344:26,1,180,0|0,1:0|0:0,0:0:0:0:
350,13,51563,5,0,3:0:0:0:
421,109,51902,1,0,3:0:0:0:
339,196,52241,1,0,3:0:0:0:
322,253,52411,2,0,P|327:297|337:326,1,60,8|8,0:0|0:0,0:0:0:0:
382,344,52750,1,0,1:0:0:0:
473,266,53089,6,0,P|489:218|489:200,1,60,0|0,3:0|3:0,3:0:0:0:
421,109,53597,1,0,3:0:0:0:
372,74,53767,2,0,P|288:64|206:67,1,120,8|0,0:0|0:0,0:0:0:0:
204,100,54275,2,0,P|137:102|76:97,1,120,0|0,1:0|0:0,0:0:0:0:
43,53,54784,1,0,3:0:0:0:
12,169,55123,2,0,P|15:247|38:305,1,120,8|0,0:0|0:0,0:0:0:0:
146,308,55801,6,0,L|212:325,1,60,0|0,1:0|1:0,0:0:0:0:
319,354,56309,1,0,0:0:0:0:
359,309,56479,2,0,P|363:237|349:182,1,120,8|0,0:0|0:0,0:0:0:0:
295,169,56987,2,0,P|283:110|288:50,1,120,0|0,1:0|0:0,0:0:0:0:
334,11,57496,1,0,1:0:0:0:
446,52,57835,5,8,0:0:0:0:
473,104,58004,2,0,L|467:191,1,60,0|8,0:0|0:0,0:0:0:0:
435,213,58343,1,0,0:0:0:0:
378,233,58513,6,0,P|297:237|224:223,1,120,4|0,1:0|0:0,0:0:0:0:
202,211,59021,2,0,P|196:137|203:88,1,120,0|0,1:0|0:0,0:0:0:0:
233,40,59530,1,8,0:0:0:0:
113,52,59869,6,0,P|46:55|35:51,1,60,0|0,1:0|1:0,0:0:0:0:
16,103,60208,1,8,0:0:0:0:
50,151,60377,2,0,P|47:215|41:264,1,60,0|0,1:0|0:0,0:0:0:0:
5,254,60716,2,0,P|6:291|14:321,1,60,0|8,0:0|0:0,0:0:0:0:
63,343,61055,1,0,0:0:0:0:
122,352,61224,6,0,P|197:342|273:349,1,120,0|8,3:0|0:0,0:0:0:0:
286,303,61733,2,0,P|291:214|277:159,1,120,0|0,0:0|0:0,0:0:0:0:
257,130,62241,1,8,0:0:0:0:
343,46,62580,5,8,0:0:0:0:
379,94,62750,1,0,1:0:0:0:
398,150,62919,2,0,L|383:242,1,60,8|0,0:0|3:0,0:0:0:0:
405,267,63258,1,0,3:0:0:0:
423,324,63428,2,0,L|390:374,1,60,0|8,1:0|0:0,0:0:0:0:
270,370,63936,6,0,P|244:263|245:214,1,120,0|8,1:0|0:0,0:0:0:0:
282,207,64445,2,0,L|281:82,1,120,0|0,1:0|0:0,0:0:0:0:
254,33,64953,1,8,0:0:0:0:
169,117,65292,6,0,P|80:131|3:118,1,120,0|8,1:0|0:0,0:0:0:0:
1,163,65801,2,0,P|2:241|17:302,1,120,0|0,1:0|1:0,0:0:0:0:
66,304,66309,1,8,0:0:0:0:
175,255,66648,6,0,P|264:260|310:271,1,120,0|8,1:0|0:0,0:0:0:0:
345,375,67326,1,0,1:0:0:0:
452,321,67665,1,8,0:0:0:0:
401,212,68004,6,0,P|391:131|396:65,1,120,0|8,1:0|0:0,0:0:0:0:
430,45,68513,1,0,3:0:0:0:
192,120,70038,6,0,P|239:117|272:123,1,60,2|2,0:1|0:1,0:0:0:0:
318,217,70546,6,0,P|239:213|146:231,1,120,4|0,1:0|0:0,0:0:0:0:
145,246,71055,2,0,P|99:250|36:234,1,60,8|0,0:0|1:0,0:0:0:0:
37,212,71394,1,0,1:0:0:0:
47,153,71563,2,0,P|45:108|36:78,1,60,0|8,1:0|0:0,0:0:0:0:
88,55,71902,6,0,P|150:46|217:49,1,120,0|0,1:0|1:0,0:0:0:0:
282,141,72580,2,0,P|366:143|427:130,1,120,0|0,1:0|1:0,0:0:0:0:
456,162,73089,1,8,0:0:0:0:
508,191,73258,6,0,P|512:273|501:329,1,120,0|0,1:0|0:0,0:0:0:0:
455,343,73767,2,0,P|385:341|348:334,1,60,8|0,0:0|0:0,0:0:0:0:
342,312,74106,2,0,L|239:307,1,60,0|0,3:0|1:0,0:0:0:0:
163,288,74614,6,0,P|75:282|29:291,1,120,0|0,1:0|1:0,0:0:0:0:
10,237,75123,1,8,0:0:0:0:
5,177,75292,2,0,P|4:111|10:53,1,120,0|0,1:0|1:0,0:0:0:0:
46,9,75801,1,8,0:0:0:0:
157,52,76140,5,0,3:0:0:0:
268,95,76479,2,0,L|343:82,1,60,8|0,0:0|0:0,0:0:0:0:
386,94,76818,1,0,1:0:0:0:
437,124,76987,2,0,P|452:205|448:268,1,120,0|0,1:0|0:0,0:0:0:0:
406,283,77496,6,0,L|326:311,1,60,0|0,1:0|0:0,0:0:0:0:
289,297,77835,1,8,0:0:0:0:
233,273,78004,2,0,P|154:288|94:313,1,120
73,344,78513,1,8,0:0:0:0:
39,228,78852,5,4,1:0:0:0:
114,135,79191,1,0,1:0:0:0:
221,187,79530,2,0,P|291:179|357:145,1,120,0|0,1:0|1:0,0:0:0:0:
352,100,80038,1,0,1:0:0:0:
472,104,80377,5,0,1:0:0:0:
487,161,80546,2,0,P|478:270|456:326,1,120,0|8,1:0|0:0,0:0:0:0:
430,320,81055,1,8,0:0:0:0:
315,287,81394,6,0,P|247:283|171:291,1,120,4|0,1:0|0:0,0:0:0:0:
136,296,81902,1,8,0:0:0:0:
76,312,82072,2,0,P|77:341|84:371,2,60,0|0|0,1:0|3:0|3:0,0:0:0:0:
108,196,82750,5,0,1:0:0:0:
12,144,83089,2,0,P|8:68|16:16,2,120,8|0|8,0:0|1:0|0:0,0:0:0:0:
56,184,83936,1,8,0:0:0:0:
108,196,84106,6,0,P|192:184|264:196,1,120,4|0,1:0|0:0,0:0:0:0:
274,224,84614,1,8,0:0:0:0:
324,257,84784,2,0,P|324:295|318:335,2,60,0|0|0,3:0|1:0|1:0,0:0:0:0:
427,196,85462,6,0,P|414:111|414:44,1,120,4|0,1:0|0:0,0:0:0:0:
358,51,85970,1,8,0:0:0:0:
302,28,86140,2,0,P|225:29|152:35,1,120,0|0,1:0|1:0,0:0:0:0:
122,40,86648,1,8,0:0:0:0:
75,150,86987,5,4,1:0:0:0:
64,209,87157,2,0,P|69:269|85:310,1,60,0|0,1:0|1:0,0:0:0:0:
112,309,87496,2,0,P|188:311|281:298,1,120,8|0,0:0|1:0,0:0:0:0:
259,253,88004,2,0,P|304:249|351:252,1,60,8|0,0:0|3:0,0:0:0:0:
347,196,88343,6,0,P|338:117|343:58,1,120,0|8,1:0|0:0,0:0:0:0:
374,26,88852,1,0,3:0:0:0:
493,27,89191,1,0,0:0:0:0:
510,84,89361,2,0,P|512:113|511:143,1,60,8|0,0:0|0:0,0:0:0:0:
481,195,89699,5,4,1:0:0:0:
450,311,90038,1,0,1:0:0:0:
345,252,90377,1,0,1:0:0:0:
237,304,90716,2,0,L|162:317,1,60,8|8,0:0|0:0,0:0:0:0:
168,194,91224,6,0,L|98:172,1,60,0|8,1:0|0:0,0:0:0:0:
63,139,91563,1,8,0:0:0:0:
56,79,91733,2,0,L|115:51,1,60,0|0,3:0|3:0,0:0:0:0:
215,110,92241,6,0,P|288:128|386:118,1,120,4|0,1:0|0:0,0:0:0:0:
390,112,92750,1,8,0:0:0:0:
439,79,92919,2,0,L|438:16,2,60,0|0|0,0:0|0:0|0:0,0:0:0:0:
436,139,93428,2,0,L|439:209,1,60,8|0,0:0|1:0,0:0:0:0:
330,251,93936,2,0,L|343:317,1,60,0|8,0:0|0:0,0:0:0:0:
287,336,94275,1,0,1:0:0:0:
226,336,94445,2,0,P|153:338|77:313,1,120,0|8,1:0|0:0,0:0:0:0:
65,283,94953,1,0,1:0:0:0:
69,159,95292,5,0,0:0:0:0:
104,110,95462,2,0,P|185:112|245:132,1,120,8|0,0:0|0:0,0:0:0:0:
278,101,95970,2,0,L|350:102,2,60,0|8|0,0:0|0:0|0:0,0:0:0:0:
286,221,96648,5,0,0:0:0:0:
338,250,96818,2,0,P|384:257|423:245,1,60,8|0,0:0|0:0,0:0:0:0:
450,281,97157,2,0,L|453:340,2,60,0|0|8,0:0|0:0|0:0,0:0:0:0:
486,233,97665,2,0,P|483:151|481:70,1,120,2|0,1:0|1:0,0:0:0:0:
464,55,98174,1,8,0:0:0:0:
347,83,98513,6,0,P|297:85|282:83,1,60
235,53,98852,1,8,0:0:0:0:
179,75,99021,2,0,P|172:151|177:219,1,120,0|0,0:0|0:0,0:0:0:0:
198,250,99530,1,8,0:0:0:0:
316,229,99869,6,0,L|385:227,1,60
406,278,100208,2,0,L|485:255,1,60,8|0,0:0|0:0,0:0:0:0:
256,192,100546,12,4,103089,1:0:0:0:
