osu file format v14

[General]
AudioFilename: OP.mp3
AudioLeadIn: 0
PreviewTime: 69699
Countdown: 0
SampleSet: Soft
StackLeniency: 0.7
Mode: 0
LetterboxInBreaks: 0
WidescreenStoryboard: 0

[Editor]
Bookmarks: 13767
DistanceSpacing: 0.6
BeatDivisor: 4
GridSize: 4
TimelineZoom: 2.899999

[Metadata]
Title:Amadeus
TitleUnicode:アマデウス
Artist:Itou Kanako
ArtistUnicode:いとうかなこ
Creator:ZZHBOY
Version:Extra
Source:STEINS;GATE 0
Tags:
BeatmapID:790355
BeatmapSetID:359472

[Difficulty]
HPDrainRate:7
CircleSize:4
OverallDifficulty:8
ApproachRate:9.2
SliderMultiplier:2
SliderTickRate:1

[Events]
//Background and Video events
0,0,"BG.jpg",0,0
//Break Periods
//Storyboard Layer 0 (Background)
//Storyboard Layer 1 (Fail)
//Storyboard Layer 2 (Pass)
//Storyboard Layer 3 (Foreground)
//Storyboard Sound Samples

[TimingPoints]
208,338.983050847458,4,2,1,40,1,0
1563,-133.333333333333,4,2,1,40,0,0
13767,-100,4,2,1,60,0,0
14784,-100,4,2,1,70,0,0
24445,-66.6666666666667,4,2,1,70,0,0
24784,-200,4,2,0,20,0,0
25970,-100,4,2,1,60,0,0
68682,-133.333333333333,4,2,1,50,0,0
69699,-66.6666666666667,4,2,0,40,0,0
70546,-83.3333333333333,4,2,1,80,0,1
81224,-83.3333333333333,4,2,1,60,0,0
81394,-83.3333333333333,4,2,1,90,0,1
92241,-100,4,2,1,70,0,0
101902,-100,4,2,1,50,0,0
102241,-100,4,2,1,70,0,0

[Colours]
Combo1 : 255,213,85
Combo2 : 160,154,190
Combo3 : 140,192,255
Combo4 : 254,180,237

[HitObjects]
201,172,13767,5,0,1:0:0:0:
227,322,13936,1,0,0:0:0:0:
399,140,14106,1,8,1:0:0:0:
387,336,14275,1,0,0:0:0:0:
201,172,14445,5,0,1:0:0:0:
205,201,14530,1,0,1:0:0:0:
211,229,14614,1,0,1:0:0:0:
217,258,14699,1,0,1:0:0:0:
224,288,14784,5,0,1:0:0:0:
272,252,14869,1,0,1:0:0:0:
284,196,14953,1,0,1:0:0:0:
276,136,15038,1,0,1:0:0:0:
252,80,15123,6,0,P|200:99|58:82,1,200,4|8,1:0|0:0,0:0:0:0:
350,47,15631,1,0,0:0:0:0:
350,47,15801,2,0,P|384:87|390:167,1,100,0|0,1:0|0:0,0:0:0:0:
291,344,16140,1,8,0:0:0:0:
94,158,16309,2,0,P|159:140|212:149,1,100,0|0,0:0|1:0,0:0:0:0:
291,344,16648,2,0,P|254:311|230:268,1,100,0|8,0:0|0:0,0:0:0:0:
357,88,16987,2,0,P|347:137|321:180,1,100,0|0,0:0|1:0,0:0:0:0:
188,88,17326,2,0,L|129:85,1,50,0|0,1:0|0:0,0:0:0:0:
72,152,17496,2,0,P|60:210|60:276,1,100,8|0,0:0|0:0,0:0:0:0:
256,358,17835,6,0,P|277:266|274:146,1,200,0|8,1:0|0:0,0:0:0:0:
186,32,18343,2,0,P|125:42|76:60,1,100,0|0,0:0|1:0,0:0:0:0:
147,251,18682,1,0,0:0:0:0:
243,128,18852,2,0,P|307:116|364:117,1,100,8|0,0:0|0:0,0:0:0:0:
481,213,19191,2,0,P|488:263|491:321,1,100,0|0,1:0|0:0,0:0:0:0:
325,328,19530,2,0,P|316:276|312:212,1,100,8|0,0:0|0:0,0:0:0:0:
115,211,19869,1,0,1:0:0:0:
212,347,20038,1,0,0:0:0:0:
223,225,20208,1,0,1:0:0:0:
228,195,20292,1,0,1:0:0:0:
232,165,20377,1,0,1:0:0:0:
235,135,20462,1,0,1:0:0:0:
240,105,20546,6,0,P|161:105|93:78,1,150,0|0,1:0|0:0,0:0:0:0:
81,53,20885,2,0,P|81:108|78:185,1,100,8|0,0:0|0:0,0:0:0:0:
188,20,21224,1,0,1:0:0:0:
368,40,21394,1,0,0:0:0:0:
368,40,21479,1,0,0:0:0:0:
368,40,21563,2,0,P|368:104|356:152,1,100,8|0,0:0|0:0,0:0:0:0:
206,194,21902,2,0,P|205:132|213:94,1,100,0|0,1:0|0:0,0:0:0:0:
294,352,22241,2,0,L|195:346,1,100,8|0,0:0|0:0,0:0:0:0:
194,345,22496,1,0,0:0:0:0:
194,345,22580,1,0,1:0:0:0:
287,167,22750,1,0,0:0:0:0:
288,197,22835,1,0,0:0:0:0:
288,226,22919,1,8,0:0:0:0:
397,157,23089,1,0,0:0:0:0:
156,156,23258,6,0,B|160:216|160:216|183:254,1,100,0|0,1:0|0:0,0:0:0:0:
397,157,23597,2,0,B|393:96|393:96|370:58,1,100,8|0,0:0|0:0,0:0:0:0:
156,156,23936,1,0,0:0:0:0:
309,255,24106,1,8,0:0:0:0:
213,351,24275,1,8,0:0:0:0:
292,113,24445,6,0,B|311:169|311:169|296:206|296:206|316:280,1,150.000005722046,4|0,1:0|0:0,0:0:0:0:
213,351,24784,6,0,B|173:214|173:214|190:162|190:162|152:47,1,300
140,91,25970,6,0,B|260:68,1,100,0|0,1:0|0:0,0:0:0:0:
348,234,26309,1,0,0:0:0:0:
118,231,26479,2,0,B|216:212,1,100,0|0,1:0|0:0,0:0:0:0:
348,234,27326,5,2,0:0:0:0:
278,335,27496,1,0,0:0:0:0:
249,339,27581,1,0,0:0:0:0:
220,344,27665,1,0,0:0:0:0:
390,355,27835,1,0,0:0:0:0:
348,234,28004,2,0,P|344:177|364:115,1,100,0|0,3:0|0:0,0:0:0:0:
487,193,28343,2,0,P|491:250|471:312,1,100,0|0,3:0|0:0,0:0:0:0:
298,78,28682,5,0,1:0:0:0:
462,88,28852,1,0,0:0:0:0:
462,88,29191,1,0,0:0:0:0:
298,78,29361,2,0,L|196:79,1,100,0|0,0:3|0:0,0:0:0:0:
40,186,29700,2,0,L|139:184,1,100
159,348,30038,5,0,0:0:0:0:
139,184,30208,1,0,3:0:0:0:
352,248,30377,1,0,1:0:0:0:
245,314,30546,1,0,0:0:0:0:
249,285,30631,1,0,0:0:0:0:
252,255,30716,1,0,3:0:0:0:
432,153,30885,1,0,0:0:0:0:
436,182,30970,1,0,0:0:0:0:
439,211,31055,1,0,3:0:0:0:
354,277,31224,1,0,0:0:0:0:
231,28,31394,6,0,L|224:227,1,200,0|0,3:0|0:0,0:0:0:0:
84,158,31902,2,0,L|94:285,1,100,8|0,3:0|0:0,0:0:0:0:
153,341,32241,1,0,0:0:0:0:
354,92,32411,2,0,L|347:192,1,100
388,312,32750,5,0,3:0:0:0:
468,84,32919,1,0,0:0:0:0:
468,113,33004,1,0,0:0:0:0:
469,143,33089,1,0,0:0:0:0:
360,240,33258,1,0,0:0:0:0:
254,95,33428,2,0,P|304:92|354:92,1,100,0|0,3:0|0:0,0:0:0:0:
262,241,33767,1,0,3:0:0:0:
172,132,33936,1,0,0:0:0:0:
113,311,34106,6,0,B|159:345|159:345|234:321|312:337,1,200,4|0,3:0|0:0,0:0:0:0:
113,311,34614,1,8,3:0:0:0:
113,311,35462,5,2,0:0:0:0:
170,128,35631,1,0,0:0:0:0:
52,168,35801,1,8,3:0:0:0:
193,238,35970,1,0,0:0:0:0:
222,233,36055,1,0,0:0:0:0:
251,228,36140,1,0,1:0:0:0:
320,136,36309,1,0,0:0:0:0:
170,128,36479,1,0,1:0:0:0:
224,336,36648,1,0,0:0:0:0:
452,300,36818,6,0,P|398:287|318:295,1,100,0|0,1:0|0:0,0:0:0:0:
346,370,37157,1,8,0:0:0:0:
402,204,37326,2,0,L|401:104,1,100,0|0,3:0|0:0,0:0:0:0:
240,108,37665,1,8,3:0:0:0:
247,336,37835,1,8,0:0:0:0:
247,336,38174,5,0,1:0:0:0:
114,272,38343,1,0,3:0:0:0:
119,301,38428,1,0,3:0:0:0:
124,330,38513,1,8,0:0:0:0:
251,228,38682,1,8,3:0:0:0:
81,62,38852,1,0,3:0:0:0:
78,91,38936,1,0,3:0:0:0:
74,120,39021,1,0,3:0:0:0:
70,149,39106,1,0,3:0:0:0:
65,178,39191,1,8,0:0:0:0:
251,228,39360,2,0,L|326:220,1,50,0|0,3:0|3:0,3:0:0:0:
404,249,39530,6,0,P|389:180|394:84,1,150,0|0,1:0|0:0,0:0:0:0:
408,56,39869,1,8,0:0:0:0:
180,60,40038,2,0,L|181:109,1,50,0|0,3:0|3:0,3:0:0:0:
249,178,40208,1,0,3:0:0:0:
249,178,40292,2,0,L|251:228,1,50,0|0,3:0|3:0,3:0:0:0:
128,316,40546,2,0,B|176:343|176:343|230:322|295:320,1,150,0|0,1:0|0:0,0:0:0:0:
340,354,40885,5,0,1:0:0:0:
408,216,41055,1,0,1:0:0:0:
471,270,41224,1,8,0:0:0:0:
329,212,41394,1,0,1:0:0:0:
428,88,41563,2,0,L|422:137,1,50,0|0,1:0|0:0,0:0:0:0:
328,68,41733,2,0,L|328:118,1,50,0|0,1:0|0:0,0:0:0:0:
224,48,41902,2,0,L|228:200,1,150,8|0,0:0|0:0,0:0:0:0:
212,276,42241,5,0,1:0:0:0:
17,192,42411,1,0,3:0:0:0:
44,180,42496,1,0,3:0:0:0:
71,168,42580,2,0,L|181:173,1,100,8|0,0:0|0:0,0:0:0:0:
200,376,42919,1,0,3:0:0:0:
184,232,43088,1,0,3:0:0:0:
390,257,43258,2,0,P|325:266|265:261,1,100,8|0,0:0|0:0,0:0:0:0:
489,197,43597,5,0,1:0:0:0:
360,72,43767,1,0,3:0:0:0:
358,102,43851,1,0,3:0:0:0:
355,132,43936,1,8,0:0:0:0:
186,68,44106,1,0,3:0:0:0:
178,97,44191,1,0,3:0:0:0:
171,126,44275,2,0,L|175:175,1,50,0|0,1:0|0:0,0:0:0:0:
212,276,44445,2,0,L|208:326,1,50,0|0,1:0|0:0,0:0:0:0:
112,256,44614,2,0,B|109:308|109:308|128:371,1,100,8|0,0:0|0:0,0:0:0:0:
412,300,44953,6,0,L|277:294,1,100,0|0,1:0|0:0,0:0:0:0:
312,295,45208,1,0,3:0:0:0:
312,295,45292,1,8,3:0:0:0:
360,188,45462,1,0,3:0:0:0:
296,288,45631,1,0,1:0:0:0:
252,160,45801,1,0,3:0:0:0:
332,52,45970,2,0,P|404:46|464:58,1,100,8|0,0:0|0:0,0:0:0:0:
464,216,46309,5,0,1:0:0:0:
336,188,46479,1,0,0:0:0:0:
336,188,46563,1,0,0:0:0:0:
336,188,46648,1,8,0:0:0:0:
376,320,46818,1,0,3:0:0:0:
341,316,46903,1,0,3:0:0:0:
305,314,46988,1,0,3:0:0:0:
269,312,47073,1,0,3:0:0:0:
234,310,47157,1,0,3:0:0:0:
353,122,47326,1,0,1:0:0:0:
312,228,47496,1,8,0:0:0:0:
252,24,47665,5,2,1:0:0:0:
227,164,47835,2,0,L|230:363,1,200,0|0,1:0|0:0,0:0:0:0:
33,262,48343,2,0,P|82:256|132:255,1,100,8|0,0:0|0:0,0:0:0:0:
230,363,48682,1,0,3:0:0:0:
369,110,48852,2,0,P|383:209|376:308,1,200,0|0,1:0|0:0,0:0:0:0:
82,69,49360,2,0,P|181:55|281:63,2,200,0|8|0,1:0|0:0|0:0,0:0:0:0:
82,69,50377,6,0,L|103:179,1,100,0|0,1:0|1:0,0:0:0:0:
415,255,50886,1,0,0:0:0:0:
415,255,51055,2,0,P|316:239|216:247,1,200,8|0,0:0|0:0,0:0:0:0:
407,360,51563,1,0,0:0:0:0:
507,193,51733,2,0,B|515:242|515:242|510:307,1,100,0|0,0:0|1:0,0:0:0:0:
317,221,52072,2,0,B|308:171|308:171|312:121,1,100
445,56,52411,1,8,0:0:0:0:
415,255,52580,1,0,3:0:0:0:
223,130,52750,1,0,1:0:0:0:
433,158,52919,1,0,3:0:0:0:
345,18,53089,6,0,L|334:123,1,100,0|0,1:0|0:0,0:0:0:0:
167,366,53597,1,0,0:0:0:0:
167,366,53767,2,0,L|178:261,1,100,8|0,0:0|0:0,0:0:0:0:
123,145,54106,1,0,0:0:0:0:
62,275,54275,1,0,0:0:0:0:
218,184,54445,2,0,B|317:184|317:184|413:211,1,200,0|0,3:0|0:0,0:0:0:0:
465,62,55123,2,0,B|366:61|366:61|270:34,1,200,8|0,0:0|0:0,0:0:0:0:
268,33,55801,5,0,1:0:0:0:
296,240,55970,1,0,0:0:0:0:
296,240,56309,1,0,0:0:0:0:
112,32,56479,2,0,B|106:131|118:263,1,200,8|0,0:0|0:0,0:0:0:0:
116,25,56987,1,0,1:0:0:0:
268,33,57157,6,0,L|261:144,1,100,0|0,3:0|0:0,0:0:0:0:
328,348,57496,2,0,L|334:236,1,100,0|0,1:0|0:0,0:0:0:0:
168,108,57835,1,8,0:0:0:0:
164,252,58004,1,0,0:0:0:0:
388,244,58174,1,8,0:0:0:0:
360,88,58343,1,0,0:0:0:0:
164,252,58513,6,0,B|205:288|205:288|370:290,1,200,4|0,1:0|0:0,0:0:0:0:
126,55,59021,2,0,B|66:122|66:122|70:235,1,200,0|0,1:0|0:0,0:0:0:0:
15,33,59530,1,0,1:0:0:0:
15,33,59869,5,0,1:0:0:0:
161,155,60038,1,0,1:0:0:0:
85,355,60208,1,0,3:0:0:0:
37,217,60377,2,0,B|95:255|95:255|255:235,1,200,0|0,1:0|0:0,0:0:0:0:
403,212,60885,1,0,1:0:0:0:
441,345,61055,1,0,0:0:0:0:
492,105,61224,5,0,3:0:0:0:
492,105,61394,2,0,B|408:127|408:127|283:99,1,200,0|0,3:0|1:0,0:0:0:0:
413,199,61902,1,0,1:0:0:0:
401,37,62072,1,0,3:0:0:0:
284,121,62241,1,0,1:0:0:0:
413,199,62411,1,0,0:0:0:0:
401,37,62580,5,8,0:0:0:0:
159,34,62750,1,0,0:0:0:0:
136,252,62919,1,8,0:0:0:0:
380,296,63089,1,0,3:0:0:0:
380,296,63174,1,0,3:0:0:0:
380,296,63258,1,0,3:0:0:0:
306,202,63428,1,0,1:0:0:0:
250,356,63597,1,8,0:0:0:0:
150,251,63767,2,0,L|90:257,1,50,0|0,3:0|3:0,3:0:0:0:
245,314,63936,6,0,P|247:244|239:98,1,200,0|8,1:0|0:0,0:0:0:0:
431,81,64445,2,0,P|377:81|312:78,1,100,0|0,1:0|0:0,0:0:0:0:
141,87,64784,1,0,0:0:0:0:
170,81,64869,1,0,0:0:0:0:
199,75,64953,1,8,0:0:0:0:
37,52,65123,1,0,0:0:0:0:
110,347,65292,6,0,P|55:285|97:162,1,200,0|8,1:0|0:0,0:0:0:0:
287,180,65801,2,0,P|211:189|153:185,1,100,0|0,1:0|0:0,0:0:0:0:
374,236,66140,2,0,L|376:305,1,50,0|0,1:0|0:0,0:0:0:0:
360,312,66309,1,8,0:0:0:0:
376,128,66479,1,0,0:0:0:0:
469,193,66648,6,0,L|467:309,1,100,0|0,1:0|0:0,0:0:0:0:
200,201,66987,2,0,L|201:101,1,100,8|0,0:0|0:0,0:0:0:0:
374,236,67326,2,0,L|372:352,1,100,0|0,1:0|0:0,0:0:0:0:
48,157,67665,2,0,L|49:57,1,100,8|0,0:0|0:0,0:0:0:0:
368,28,68004,5,0,1:0:0:0:
384,272,68174,1,8,0:0:0:0:
108,264,68343,1,8,0:0:0:0:
124,33,68513,1,0,3:0:0:0:
124,33,68682,6,0,L|199:26,1,75.0000028610231,0|0,0:3|0:3,0:3:0:0:
180,136,68936,1,0,0:3:0:0:
180,136,69021,2,0,L|272:125,1,75.0000028610231,0|0,0:3|0:3,0:3:0:0:
232,236,69275,1,0,0:3:0:0:
232,236,69360,2,0,L|309:224,1,75.0000028610231,0|0,0:3|0:3,0:3:0:0:
163,355,69699,1,0,3:0:0:0:
163,355,70038,6,0,L|175:243,1,75.0000028610231,2|0,1:0|0:0,0:0:0:0:
304,192,70208,2,0,L|313:266,1,75.0000028610231,2|0,1:0|0:0,0:0:0:0:
320,360,70546,6,0,P|346:220|331:110,1,239.999992675781,4|0,1:0|0:0,0:0:0:0:
248,32,71055,1,8,0:0:0:0:
224,168,71224,1,0,1:0:0:0:
224,168,71309,1,0,0:0:0:0:
224,168,71394,1,0,0:0:0:0:
184,292,71563,1,0,1:0:0:0:
136,68,71733,1,8,0:0:0:0:
61,198,71902,1,0,0:0:0:0:
53,233,71987,1,0,0:0:0:0:
44,268,72072,6,0,L|181:241,1,119.999996337891,0|0,1:0|0:0,0:0:0:0:
224,168,72326,1,0,0:0:0:0:
224,168,72411,2,0,L|364:168,1,119.999996337891,0|0,1:0|0:0,0:0:0:0:
444,288,72750,2,0,L|440:347,1,59.9999981689454,0|0,1:0|0:0,0:0:0:0:
312,368,72919,2,0,L|312:309,1,59.9999981689454,0|0,1:0|0:0,0:0:0:0:
376,200,73089,1,8,0:0:0:0:
122,291,73258,6,0,B|162:243|244:257|244:257|304:197|254:115,1,239.999992675781,0|0,1:0|0:0,0:0:0:0:
76,32,73767,2,0,P|68:100|73:168,1,119.999996337891,8|0,0:0|0:0,0:0:0:0:
104,168,74021,1,0,0:0:0:0:
136,184,74106,1,0,0:0:0:0:
281,57,74275,1,0,1:0:0:0:
280,332,74445,1,8,0:0:0:0:
384,124,74614,6,0,L|390:244,1,119.999996337891,0|0,1:0|0:0,0:0:0:0:
281,57,74953,1,0,1:0:0:0:
272,332,75123,1,8,0:0:0:0:
152,224,75292,1,0,0:0:0:0:
152,224,75377,1,0,0:0:0:0:
152,224,75462,6,0,P|199:219|245:204,1,59.9999981689454,0|0,1:0|0:0,0:0:0:0:
288,144,75631,2,0,P|323:144|356:151,1,59.9999981689454,0|0,1:0|0:0,0:0:0:0:
434,297,75801,2,0,P|353:298|266:293,1,119.999996337891,8|0,0:0|0:0,0:0:0:0:
314,296,76055,1,0,3:0:0:0:
314,296,76140,1,0,3:0:0:0:
124,355,76309,6,0,P|183:360|243:358,1,119.999996337891,0|8,0:0|0:0,0:0:0:0:
240,232,76648,1,0,0:0:0:0:
240,232,76733,1,0,0:0:0:0:
240,232,76818,2,0,L|249:78,1,119.999996337891,0|0,1:0|0:0,0:0:0:0:
325,298,77157,1,8,0:0:0:0:
128,208,77326,1,0,0:0:0:0:
128,208,77411,1,0,0:0:0:0:
128,208,77496,1,0,1:0:0:0:
244,359,77665,1,0,3:0:0:0:
338,74,77835,1,8,0:0:0:0:
420,336,78004,1,0,0:0:0:0:
420,336,78089,1,0,0:0:0:0:
420,336,78174,2,0,L|417:183,2,119.999996337891,0|0|8,1:0|0:0|0:0,0:0:0:0:
492,171,78682,6,0,L|489:18,1,119.999996337891,0|4,0:0|1:0,0:0:0:0:
338,74,79021,1,0,1:0:0:0:
330,109,79106,1,0,1:0:0:0:
323,144,79191,1,0,1:0:0:0:
200,72,79360,1,0,1:0:0:0:
188,112,79445,1,0,1:0:0:0:
176,152,79530,1,0,1:0:0:0:
64,68,79699,1,0,1:0:0:0:
52,116,79784,1,0,1:0:0:0:
44,162,79869,1,0,1:0:0:0:
44,162,80038,6,0,L|44:367,1,179.999994506836,0|0,1:0|0:0,0:0:0:0:
44,342,80377,1,0,1:0:0:0:
307,341,80546,1,8,0:0:0:0:
160,240,80716,1,0,1:0:0:0:
376,268,80885,1,8,0:0:0:0:
200,324,81055,1,0,1:0:0:0:
243,187,81224,2,2,L|247:142,3,29.9999990844727
243,187,81394,6,0,B|264:220|260:258|260:258|308:307|277:371|277:371|328:321,1,239.999992675781,4|0,1:0|0:0,0:0:0:0:
108,316,81902,1,8,0:0:0:0:
243,187,82072,2,0,L|316:196,1,59.9999981689454,0|0,1:0|0:0,0:0:0:0:
372,144,82241,2,0,L|431:147,1,59.9999981689454,0|0,1:0|0:0,0:0:0:0:
500,108,82411,1,0,3:0:0:0:
288,104,82580,1,8,0:0:0:0:
328,304,82750,5,0,1:0:0:0:
448,176,82919,1,0,0:0:0:0:
244,20,83089,1,8,0:0:0:0:
219,285,83258,1,8,0:0:0:0:
448,176,83428,1,0,0:0:0:0:
204,43,83597,1,0,1:0:0:0:
204,337,83767,1,8,0:0:0:0:
448,319,83936,1,8,0:0:0:0:
402,110,84106,6,0,P|295:131|117:120,1,239.999992675781,4|0,1:0|0:0,0:0:0:0:
239,275,84614,1,8,0:0:0:0:
268,42,84784,1,0,3:0:0:0:
283,74,84869,1,0,3:0:0:0:
300,104,84953,2,0,L|291:208,1,59.9999981689454,0|0,1:0|0:0,0:0:0:0:
192,188,85123,2,0,L|181:128,1,59.9999981689454,0|0,1:0|0:0,0:0:0:0:
344,256,85292,1,8,0:0:0:0:
17,291,85462,6,0,B|23:176|7:110|7:110|57:53,1,239.999992675781,4|0,1:0|0:0,0:0:0:0:
268,42,85970,1,8,0:0:0:0:
248,220,86140,2,0,L|165:230,1,59.9999981689454,0|0,1:0|0:0,0:0:0:0:
324,180,86309,2,0,P|387:179|469:181,2,119.999996337891,0|0|8,1:0|1:0|0:0,0:0:0:0:
268,42,86818,2,0,L|267:116,1,59.9999981689454
248,220,86987,6,0,P|246:306|250:348,1,119.999996337891,4|0,1:0|0:0,0:0:0:0:
147,188,87326,1,0,1:0:0:0:
376,184,87496,1,8,0:0:0:0:
376,184,87835,1,0,1:0:0:0:
370,219,87920,1,0,1:0:0:0:
361,254,88005,1,0,1:0:0:0:
147,188,88174,1,0,0:0:0:0:
147,188,88258,1,0,0:0:0:0:
147,188,88343,6,0,P|137:126|144:68,1,119.999996337891,0|0,1:0|0:0,0:0:0:0:
312,70,88682,1,0,1:0:0:0:
361,254,88852,1,0,3:0:0:0:
361,254,88936,1,0,3:0:0:0:
361,254,89021,1,0,1:0:0:0:
187,295,89191,1,0,0:0:0:0:
147,188,89360,2,0,P|205:173|264:169,1,119.999996337891,8|0,0:0|0:0,0:0:0:0:
104,312,89699,5,4,1:0:0:0:
377,254,89869,1,0,0:0:0:0:
104,312,90038,1,0,1:0:0:0:
424,348,90208,1,0,1:0:0:0:
116,192,90377,1,0,1:0:0:0:
384,144,90546,1,0,1:0:0:0:
108,80,90716,1,0,1:0:0:0:
460,64,90885,1,4,1:0:0:0:
461,300,91225,5,0,1:0:0:0:
248,340,91394,1,8,0:0:0:0:
260,140,91564,1,8,0:0:0:0:
483,159,91733,1,0,3:0:0:0:
478,182,91818,1,0,3:0:0:0:
475,205,91902,1,0,3:0:0:0:
472,229,91987,1,0,3:0:0:0:
469,253,92072,1,0,3:0:0:0:
466,277,92157,1,0,3:0:0:0:
461,300,92241,6,0,P|384:320|252:304,1,200,4|0,1:0|0:0,0:0:0:0:
216,112,92750,1,8,0:0:0:0:
176,304,92919,1,0,0:0:0:0:
56,168,93089,2,0,P|55:117|60:59,2,100,0|0|8,1:0|0:0|0:0,0:0:0:0:
312,128,93597,6,0,P|296:56|244:24,1,100,0|0,1:0|0:0,0:0:0:0:
244,240,93936,1,0,1:0:0:0:
438,216,94106,2,0,L|434:316,1,100,8|0,0:0|0:0,0:0:0:0:
168,285,94445,1,0,1:0:0:0:
312,128,94614,1,0,1:0:0:0:
168,144,94784,1,8,0:0:0:0:
248,328,94953,2,0,L|352:320,1,100,0|0,1:0|0:0,0:0:0:0:
452,192,95292,5,0,1:0:0:0:
317,30,95462,2,0,P|304:78|312:128,1,100,8|0,0:0|0:0,0:0:0:0:
124,184,95801,2,0,B|69:189|69:189|-7:165,1,100,0|0,1:0|0:0,0:0:0:0:
230,45,96140,1,8,0:0:0:0:
231,243,96309,1,0,1:0:0:0:
231,243,96648,5,0,1:0:0:0:
231,243,96817,2,0,L|202:338,1,100,8|0,0:0|0:0,0:0:0:0:
316,67,97157,1,0,1:0:0:0:
360,216,97326,1,0,1:0:0:0:
492,109,97496,1,8,0:0:0:0:
316,67,97665,6,0,L|498:72,1,150,2|0,1:0|0:0,0:0:0:0:
492,108,98004,2,0,P|491:158|482:208,1,100,0|8,1:0|0:0,0:0:0:0:
308,232,98343,1,0,0:0:0:0:
316,67,98513,1,0,1:0:0:0:
482,208,98682,2,0,P|425:255|383:260,1,100,0|8,0:0|0:0,0:0:0:0:
228,92,99021,5,0,0:0:0:0:
212,297,99191,1,0,1:0:0:0:
336,216,99360,1,0,1:0:0:0:
229,131,99529,2,0,L|129:141,1,100,8|0,0:0|0:0,0:0:0:0:
89,239,99869,1,0,1:0:0:0:
89,239,100038,1,0,1:0:0:0:
120,40,100208,1,8,0:0:0:0:
120,40,100377,1,0,0:0:0:0:
303,249,100546,6,0,L|414:228,1,100,0|0,1:0|0:0,0:0:0:0:
228,92,100885,2,0,L|339:71,1,100,0|0,1:0|0:0,0:0:0:0:
89,239,101224,2,0,L|70:354,1,100,0|0,1:0|0:0,0:0:0:0:
228,92,101563,2,0,L|209:207,1,100,0|0,1:0|0:0,0:0:0:0:
180,341,101902,5,0,1:0:0:0:
219,334,101987,1,0,1:0:0:0:
258,326,102072,1,0,1:0:0:0:
297,319,102157,1,0,1:0:0:0:
340,340,102241,5,0,1:0:0:0:
320,284,102326,1,0,1:0:0:0:
344,228,102411,1,0,1:0:0:0:
396,200,102496,1,0,1:0:0:0:
452,216,102580,2,2,L|439:255,7,25
500,196,102919,5,0,1:0:0:0:
268,172,103089,1,4,1:0:0:0:
