osu file format v14

[General]
AudioFilename: OP.mp3
AudioLeadIn: 0
PreviewTime: 69699
Countdown: 0
SampleSet: Soft
StackLeniency: 0.7
Mode: 0
LetterboxInBreaks: 0
WidescreenStoryboard: 0

[Editor]
Bookmarks: 13767
DistanceSpacing: 1.2
BeatDivisor: 2
GridSize: 16
TimelineZoom: 3.499998

[Metadata]
Title:Amadeus
TitleUnicode:アマデウス
Artist:Itou Kanako
ArtistUnicode:いとうかなこ
Creator:ZZHBOY
Version:Easy
Source:STEINS;GATE 0
Tags:
BeatmapID:791990
BeatmapSetID:359472

[Difficulty]
HPDrainRate:2
CircleSize:2
OverallDifficulty:3
ApproachRate:3
SliderMultiplier:0.8
SliderTickRate:1

[Events]
//Background and Video events
0,0,"BG.jpg",0,0
//Break Periods
//Storyboard Layer 0 (Background)
//Storyboard Layer 1 (Fail)
//Storyboard Layer 2 (Pass)
//Storyboard Layer 3 (Foreground)
//Storyboard Sound Samples

[TimingPoints]
208,338.983050847458,4,2,1,50,1,0
13767,-100,4,2,1,60,0,0
25970,-100,4,2,1,50,0,0
36818,-100,4,2,1,60,0,0
70546,-100,4,2,1,80,0,1
81224,-100,4,2,1,70,0,0
81394,-100,4,2,1,80,0,1
92241,-100,4,2,1,70,0,0

[Colours]
Combo1 : 255,213,85
Combo2 : 160,154,190
Combo3 : 140,192,255
Combo4 : 254,180,237

[HitObjects]
145,123,13767,5,0,1:0:0:0:
161,217,14106,1,8,1:0:0:0:
236,157,14445,2,0,P|334:157|458:183,1,160,0|4,1:0|1:0,0:0:0:0:
455,241,15462,5,8,0:0:0:0:
303,358,16140,1,8,0:0:0:0:
244,281,16479,2,0,P|155:269|98:285,1,80,0|8,0:0|0:0,0:0:0:0:
75,233,17157,2,0,P|69:131|95:53,1,160,0|0,0:0|1:0,0:0:0:0:
177,50,18174,5,8,0:0:0:0:
368,55,18852,1,8,0:0:0:0:
445,112,19191,2,0,P|448:157|449:210,1,80,0|8,0:0|0:0,0:0:0:0:
361,231,19869,2,0,P|362:270|364:310,1,80,0|8,0:0|0:0,0:0:0:0:
279,355,20546,6,0,B|202:317|165:339|165:339|258:274|197:151|131:149|65:175,1,400,0|8,1:0|0:0,0:0:0:0:
115,258,22580,1,0,0:0:0:0:
292,184,23258,6,0,P|369:191|411:204,1,80,0|8,1:0|0:0,0:0:0:0:
385,286,23936,2,0,P|462:241|466:195,1,120,0|4,0:0|1:0,0:0:0:0:
256,192,24784,12,0,25970,1:0:0:0:
97,133,27326,5,2,0:0:0:0:
161,204,27665,2,0,P|229:217|265:213,1,80,0|0,0:0|0:0,0:0:0:0:
311,153,28343,1,0,0:0:0:0:
397,195,28682,6,0,P|414:286|378:354,1,160,0|0,1:0|0:0,0:0:0:0:
194,346,30038,1,0,0:0:0:0:
118,286,30377,2,0,P|105:218|107:185,1,80,0|0,0:0|0:0,0:0:0:0:
155,125,31055,1,0,0:0:0:0:
246,153,31394,6,0,P|332:155|432:118,1,160,0|0,3:0|0:0,0:0:0:0:
453,215,32411,1,0,0:0:0:0:
404,297,32750,2,0,P|324:294|247:315,1,160,0|0,3:0|3:0,0:0:0:0:
88,207,34106,6,0,P|89:113|84:75,1,120,4|8,3:0|3:0,0:0:0:0:
324,55,35462,1,2,0:0:0:0:
384,129,35801,1,8,3:0:0:0:
358,221,36140,2,0,P|356:270|370:322,1,80,0|0,1:0|1:0,0:0:0:0:
292,366,36818,6,0,P|169:363|106:340,1,160,0|0,1:0|0:0,0:0:0:0:
38,357,37835,1,8,0:0:0:0:
81,271,38174,2,0,P|94:176|93:107,1,160,0|0,1:0|3:0,0:0:0:0:
87,15,39191,1,8,0:0:0:0:
173,56,39530,6,0,P|267:56|366:72,1,160,0|0,1:0|3:0,0:0:0:0:
428,69,40546,1,0,1:0:0:0:
382,153,40885,2,0,P|383:282|396:337,1,160,0|0,1:0|0:0,0:0:0:0:
305,358,41902,1,8,0:0:0:0:
234,292,42241,6,0,P|134:289|42:292,1,160,0|0,1:0|0:0,0:0:0:0:
61,194,43258,2,0,P|61:139|59:102,1,80,8|0,0:0|1:0,0:0:0:0:
127,45,43936,1,8,0:0:0:0:
209,94,44275,2,0,P|312:97|414:71,1,160,0|0,1:0|1:0,0:0:0:0:
474,246,45631,5,0,0:0:0:0:
390,292,45970,2,0,P|314:298|260:291,1,80,8|0,0:0|1:0,0:0:0:0:
215,284,46648,1,8,0:0:0:0:
273,208,46987,2,0,P|273:158|268:119,1,80,0|8,3:0|0:0,0:0:0:0:
226,42,47665,5,2,1:0:0:0:
88,176,48343,1,8,0:0:0:0:
150,357,49021,2,0,P|229:355|312:340,1,160,0|8,0:0|0:0,0:0:0:0:
369,266,50038,1,0,1:0:0:0:
277,235,50377,6,0,B|188:257|105:244|105:244|81:153|100:64,1,320,0|0,1:0|0:0,0:0:0:0:
274,30,52411,1,8,0:0:0:0:
445,117,53089,6,0,P|448:212|417:321,1,160,0|8,1:0|0:0,0:0:0:0:
344,308,54106,1,0,0:0:0:0:
248,313,54445,2,0,L|63:282,1,160,0|8,0:0|0:0,0:0:0:0:
50,198,55462,1,0,0:0:0:0:
109,122,55801,6,0,P|219:72|200:213,1,320,0|0,1:0|0:0,0:0:0:0:
235,302,57496,1,0,1:0:0:0:
328,323,57835,2,0,L|433:318,1,80,8|8,0:0|0:0,0:0:0:0:
456,236,58513,6,0,P|446:153|428:102,1,120,4|0,1:0|1:0,0:0:0:0:
195,102,59869,1,0,1:0:0:0:
210,196,60208,2,0,P|221:252|229:292,1,80,8|0,0:0|0:0,0:0:0:0:
155,339,60885,1,0,1:0:0:0:
69,294,61224,6,0,P|61:189|73:107,1,160,0|0,3:0|0:0,0:0:0:0:
133,65,62241,1,0,1:0:0:0:
193,139,62580,2,0,P|243:138|280:129,1,80,0|8,0:0|0:0,0:0:0:0:
341,65,63258,2,0,P|380:57|420:57,1,80,0|8,3:0|0:0,0:0:0:0:
480,132,63936,6,0,P|474:229|434:332,1,160,0|0,1:0|0:0,0:0:0:0:
362,311,64953,1,8,0:0:0:0:
288,248,65292,2,0,P|190:243|81:251,1,160,0|0,1:0|0:0,0:0:0:0:
53,306,66309,1,8,0:0:0:0:
23,214,66648,6,0,P|23:154|29:118,1,80,0|8,1:0|0:0,0:0:0:0:
86,59,67326,1,0,1:0:0:0:
179,81,67665,1,8,0:0:0:0:
272,102,68004,2,0,P|394:102|421:95,1,120,0|0,1:0|3:0,0:0:0:0:
107,283,69699,6,0,P|156:251|174:208,1,80,0|0,3:0|3:0,0:0:0:0:
261,339,70546,6,0,P|360:342|460:344,1,200,4|0,1:0|1:0,0:0:0:0:
481,250,71733,1,8,0:0:0:0:
387,229,72072,2,0,P|382:189|387:149,1,80,0|8,0:0|0:0,0:0:0:0:
382,53,72750,6,0,P|441:56|501:49,2,120,0|0|8,0:0|1:0|0:0,0:0:0:0:
290,82,74106,2,0,P|286:173|292:220,2,120,0|0|8,3:0|1:0|0:0,0:0:0:0:
200,45,75462,2,0,P|129:46|85:53,1,80,0|8,0:0|0:0,0:0:0:0:
39,99,76140,5,0,3:0:0:0:
60,289,76818,1,0,1:0:0:0:
146,329,77157,2,0,P|201:322|254:296,1,80,8|0,0:0|1:0,0:0:0:0:
268,228,77835,2,0,P|263:145|271:58,1,160,8|8,0:0|0:0,0:0:0:0:
359,36,78852,5,4,1:0:0:0:
430,100,79191,1,0,1:0:0:0:
451,193,79530,2,0,P|427:277|366:331,1,160,0|8,1:0|0:0,0:0:0:0:
279,323,80546,1,0,1:0:0:0:
252,230,80885,6,0,P|182:222|125:233,2,120,8|4|8,0:0|1:0|0:0,0:0:0:0:
335,182,82241,2,0,P|334:99|313:57,1,120,0|0,3:0|1:0,0:0:0:0:
225,87,83089,1,8,0:0:0:0:
128,86,83428,1,0,1:0:0:0:
57,151,83767,1,8,0:0:0:0:
48,246,84106,6,0,P|109:300|280:298,1,240,4|0,1:0|1:0,0:0:0:0:
354,332,85462,2,0,P|356:234|344:109,1,200,4|0,1:0|1:0,0:0:0:0:
389,45,86648,1,8,0:0:0:0:
459,109,86987,6,0,P|460:167|458:217,1,80,4|0,1:0|1:0,0:0:0:0:
326,328,88004,1,8,0:0:0:0:
246,274,88343,2,0,P|238:160|246:96,1,160,0|0,1:0|0:0,0:0:0:0:
184,38,89360,1,8,0:0:0:0:
111,101,89699,6,0,L|108:186,1,80,4|0,1:0|1:0,0:0:0:0:
37,246,90377,2,0,L|44:342,1,80,0|8,1:0|0:0,0:0:0:0:
330,347,91733,6,0,P|348:279|349:203,2,120,0|4|8,3:0|1:0|0:0,0:0:0:0:
175,232,93428,1,8,0:0:0:0:
163,136,93767,2,0,P|190:82|219:61,1,80,0|8,0:0|0:0,0:0:0:0:
300,64,94445,1,0,0:0:0:0:
373,125,94784,1,8,0:0:0:0:
468,122,95123,6,0,P|479:186|476:310,1,160,0|0,0:0|1:0,0:0:0:0:
396,328,96140,1,8,0:0:0:0:
307,290,96479,2,0,P|245:285|196:291,1,80,0|8,0:0|0:0,0:0:0:0:
135,313,97157,6,0,P|75:305|18:287,2,120,0|2|8,0:0|1:0|0:0,0:0:0:0:
154,218,98513,2,0,P|148:153|157:86,2,120,0|0|8,0:0|0:0|0:0,0:0:0:0:
227,286,99869,2,0,P|267:285|307:290,1,80,0|8,0:0|0:0,0:0:0:0:
401,273,100546,5,0,1:0:0:0:
413,177,100885,1,8,0:0:0:0:
332,124,101224,1,0,1:0:0:0:
264,192,101563,1,8,0:0:0:0:
256,192,101902,12,4,103089,0:0:0:0:
