osu file format v11

[General]
AudioFilename: Shugo Chara! OST MP3 - 03 Happy Xmas - .mp3
AudioLeadIn: 0
PreviewTime: 120561
Countdown: 0
SampleSet: Soft
StackLeniency: 0.7
Mode: 0
LetterboxInBreaks: 0

[Editor]
Bookmarks: 12978,24358,35737,67978,76082,102289,118496,154702,170220
DistanceSpacing: 1
BeatDivisor: 8
GridSize: 4

[Metadata]
Title:Happy Xmas
TitleUnicode:Happy Xmas
Artist:Itou Kanae, Asumi Kana, Katou Nanae, Toyosaki Aki
ArtistUnicode:Itou Kanae, Asumi Kana, Katou Nanae, Toyosaki Aki
Creator:TheVileOne
Version:pimpG
Source:Shugo Chara!
Tags:Amu Hinamori Ran Miki pimpG VinylDash14 Collab Christmas Doki Chibi Character Song
BeatmapID:203431
BeatmapSetID:66062

[Difficulty]
HPDrainRate:4
CircleSize:3
OverallDifficulty:4
ApproachRate:5
SliderMultiplier:2.13
SliderTickRate:2

[Events]
//Background and Video events
0,0,"pimpBG.jpg"
//Break Periods
2,25392,34534
2,102978,117293
2,155737,169017
//Storyboard Layer 0 (Background)
//Storyboard Layer 1 (Fail)
//Storyboard Layer 2 (Pass)
//Storyboard Layer 3 (Foreground)
//Storyboard Sound Samples
//Background Colour Transformations
3,100,163,162,255

[TimingPoints]
562,689.655172413793,3,2,1,60,1,0
120561,-100,3,2,1,60,0,1
135044,-100,3,2,1,60,0,0
172286,-100,3,2,1,60,0,1
195044,-100,3,2,1,60,0,0

[Colours]
Combo1 : 232,232,232
Combo2 : 0,185,0
Combo3 : 94,94,255
Combo4 : 255,23,17

[HitObjects]
64,88,12975,2,0,B|184:56|256:144,1,213,2|0,0:0|0:0,0:0:0
336,216,14010,2,0,B|304:296|208:296|176:216,1,213,2|0,0:0|0:0,0:0:0
256,144,15044,2,0,B|328:56|448:88,1,213,2|0,0:0|0:0,0:0:0
424,192,16079,1,2,0:0:0
360,280,16424,1,0,0:0:0
256,296,16768,1,0,0:0:0
152,280,17113,5,4,0:0:0
88,192,17458,2,0,B|56:144,2,53.25,0|0|2,0:0|0:0|0:0,0:0:0
152,280,18148,2,0,B|68:328|-7:253,2,159.75,2|2|4,0:0|0:0|0:0,0:0:0
202,185,19527,5,2,0:0:0
310,185,19872,1,0,0:0:0
360,280,20217,2,0,B|443:328|519:253,2,159.75,2|2|4,0:0|0:0|0:0,0:0:0
256,256,21596,6,0,B|256:312,2,53.25,0|0|2,0:0|0:0|0:0,0:0:0
184,176,22286,2,0,B|256:140|256:140|328:176,2,159.75,0|2|4,0:0|0:0|0:0,0:0:0
152,74,23665,5,2,0:0:0
256,46,24010,1,0,0:0:0
360,74,24355,1,2,0:0:0
202,285,35734,6,0,B|170:341|106:349,2,106.5,0|2|0,0:0|0:0|0:0,0:0:0
310,285,36768,2,0,B|342:341|406:349,2,106.5,0|2|0,0:0|0:0|0:0,0:0:0
256,192,37803,2,0,B|256:168|240:136|272:136|256:104|256:80,2,106.5,0|2|0,0:0|0:0|0:0,0:0:0
256,298,38837,1,2,0:0:0
188,56,39872,6,0,B|136:32|84:56,1,106.5,0|2,0:0|0:0,0:0:0
136,148,40562,1,2,0:0:0
208,228,40906,2,0,B|256:268|304:228,1,106.5
376,148,41596,1,2,0:0:0
324,56,41941,2,0,B|376:32|428:56,2,106.5,0|0|2,0:0|0:0|0:0,0:0:0
256,140,42975,2,0,P|156:216|356:240|256:312,1,213
152,280,44010,6,0,B|128:328|128:328|72:344,2,106.5,2|0|0,0:0|0:0|0:0,0:0:0
168,176,45044,2,0,B|160:88|232:80|256:56|256:56|280:80|352:88|344:176,1,319.5,2|0,0:0|0:0,0:0:0
360,280,46424,2,0,B|384:328|384:328|440:344,2,106.5,0|0|2,0:0|0:0|0:0,0:0:0
440,80,47803,5,2,0:0:0
336,56,48148,2,0,B|280:104|256:192|256:192|232:104|176:56,1,319.5,0|2,0:0|0:0,0:0:0
72,80,49527,1,2,0:0:0
120,232,50044,2,0,B|72:280,2,53.25,0|2|0,0:0|0:0|0:0,0:0:0
168,256,50562,2,0,B|208:328|304:328|344:256,1,213,2|2,0:0|0:0,0:0:0
176,48,52286,6,0,B|70:48,2,106.5,4|2|2,0:0|0:0|0:0,0:0:0
256,120,53320,1,0,0:0:0
336,48,53665,2,0,B|448:48,2,106.5,2|0|2,0:0|0:0|0:0,0:0:0
256,120,54699,1,2,0:0:0
202,211,55044,1,0,0:0:0
310,211,55389,1,2,0:0:0
256,304,55734,2,0,P|256:368,2,53.25
152,304,56424,6,0,B|136:360|72:368,2,106.5
144,196,57458,1,2,0:0:0
360,196,58148,1,0,0:0:0
360,304,58493,2,0,B|376:360|440:368,2,106.5,2|0|2,0:0|0:0|0:0,0:0:0
256,276,59527,2,0,P|256:382,2,106.5,2|0|2,0:0|0:0|0:0,0:0:0
160,228,60562,6,0,P|136:180|136:180|160:132,1,106.5,4|2,0:0|0:0,0:0:0
256,180,61251,1,0,0:0:0
352,228,61596,2,0,P|376:180|376:180|352:132,1,106.5,2|0,0:0|0:0,0:0:0
256,180,62286,1,0,0:0:0
304,276,62630,2,0,P|256:296|208:276,1,106.5,0|2,0:0|0:0,0:0:0
256,124,63493,2,0,P|256:68,1,53.25,0|2,0:0|0:0,0:0:0
104,240,64355,6,0,P|136:288,3,53.25,0|2|0|0,0:0|0:0|0:0|0:0,0:0:0
184,304,65044,2,0,P|236:290|256:232|256:232|275:290|328:304,1,213,2|2,0:0|0:0,0:0:0
256,384,66079,1,2,0:0:0
378,284,66596,2,0,P|408:240,3,53.25,0|2|0|2,0:0|0:0|0:0|0:0,0:0:0
256,176,67803,1,0,0:0:0
80,152,68837,5,4,0:0:0
152,72,69182,2,0,P|184:120|176:184,2,106.5
256,48,70217,1,2,0:0:0
360,72,70562,2,0,P|328:120|328:168,1,106.5,0|2,0:0|0:0,0:0:0
432,152,71251,1,2,0:0:0
384,304,71768,2,0,P|336:344,1,53.25
128,304,72630,6,0,P|176:344,2,53.25,0|0|2,0:0|0:0|0:0,0:0:0
192,216,73320,1,0,0:0:0
256,304,73665,2,0,P|256:368,2,53.25,2|0|2,0:0|0:0|0:0,0:0:0
320,216,74355,1,0,0:0:0
384,304,74699,2,0,P|336:344,2,53.25,0|0|2,0:0|0:0|0:0,0:0:0
256,212,76079,1,0,0:0:0
310,64,77113,5,0,0:0:0
202,64,77458,1,2,0:0:0
152,160,77803,1,0,0:0:0
256,136,78148,2,0,P|288:176|256:192|224:208|272:248,2,106.5,2|0|2,0:0|0:0|0:0,0:0:0
360,160,79182,1,2,0:0:0
336,264,79527,2,0,P|320:340|192:340|176:264,1,213,2|0,0:0|0:0,0:0:0
310,101,81251,5,4,0:0:0
256,192,81596,1,2,0:0:0
364,192,81941,1,0,0:0:0
328,292,82286,2,0,P|256:357|184:292,1,213,2|2,0:0|0:0,0:0:0
148,192,83320,5,0,0:0:0
256,192,83665,1,2,0:0:0
364,192,84010,1,0,0:0:0
328,92,84355,2,0,P|256:27|184:92,1,213,2|2,0:0|0:0,0:0:0
256,192,85389,12,0,86424,0:0:0
256,20,87458,5,4,0:0:0
360,44,87803,1,2,0:0:0
408,140,88148,2,0,P|420:192|408:244,1,106.5,0|2,0:0|0:0,0:0:0
360,340,88837,1,0,0:0:0
256,364,89182,1,0,0:0:0
152,340,89527,1,2,0:0:0
104,244,89872,2,0,P|92:192|104:140,1,106.5,2|0,0:0|0:0,0:0:0
152,44,90562,1,2,0:0:0
256,192,91596,5,6,0:0:0
332,268,91941,1,0,0:0:0
408,192,92286,1,0,0:0:0
332,115,92630,1,2,0:0:0
256,39,92975,1,0,0:0:0
179,115,93320,1,0,0:0:0
103,192,93665,1,2,0:0:0
179,268,94010,1,0,0:0:0
255,344,94355,1,0,0:0:0
332,268,94699,1,2,0:0:0
160,68,95734,6,0,P|256:28|352:68,1,213,0|2,0:0|0:0,0:0:0
256,116,96768,2,0,P|136:164|372:220|256:268,1,213,0|2,0:0|0:0,0:0:0
160,316,97803,1,0,0:0:0
160,316,98148,2,0,P|256:356|352:316,1,213,2|0,0:0|0:0,0:0:0
352,116,99484,5,2,0:0:0
256,68,99829,1,0,0:0:0
160,116,100174,1,0,0:0:0
350,212,100906,6,0,P|380:253|380:253|363:307,1,106.5,2|0,0:0|0:0,0:0:0
161,212,101941,2,0,P|132:253|132:253|148:307,1,106.5,4|2,0:0|0:0,0:0:0
256,192,118493,12,0,120217,0:0:0
220,132,120562,5,4,0:0:0
316,88,120906,2,0,P|372:88,1,53.3333333333333,2|0,0:0|0:0,0:0:0
420,72,121251,2,0,P|456:112|456:164,1,106.666666666667
396,252,121941,2,0,P|340:252,1,53.3333333333333,2|0,0:0|0:0,0:0:0
292,268,122286,2,0,P|256:228|256:176,1,106.666666666667
324,96,122975,2,0,P|256:28|188:96,1,213.333333333333,2|2,0:0|0:0,0:0:0
202,202,124010,1,0,0:0:0
310,202,124355,1,2,0:0:0
357,297,124699,6,0,P|408:284|432:240,2,106.666666666667,4|0|0,0:0|0:0|0:0,0:0:0
256,260,125734,2,0,P|220:296|292:324|256:356,2,106.666666666667,2|0|0,0:0|0:0|0:0,0:0:0
155,297,126768,2,0,P|103:284|79:240,2,106.666666666667,0|2|0,0:0|0:0|0:0,0:0:0
172,192,127803,5,2,0:0:0
256,260,128148,1,0,0:0:0
340,192,128493,1,2,0:0:0
256,124,128837,1,4,0:0:0
256,124,129182,6,0,P|256:68,1,53.3333333333333,2|0,0:0|0:0,0:0:0
208,48,129527,2,0,P|160:28|112:48,1,106.666666666667
160,144,130217,2,0,P|160:200,1,53.3333333333333,2|0,0:0|0:0,0:0:0
208,220,130562,2,0,P|256:240|304:220,1,106.666666666667,0|0,0:0|0:0,0:0:0
352,316,131251,2,0,P|256:356|160:316,1,213.333333333333,2|2,0:0|0:0,0:0:0
96,88,132630,5,0,0:0:0
124,192,132975,2,0,P|188:276|284:232|228:152|324:108|388:192,1,320,4|0,0:0|0:0,0:0:0
416,296,134355,1,2,0:0:0
256,320,134872,2,0,P|248:344|266:351|252:376,3,53.3333333333333,0|2|0|2,0:0|0:0|0:0|0:0,0:0:0
96,296,136079,1,0,0:0:0
256,192,137113,5,4,0:0:0
344,132,137458,2,0,P|380:176|380:176|380:232,2,106.666666666667,2|0|2,0:0|0:0|0:0,0:0:0
256,72,138493,1,0,0:0:0
168,132,138837,2,0,P|132:176|132:176|132:228,1,106.666666666667,0|2,0:0|0:0,0:0:0
152,332,139527,2,0,P|220:372|292:292|360:332,1,213.333333333333,2|0,0:0|0:0,0:0:0
256,168,140906,5,0,0:0:0
148,156,141251,2,0,P|160:104|204:76,1,106.666666666667,0|2,0:0|0:0,0:0:0
309,76,141941,2,0,P|351:103|364:156,1,106.666666666667,0|2,0:0|0:0,0:0:0
344,260,142630,2,0,P|256:311|168:260,1,213.333333333333,0|2,0:0|0:0,0:0:0
256,192,143493,12,4,144355,0:0:0
72,212,145389,6,0,P|136:192|121:129|108:66|176:45,1,213.333333333333,2|0,0:0|0:0,0:0:0
256,116,146424,2,0,P|288:148|256:164|224:180|256:212,2,106.666666666667,0|2|2,0:0|0:0|0:0,0:0:0
335,45,147458,2,0,P|403:66|390:129|375:192|440:212,1,213.333333333333
356,280,148493,2,0,P|256:312|156:280,1,213.333333333333,2|0,0:0|0:0,0:0:0
68,216,149527,6,0,P|72:152|124:124,1,106.666666666667,0|2,0:0|0:0,0:0:0
204,92,150217,2,0,P|180:44|108:28,2,106.666666666667,0|2|0,0:0|0:0|0:0,0:0:0
256,184,151251,1,2,0:0:0
308,92,151596,2,0,P|332:44|378:24,2,106.666666666667,4|2|0,0:0|0:0|0:0,0:0:0
409,128,152630,2,0,P|440:152|444:216,2,106.666666666667,2|0|2,0:0|0:0|0:0,0:0:0
256,192,153665,12,4,154699,0:0:0
256,192,170217,12,0,171941,0:0:0
408,128,172286,5,4,0:0:0
332,56,172630,2,0,P|276:56,1,53.3333333333333,2|0,0:0|0:0,0:0:0
224,60,172975,2,0,P|188:100|188:152,1,106.666666666667
296,148,173665,2,0,P|352:148,1,53.3333333333333,2|0,0:0|0:0,0:0:0
392,180,174010,2,0,P|428:220|428:272,1,106.666666666667
324,272,174699,2,0,P|256:340|188:272,1,213.333333333333,2|2,0:0|0:0,0:0:0
83,270,175734,2,0,P|84:220|120:180,1,106.666666666667,0|2,0:0|0:0,0:0:0
204,112,176424,5,4,0:0:0
312,112,176768,2,0,P|420:112,1,106.666666666667
364,204,177458,1,2,0:0:0
256,204,177803,2,0,P|148:204,1,106.666666666667
204,296,178493,2,0,P|232:300|256:311|256:311|280:300|308:296,2,106.5,0|2|2,0:0|0:0|0:0,0:0:0
256,192,179527,12,4,180562,0:0:0
256,260,180906,6,0,P|256:316,1,53.3333333333333,2|0,0:0|0:0,0:0:0
304,336,181251,2,0,P|352:356|400:336,1,106.666666666667
352,240,181941,2,0,P|352:184,1,53.3333333333333,2|0,0:0|0:0,0:0:0
304,164,182286,2,0,P|256:144|208:164,1,106.666666666667,0|0,0:0|0:0,0:0:0
160,68,182975,2,0,P|256:28|352:68,1,213.333333333333,2|2,0:0|0:0,0:0:0
488,160,184355,6,0,P|468:212,3,53.3333333333333,0|2|2|0,0:0|0:0|0:0|0:0,0:0:0
420,232,185044,2,0,P|360:248|316:204,1,106.666666666667
256,144,185734,1,0,0:0:0
184,64,186079,2,0,P|112:32|36:72,1,160,2|0,0:0|0:0,0:0:0
32,116,186768,2,0,P|68:144|60:216,1,106.666666666667,2|0,0:0|0:0,0:0:0
140,332,187803,5,2,0:0:0
372,332,188837,1,4,0:0:0
256,144,189872,5,0,0:0:0
328,64,190217,2,0,P|400:32|476:72,1,160,2|0,0:0|0:0,0:0:0
480,116,190906,2,0,P|444:144|452:216,1,106.666666666667,4|0,0:0|0:0,0:0:0
196,276,191941,6,0,P|144:192|204:108,1,213.333333333333,2|0,0:0|0:0,0:0:0
312,108,192975,2,0,P|372:192|320:276,1,213.333333333333,4|0,0:0|0:0,0:0:0
256,192,194010,1,2,0:0:0
256,192,195044,12,4,197113,0:0:0
