osu file format v11

[General]
AudioFilename: Shugo Chara! OST MP3 - 03 Happy Xmas - .mp3
AudioLeadIn: 0
PreviewTime: 120561
Countdown: 0
SampleSet: Soft
StackLeniency: 0.7
Mode: 0
LetterboxInBreaks: 0

[Editor]
Bookmarks: 144702,199185
DistanceSpacing: 0.9
BeatDivisor: 4
GridSize: 4

[Metadata]
Title:Happy Xmas
TitleUnicode:Happy Xmas
Artist:Itou Kanae, Asumi Kana, Katou Nanae, Toyosaki Aki
ArtistUnicode:Itou Kanae, Asumi Kana, Katou Nanae, Toyosaki Aki
Creator:TheVileOne
Version:Easy
Source:Shugo Chara!
Tags:Amu Hinamori Ran Miki pimpG VinylDash14 Collab Christmas Doki Chibi Character Song
BeatmapID:199294
BeatmapSetID:66062

[Difficulty]
HPDrainRate:1
CircleSize:3
OverallDifficulty:1
ApproachRate:2
SliderMultiplier:1.2
SliderTickRate:2

[Events]
//Background and Video events
0,0,"pimpBG.jpg"
//Break Periods
2,103175,114864
//Storyboard Layer 0 (Background)
//Storyboard Layer 1 (Fail)
//Storyboard Layer 2 (Pass)
//Storyboard Layer 3 (Foreground)
//Storyboard Sound Samples
//Background Colour Transformations
3,100,163,162,255

[TimingPoints]
562,689.655172413793,3,2,0,50,1,0
12975,-100,3,2,0,35,0,0
32113,-100,3,2,0,20,0,0
32372,-100,3,2,0,35,0,0
33148,-100,3,2,0,20,0,0
33405,-100,3,2,0,35,0,0
34182,-100,3,2,0,20,0,0
34441,-100,3,2,0,35,0,0
35217,-100,3,2,0,20,0,0
35475,-100,3,2,0,35,0,0
120561,-100,3,2,0,50,0,1
135044,-100,3,2,0,50,0,0
159182,-100,3,2,0,35,0,0
159872,-100,3,2,0,40,0,0
160906,-100,3,2,0,30,0,0
161941,-100,3,2,0,25,0,0
162975,-100,3,2,0,20,0,0
164010,-100,3,2,0,50,0,0
172286,-100,3,2,0,50,0,1
178406,-100,3,2,0,45,0,1
178579,-100,3,2,0,50,0,1
179096,-100,3,2,0,40,0,1
179355,-100,3,2,0,50,0,1
180130,-100,3,2,0,40,0,1
180389,-100,3,2,0,50,0,1
187975,-100,3,2,0,35,0,1
188493,-100,3,2,0,50,0,1
192286,-100,3,2,0,35,0,1
192630,-100,3,2,0,50,0,1
195044,-100,3,2,0,50,0,0
196079,-100,3,2,0,35,0,0
196855,-100,3,2,0,45,0,0

[Colours]
Combo1 : 0,70,121
Combo2 : 196,19,85
Combo3 : 255,98,176
Combo4 : 240,5,5

[HitObjects]
128,192,12975,1,2,0:0:0
256,120,14010,1,2,0:0:0
376,192,15044,1,2,0:0:0
256,264,16079,5,2,0:0:0
227,225,16424,1,0,0:0:0
223,177,16768,1,0,0:0:0
248,136,17113,6,0,B|320:160|360:112,1,120,2|0,0:0|0:0,0:0:0
368,64,18148,2,0,B|400:168|504:168,1,180,2|4,0:0|0:0,0:0:0
498,303,19872,5,0,0:0:0
498,303,20217,2,0,B|394:287|347:375,1,180,2|4,0:0|0:0,0:0:0
224,375,21941,5,0,0:0:0
224,375,22286,2,0,B|168:295|64:303,1,180,2|4,0:0|0:0,0:0:0
20,219,24010,6,0,B|103:168|172:253|256:208,1,240,2|4,0:0|0:0,0:0:0
325,59,26424,1,2,0:0:0
424,192,27458,5,0,0:0:0
380,213,27803,1,0,0:0:0
360,256,28148,1,0,0:0:0
363,303,28493,1,2,0:0:0
200,264,29527,5,2,0:0:0
206,102,30562,1,0,0:0:0
226,145,30906,1,0,0:0:0
273,160,31251,1,0,0:0:0
316,139,31596,6,0,B|363:120|403:137,1,90,2|0,0:0|0:0,0:0:0
456,231,32630,2,0,B|409:253|361:231,1,90,2|0,0:0|0:0,0:0:0
285,303,33665,6,0,B|238:288|194:303,1,90,2|0,0:0|0:0,0:0:0
113,235,34699,2,0,B|125:189|110:146|110:146,1,90,2|0,0:0|0:0,0:0:0
193,77,35734,6,0,B|242:168|346:144,1,180,2|2,0:0|0:0,0:0:0
393,127,37113,1,0,0:0:0
445,135,37458,1,0,0:0:0
481,174,37803,2,0,B|491:282|408:328,1,180,2|2,0:0|0:0,0:0:0
256,268,39872,6,0,B|219:209|156:205,1,120,2|0,0:0|0:0,0:0:0
106,194,40906,2,0,B|140:138|118:75,1,120,2|0,0:0|0:0,0:0:0
160,43,41941,2,0,B|206:87|273:65,1,120,2|0,0:0|0:0,0:0:0
319,43,42975,1,2,0:0:0
479,98,44010,6,0,B|419:161|453:270,1,180,2|2,0:0|0:0,0:0:0
425,314,45389,1,0,0:0:0
371,322,45734,1,0,0:0:0
329,286,46079,2,0,B|241:238|153:286,1,180,2|2,0:0|0:0,0:0:0
24,192,48148,5,2,0:0:0
136,72,49182,2,0,B|192:144|160:248,1,180,2|2,0:0|0:0,0:0:0
136,290,50562,1,0,0:0:0
472,320,52286,6,0,B|448:256|472:200,1,120,4|0,0:0|0:0,0:0:0
491,152,53320,2,0,B|426:141|403:72,1,120,2|0,0:0|0:0,0:0:0
362,111,54355,2,0,B|279:160|189:115,1,180,2|2,0:0|0:0,0:0:0
47,39,56424,6,0,B|50:112|-3:148,1,120,2|0,0:0|0:0,0:0:0
10,198,57458,1,2,0:0:0
169,294,58493,6,0,B|223:263|230:192,1,120,2|0,0:0|0:0,0:0:0
283,197,59527,2,0,B|289:264|343:295,1,120,2|0,0:0|0:0,0:0:0
397,300,60562,6,0,B|437:244,2,60,2|0|0,0:0|0:0|0:0,0:0:0
361,340,61596,2,0,B|308:380|241:356,1,120,2|0,0:0|0:0,0:0:0
196,340,62630,1,2,0:0:0
143,356,62975,1,0,0:0:0
82,266,63665,1,4,0:0:0
129,168,64355,5,0,0:0:0
169,128,64699,2,0,B|257:88|345:128,1,180,2|2,0:0|0:0,0:0:0
385,168,66079,1,0,0:0:0
256,192,66596,12,2,67803,0:0:0
48,88,68837,6,0,B|100:54|176:79,1,120,2|0,0:0|0:0,0:0:0
213,95,69872,1,0,0:0:0
238,142,70217,1,0,0:0:0
240,195,70562,2,0,B|296:227|363:193,1,120,2|0,0:0|0:0,0:0:0
464,192,71941,1,2,0:0:0
384,336,72975,5,0,0:0:0
256,240,74010,1,2,0:0:0
128,336,75044,1,4,0:0:0
56,192,76079,1,2,0:0:0
68,139,76424,1,0,0:0:0
113,109,76768,1,0,0:0:0
164,124,77113,6,0,B|191:182|257:199,1,120,4|0,0:0|0:0,0:0:0
270,249,78148,2,0,B|326:217|398:225,1,120,2|0,0:0|0:0,0:0:0
431,252,79182,2,0,B|407:147|456:74,1,180,2|4,0:0|0:0,0:0:0
295,117,81251,6,0,B|208:158|117:117,2,180,2|2|0,0:0|0:0|0:0,0:0:0
256,192,83493,12,4,86424,0:0:0
130,97,87458,6,0,B|130:159|176:204,1,120,4|0,0:0|0:0,0:0:0
188,256,88493,2,0,B|247:236|310:264,1,120,2|0,0:0|0:0,0:0:0
343,223,89527,2,0,B|391:215|411:151|391:99|343:87,1,180,2|2,0:0|0:0,0:0:0
151,70,91596,6,0,B|126:128|58:144,1,120,2|0,0:0|0:0,0:0:0
51,196,92630,2,0,B|90:237|91:310,1,120,2|0,0:0|0:0,0:0:0
119,352,93665,1,2,0:0:0
173,352,94010,1,0,0:0:0
210,312,94355,2,0,B|242:294|280:311,1,60,0|2,0:0|0:0,0:0:0
436,360,95734,6,0,B|428:292|461:245,1,120,2|0,0:0|0:0,0:0:0
446,193,96768,1,2,0:0:0
399,165,97113,1,0,0:0:0
350,188,97458,2,0,B|318:202|287:188,1,60,0|2,0:0|0:0,0:0:0
249,155,98148,2,0,B|190:124|129:155,1,120,2|0,0:0|0:0,0:0:0
196,302,99872,5,4,0:0:0
333,216,100906,1,2,0:0:0
260,99,101941,2,0,B|272:43|392:43|406:99,1,180,4|2,0:0|0:0,0:0:0
128,192,116424,5,2,0:0:0
256,120,117458,1,2,0:0:0
384,192,118493,1,2,0:0:0
344,330,119527,2,0,B|257:363|167:332,1,180,2|4,0:0|0:0,0:0:0
84,193,121596,5,2,0:0:0
169,55,122630,2,0,B|257:95|345:55,1,180,0|2,0:0|0:0,0:0:0
431,191,124699,5,2,0:0:0
330,318,125734,1,0,0:0:0
225,194,126768,1,2,0:0:0
123,320,127803,1,2,0:0:0
103,269,128148,1,0,0:0:0
112,215,128493,1,2,0:0:0
147,174,128837,6,0,B|208:164|227:94,1,120,4|0,0:0|0:0,0:0:0
285,94,129872,2,0,B|304:164|365:174,1,120,2|0,0:0|0:0,0:0:0
344,232,130906,2,0,B|256:200|168:232,1,180,2|4,0:0|0:0,0:0:0
120,64,132975,5,0,0:0:0
256,152,134010,1,2,0:0:0
392,64,135044,1,4,0:0:0
48,192,137113,6,0,B|104:168|168:192,1,120,4|0,0:0|0:0,0:0:0
213,212,138148,2,0,B|264:243|340:243|389:208,1,180,2|0,0:0|0:0,0:0:0
429,180,139527,1,0,0:0:0
488,304,140217,1,2,0:0:0
344,368,141251,6,0,B|256:336|167:366,1,180,2|2,0:0|0:0,0:0:0
80,208,143320,2,0,B|51:143|88:64|160:40|224:64,1,240,2|0,0:0|0:0,0:0:0
336,112,145389,6,0,B|304:160|320:232,1,120,2|0,0:0|0:0,0:0:0
344,280,146424,2,0,B|408:296,2,60,2|0|0,0:0|0:0|0:0,0:0:0
288,288,147458,2,0,B|204:332|116:288,1,180,2|4,0:0|0:0,0:0:0
40,144,149527,6,0,B|91:109|154:133,1,120,2|0,0:0|0:0,0:0:0
203,156,150562,2,0,B|260:183|320:155,1,120,2|0,0:0|0:0,0:0:0
256,192,151596,12,2,154699,0:0:0
120,135,155734,5,2,0:0:0
136,187,156079,1,0,0:0:0
171,228,156424,1,0,0:0:0
171,228,156768,6,0,B|257:279|342:228,1,180,0|2,0:0|0:0,0:0:0
340,123,158148,2,0,B|255:72|169:123,1,180,0|0,0:0|0:0,0:0:0
61,128,159872,6,0,B|45:159|51:191,1,60,2|0,0:0|0:0,0:0:0
88,226,160562,1,0,0:0:0
106,276,160906,2,0,B|141:328|210:324,1,120,2|0,0:0|0:0,0:0:0
232,274,161941,2,0,B|254:206|318:188,1,120,2|0,0:0|0:0,0:0:0
366,188,162975,2,0,B|404:240|469:240,1,120,2|0,0:0|0:0,0:0:0
460,312,164010,6,0,B|370:276|279:312,1,180,2|2,0:0|0:0,0:0:0
125,256,166079,2,0,B|96:200|116:136,1,120,2|2,0:0|0:0,0:0:0
152,100,167113,2,0,B|240:68|332:100,1,180,2|2,0:0|0:0,0:0:0
423,236,169182,6,0,B|371:272|309:249,1,120,2|0,0:0|0:0,0:0:0
257,231,170217,2,0,B|169:191|81:231,1,180,4|0,0:0|0:0,0:0:0
144,80,172286,6,0,B|232:124|320:80,1,180,4|2,0:0|0:0,0:0:0
366,59,173665,1,0,0:0:0
413,84,174010,1,0,0:0:0
426,136,174355,2,0,B|394:184|406:251,1,120,2|0,0:0|0:0,0:0:0
426,301,175389,1,2,0:0:0
315,308,176079,1,0,0:0:0
264,336,176424,6,0,B|200:312|208:232,1,120,4|0,0:0|0:0,0:0:0
160,213,177458,1,2,0:0:0
107,223,177803,1,0,0:0:0
80,270,178148,1,0,0:0:0
91,322,178493,6,0,B|139:362|211:338,1,120,2|2,0:0|0:0,0:0:0
215,289,179527,2,0,B|263:265|335:289,1,120,2|2,0:0|0:0,0:0:0
376,320,180562,5,4,0:0:0
429,310,180906,1,0,0:0:0
456,264,181251,1,0,0:0:0
441,212,181596,2,0,B|397:169|408:102,1,120,2|0,0:0|0:0,0:0:0
427,51,182630,1,2,0:0:0
298,149,183665,1,2,0:0:0
168,51,184699,5,4,0:0:0
40,144,185734,1,2,0:0:0
104,288,186768,2,0,B|130:367|272:367|308:288,1,240,4|0,0:0|0:0,0:0:0
472,144,189872,5,2,0:0:0
408,288,190906,2,0,B|381:364|245:364|211:288,1,240,4|0,0:0|0:0,0:0:0
112,250,192975,5,2,0:0:0
153,130,194010,1,2,0:0:0
268,179,195044,1,2,0:0:0
226,298,196079,1,2,0:0:0
226,298,196424,1,2,0:0:0
256,192,197113,12,2,200217,0:0:0
