osu file format v10

[General]
AudioFilename: Hi.mp3
AudioLeadIn: 1500
PreviewTime: 49081
Countdown: 0
SampleSet: Normal
StackLeniency: 0.7
Mode: 1
LetterboxInBreaks: 0

[Editor]
DistanceSpacing: 1
BeatDivisor: 4
GridSize: 4

[Metadata]
Title:Puzzle (TV Size)
TitleUnicode:Puzzle (TV Size)
Artist:Itou Kanae
ArtistUnicode:Itou Kanae
Creator:Flask
Version:Taiko Fuutsu
Source:Shinryaku!! Ika Musume
Tags:OVA OAD ikamusume Kanemoto Hisako squid girl Diomedea invasion! ending [kirisame-marisa] yia pazuru
BeatmapID:192294
BeatmapSetID:63851

[Difficulty]
HPDrainRate:3
CircleSize:5
OverallDifficulty:5
ApproachRate:5
SliderMultiplier:1.4
SliderTickRate:1

[Events]
//Background and Video events
0,0,"ikamusume04y.jpg"
//Break Periods
//Storyboard Layer 0 (Background)
//Storyboard Layer 1 (Fail)
//Storyboard Layer 2 (Pass)
//Storyboard Layer 3 (Foreground)
//Storyboard Sound Samples
//Background Colour Transformations
3,100,163,162,255

[TimingPoints]
-1315,600,4,1,0,80,1,0
49085,-100,4,1,0,80,0,1
75485,-100,4,1,0,80,0,0

[Colours]
Combo1 : 0,255,255
Combo2 : 255,0,0

[HitObjects]
256,192,1085,1,4,0:0:0
256,192,1985,1,0,0:0:0
256,192,2285,5,2,0:0:0
256,192,2885,5,0,0:0:0
256,192,3185,5,6,0:0:0
256,192,3785,5,0,0:0:0
256,192,4385,5,2,0:0:0
256,192,5585,5,0,0:0:0
256,192,5885,5,2,0:0:0
256,192,6485,5,0,0:0:0
256,192,7085,1,0,0:0:0
256,192,7685,1,4,0:0:0
256,192,7985,5,6,0:0:0
256,192,8885,5,0,0:0:0
256,192,9485,1,0,0:0:0
256,192,10085,1,0,0:0:0
256,192,10685,1,4,0:0:0
256,192,11285,5,2,0:0:0
256,192,11585,5,0,0:0:0
256,192,12185,1,0,0:0:0
256,192,12485,5,2,0:0:0
256,192,13085,5,0,0:0:0
256,192,13685,5,2,0:0:0
256,192,13985,5,0,0:0:0
256,192,15185,1,0,0:0:0
256,192,15485,1,0,0:0:0
256,192,16085,5,2,0:0:0
256,192,16385,5,0,0:0:0
256,192,16985,1,0,0:0:0
256,192,17285,5,2,0:0:0
256,192,17885,6,0,B|256:48,3,140
256,200,19985,1,0,0:0:0
256,200,20285,1,0,0:0:0
256,200,20885,1,0,0:0:0
256,200,21185,1,0,0:0:0
256,200,21485,1,0,0:0:0
256,200,22085,5,2,0:0:0
256,200,22385,1,2,0:0:0
256,200,22685,1,2,0:0:0
256,200,23285,5,0,0:0:0
256,200,23585,5,2,0:0:0
256,200,24185,5,0,0:0:0
256,200,24785,1,0,0:0:0
256,200,25085,5,2,0:0:0
256,200,25685,5,0,0:0:0
256,200,25985,5,2,0:0:0
256,200,26885,5,0,0:0:0
256,200,27485,2,0,B|256:108,6,70
256,192,29885,1,4,0:0:0
256,192,30485,5,2,0:0:0
256,192,31085,1,2,0:0:0
256,192,31685,1,2,0:0:0
256,192,32285,1,2,0:0:0
256,192,32885,1,2,0:0:0
256,192,33485,1,2,0:0:0
256,192,34085,1,2,0:0:0
256,192,34385,1,2,0:0:0
256,192,34685,1,2,0:0:0
256,192,35285,1,2,0:0:0
256,192,35885,1,2,0:0:0
256,192,36485,1,2,0:0:0
256,192,37085,1,2,0:0:0
256,192,37685,1,2,0:0:0
256,192,38285,1,2,0:0:0
256,192,38885,1,2,0:0:0
256,192,39185,1,2,0:0:0
256,192,39485,5,4,0:0:0
256,192,40085,1,0,0:0:0
256,192,40685,1,0,0:0:0
256,192,41285,1,0,0:0:0
256,192,41885,1,0,0:0:0
256,192,42785,1,0,0:0:0
256,192,43085,1,0,0:0:0
256,192,43385,1,0,0:0:0
256,192,43685,1,0,0:0:0
256,192,44285,1,4,0:0:0
256,192,45185,1,0,0:0:0
256,192,45485,1,0,0:0:0
256,192,46085,1,0,0:0:0
256,192,46385,2,0,B|256:92,7,70
256,192,49085,1,4,0:0:0
256,192,49685,5,2,0:0:0
256,192,49985,1,2,0:0:0
256,192,50585,5,0,0:0:0
256,192,51185,1,0,0:0:0
256,192,51485,1,0,0:0:0
256,192,52085,5,2,0:0:0
256,192,52685,1,2,0:0:0
256,192,53285,5,0,0:0:0
256,192,53585,1,0,0:0:0
256,192,53885,1,0,0:0:0
256,192,54485,5,2,0:0:0
256,192,55385,5,0,0:0:0
256,192,55685,1,0,0:0:0
256,192,55985,1,0,0:0:0
256,192,56885,5,2,0:0:0
256,192,57485,5,0,0:0:0
256,192,57785,1,0,0:0:0
256,192,58085,1,0,0:0:0
256,192,58685,1,0,0:0:0
256,192,59285,5,2,0:0:0
256,192,59585,1,2,0:0:0
256,192,60185,5,0,0:0:0
256,192,60785,1,0,0:0:0
256,192,61085,1,0,0:0:0
256,192,61685,5,2,0:0:0
256,192,62285,1,2,0:0:0
256,192,62885,5,0,0:0:0
256,192,63185,1,0,0:0:0
256,192,63485,1,0,0:0:0
256,192,64085,5,2,0:0:0
256,192,64985,5,0,0:0:0
256,192,65285,1,0,0:0:0
256,192,65585,1,0,0:0:0
256,192,66485,5,2,0:0:0
256,192,67085,5,0,0:0:0
256,192,67385,1,0,0:0:0
256,192,67685,1,0,0:0:0
256,192,68285,1,4,0:0:0
256,192,69185,1,0,0:0:0
256,192,69485,1,0,0:0:0
256,192,70685,1,0,0:0:0
256,192,71885,1,0,0:0:0
256,192,72185,1,0,0:0:0
256,192,72485,1,0,0:0:0
256,192,73085,1,4,0:0:0
256,192,73685,5,2,0:0:0
256,192,74285,5,0,0:0:0
256,192,74885,5,2,0:0:0
256,192,75485,5,4,0:0:0
256,192,76385,1,0,0:0:0
256,192,76685,1,0,0:0:0
256,192,77285,1,0,0:0:0
256,192,77885,5,6,0:0:0
256,192,78785,5,0,0:0:0
256,192,79085,5,2,0:0:0
256,192,79685,5,0,0:0:0
256,192,79985,5,6,0:0:0
256,192,80585,1,2,0:0:0
256,192,81185,5,0,0:0:0
256,192,82385,1,0,0:0:0
256,192,82685,5,2,0:0:0
256,192,83285,5,0,0:0:0
256,192,83885,1,0,0:0:0
256,192,84485,1,4,0:0:0
256,192,84785,5,6,0:0:0
256,192,85685,5,0,0:0:0
256,192,86285,1,0,0:0:0
256,192,86885,1,0,0:0:0
256,192,87185,2,0,B|256:92,7,70
