osu file format v10

[General]
AudioFilename: Hi.mp3
AudioLeadIn: 1500
PreviewTime: 49081
Countdown: 0
SampleSet: Soft
StackLeniency: 0.7
Mode: 0
LetterboxInBreaks: 0

[Editor]
Bookmarks: 29889
DistanceSpacing: 1
BeatDivisor: 4
GridSize: 4

[Metadata]
Title:Puzzle (TV Size)
TitleUnicode:Puzzle (TV Size)
Artist:Itou Kanae
ArtistUnicode:Itou Kanae
Creator:Flask
Version:Hard
Source:Shinryaku!! Ika Musume
Tags:OVA OAD ikamusume Kanemoto Hisako squid girl Diomedea invasion! ending [kirisame-marisa] yia pazuru
BeatmapID:192258
BeatmapSetID:63851

[Difficulty]
HPDrainRate:5
CircleSize:4
OverallDifficulty:6
ApproachRate:7
SliderMultiplier:1.8
SliderTickRate:1

[Events]
//Background and Video events
0,0,"4 (1).jpg"
Video,0,"Puzzle.avi"
//Break Periods
//Storyboard Layer 0 (Background)
//Storyboard Layer 1 (Fail)
//Storyboard Layer 2 (Pass)
//Storyboard Layer 3 (Foreground)
//Storyboard Sound Samples
//Background Colour Transformations
3,100,163,162,255

[TimingPoints]
-1315,600,4,2,1,60,1,0
1085,-100,4,2,1,70,0,0
5885,-100,4,2,1,65,0,0
10385,-100,4,2,1,40,0,0
10685,-100,4,2,1,60,0,0
17885,-100,4,2,1,30,0,0
18035,-100,4,2,1,60,0,0
27485,-100,4,2,1,30,0,0
27635,-100,4,2,1,60,0,0
28985,-100,4,2,1,45,0,0
29285,-100,4,2,1,55,0,0
29885,-100,4,2,2,65,0,0
44285,-100,4,2,1,45,0,0
48485,-100,4,2,1,50,0,0
48785,-100,4,2,1,60,0,0
49085,-100,4,2,1,75,0,1
68285,-100,4,2,1,60,0,1
75485,-100,4,2,1,60,0,0
77285,-100,4,2,1,45,0,0
77585,-100,4,2,1,55,0,0
77885,-100,4,2,1,70,0,0
87485,-100,4,2,1,30,0,0
87785,-100,4,2,1,25,0,0
88085,-100,4,2,1,20,0,0
88385,-100,4,2,1,15,0,0
88685,-100,4,2,1,10,0,0
88985,-100,4,2,1,5,0,0

[Colours]
Combo1 : 0,242,61
Combo2 : 0,128,192
Combo3 : 234,234,0
Combo4 : 0,255,255

[HitObjects]
72,112,485,2,0,B|88:160,3,45,8|8|8|8,0:0|0:0|0:0|0:0,0:0:0
104,196,1085,2,0,B|128:252|160:276,1,90,4|0,0:0|0:0,0:0:0
216,336,1685,1,8,0:0:0
304,356,1985,2,0,B|352:344|404:352,2,90,2|2|2,0:0|0:0|0:0,0:0:0
216,336,2885,1,8,0:0:0
24,216,3185,6,0,B|12:120,1,90,4|0,0:0|0:0,0:0:0
96,160,3785,2,0,B|104:56,2,90,2|8|2,0:0|0:0|0:0,0:0:0
136,240,4685,1,2,0:0:0
224,264,4985,1,0,0:0:0
300,216,5285,1,8,0:0:0
280,128,5585,1,2,0:0:0
292,108,5735,1,2,0:0:0
304,88,5885,6,0,P|356:148|460:128,1,180,4|8,0:0|0:0,0:0:0
392,64,6785,1,0,0:0:0
449,137,7085,2,0,P|469:224,1,90,2|0,0:0|0:0,0:0:0
376,340,7685,2,0,P|352:236,1,90,8|4,0:0|0:0,0:0:0
40,236,8885,5,2,0:0:0
108,292,9185,1,0,0:0:0
196,288,9485,1,2,0:0:0
260,224,9785,1,0,0:0:0
324,160,10085,2,0,B|348:136|376:132,2,45,8|8|0,0:0|0:0|0:0,0:0:0
440,308,10685,6,0,B|400:336|352:324,1,90,4|0,0:0|0:0,0:0:0
264,308,11285,1,8,0:0:0
184,268,11585,2,0,B|144:256|96:268,1,90,2|0,0:0|0:0,0:0:0
4,280,12185,2,0,B|4:188,2,90,0|8|0,0:0|0:0|0:0,0:0:0
124,296,13085,5,2,0:0:0
192,352,13385,1,0,0:0:0
272,308,13685,1,8,0:0:0
276,220,13985,2,0,B|309:186|355:174,2,90,2|0|0,0:0|0:0|0:0,0:0:0
188,204,14885,1,8,0:0:0
188,204,15035,1,0,0:0:0
188,204,15185,1,0,0:0:0
72,332,15485,6,0,B|38:298|29:244,1,90,2|0,0:0|0:0,0:0:0
24,164,16085,1,8,0:0:0
16,76,16385,2,0,B|63:65|116:92|128:152|103:201,1,180,2|0,0:0|0:0,0:0:0
188,220,17285,2,0,B|236:256|284:260,1,90,8|0,0:0|0:0,0:0:0
348,300,17885,5,4,0:0:0
436,284,18185,1,0,0:0:0
460,160,18485,2,0,B|468:112|460:68,2,90,8|2|0,0:0|0:0|0:0,0:0:0
292,164,19385,1,2,0:0:0
248,164,19535,1,0,0:0:0
204,168,19685,2,0,B|152:164|124:204,1,90,8|0,0:0|0:0,0:0:0
52,312,20285,5,4,0:0:0
16,228,20585,1,0,0:0:0
40,140,20885,2,0,B|60:80|44:36,1,90,8|2,0:0|0:0,0:0:0
88,32,21335,1,0,0:0:0
136,32,21485,2,0,B|192:24|240:36,1,90
352,80,22085,5,8,0:0:0
352,80,22385,2,0,B|372:124|360:184,2,90,0|2|0,0:0|0:0|0:0,0:0:0
260,88,23285,1,8,0:0:0
176,120,23585,1,0,0:0:0
112,184,23885,1,0,0:0:0
32,220,24185,2,0,B|48:264|112:276,1,90,0|8,0:0|0:0,0:0:0
288,344,24785,1,0,0:0:0
332,336,24935,1,0,0:0:0
372,316,25085,6,4,B|420:292|424:244,1,90,2|0,0:0|0:0,0:0:0
424,156,25685,2,0,B|420:111|372:87,1,90,8|2,0:0|0:0,0:0:0
244,40,26285,1,0,0:0:0
168,152,26585,1,0,0:0:0
304,160,26885,1,8,0:0:0
244,40,27185,1,0,0:0:0
84,68,27485,6,0,B|64:116|80:160,1,90,4|2,0:0|0:0,0:0:0
108,260,28085,2,0,B|152:284|200:264,1,90,8|2,0:0|0:0,0:0:0
284,324,28685,1,8,0:0:0
344,232,28985,1,8,0:0:0
316,200,29135,1,8,0:0:0
296,160,29285,1,8,0:0:0
288,116,29435,1,8,0:0:0
288,72,29585,2,0,P|312:28|348:16,1,90,8|4,0:0|0:0,0:0:0
488,32,30185,6,0,B|508:92|508:144,2,90,2|8|2,0:0|0:0|0:0,0:0:0
400,40,31085,2,0,B|352:32|300:48,1,90,8|2,0:0|0:0,0:0:0
252,152,31685,2,0,B|308:164|356:144,1,90,8|2,0:0|0:0,0:0:0
420,196,32285,5,8,0:0:0
376,372,32885,1,8,0:0:0
204,324,33485,1,8,0:0:0
252,152,34085,1,8,0:0:0
196,80,34385,1,2,0:0:0
108,76,34685,6,0,B|72:112|64:176,1,90,8|2,0:0|0:0,0:0:0
64,248,35285,2,0,B|68:290|104:326,1,90,8|2,0:0|0:0,0:0:0
192,352,35885,2,0,B|296:352,1,90,8|2,0:0|0:0,0:0:0
340,280,36485,2,0,B|236:280,1,90,8|2,0:0|0:0,0:0:0
168,128,37085,6,0,B|176:80|232:56|280:72|300:132,1,180,8|8,0:0|0:0,0:0:0
232,188,37985,1,0,0:0:0
296,248,38285,2,0,B|288:296|232:320|184:304|164:244,1,180,8|8,0:0|0:0,0:0:0
64,156,39185,1,8,0:0:0
40,116,39335,1,8,0:0:0
28,76,39485,1,4,0:0:0
184,32,40085,5,8,0:0:0
264,44,40385,2,0,B|312:64|344:120,1,90,2|8,0:0|0:0,0:0:0
376,172,40985,2,0,B|396:209|444:229,2,90,2|8|2,0:0|0:0|0:0,0:0:0
244,148,41885,5,8,0:0:0
160,288,42185,1,2,0:0:0
312,228,42485,1,8,0:0:0
152,196,42785,1,2,0:0:0
260,316,43085,1,8,0:0:0
260,316,43385,2,0,B|300:360|340:372,2,90,2|8|2,0:0|0:0|0:0,0:0:0
152,196,44285,6,0,B|124:180|88:124,2,90,4|0|2,0:0|0:0|0:0,0:0:0
224,248,45185,1,0,0:0:0
292,196,45485,2,0,B|320:180|356:124,2,90,2|0|10,0:0|0:0|0:0,0:0:0
168,300,46385,6,0,B|136:340|76:344|36:304|32:252,1,180,4|0,0:0|0:0,0:0:0
116,228,47285,1,8,0:0:0
204,216,47585,1,0,0:0:0
224,356,47885,1,8,0:0:0
312,340,48185,1,0,0:0:0
416,256,48485,1,8,0:0:0
424,212,48635,1,8,0:0:0
432,168,48785,1,8,0:0:0
436,124,48935,1,8,0:0:0
440,80,49085,6,0,B|476:64|492:52|500:12,1,90,4|0,0:0|0:0,0:0:0
368,24,49685,1,8,0:0:0
288,64,49985,2,0,B|240:96|228:140,1,90,0|2,0:0|0:0,0:0:0
184,208,50585,1,0,0:0:0
104,316,50885,1,8,0:0:0
236,336,51185,1,0,0:0:0
324,348,51485,6,0,B|376:360|424:320,1,90,2|0,0:0|0:0,0:0:0
501,181,52085,2,0,B|512:224|476:264,1,90,8|0,0:0|0:0,0:0:0
304,212,52685,1,2,0:0:0
312,32,53285,1,8,0:0:0
228,60,53585,1,0,0:0:0
144,168,53885,6,0,B|152:220|120:256,2,90,2|0|8,0:0|0:0|0:0,0:0:0
228,60,54785,2,0,P|312:84|328:168,1,180,2|0,0:0|0:0,0:0:0
240,148,55685,1,8,0:0:0
256,236,55985,2,0,P|172:212|156:128,1,180,2|0,0:0|0:0,0:0:0
68,60,56885,1,8,0:0:0
44,148,57185,1,0,0:0:0
20,280,57485,6,0,B|52:324|100:340,1,90,2|2,0:0|0:0,0:0:0
228,320,58085,1,8,0:0:0
272,316,58235,1,0,0:0:0
312,296,58385,1,8,0:0:0
364,204,58685,6,0,B|372:152|352:100,1,90,4|0,0:0|0:0,0:0:0
292,52,59285,1,8,0:0:0
204,32,59585,2,0,B|152:36|124:92|124:92|44:92,1,180,2|0,0:0|0:0,0:0:0
48,180,60485,1,8,0:0:0
100,252,60785,1,0,0:0:0
208,168,61085,5,2,0:0:0
319,92,61385,1,0,0:0:0
426,175,61685,1,8,0:0:0
380,302,61985,1,0,0:0:0
245,297,62285,1,2,0:0:0
245,297,62435,1,0,0:0:0
245,297,62585,1,0,0:0:0
180,360,62885,2,0,B|144:324|156:272,1,90,8|0,0:0|0:0,0:0:0
124,192,63485,5,4,0:0:0
56,76,63785,1,0,0:0:0
176,12,64085,1,8,0:0:0
244,128,64385,2,0,B|296:164|352:168,1,90,0|2,0:0|0:0,0:0:0
412,188,64985,2,0,B|448:228|452:284,1,90,0|8,0:0|0:0,0:0:0
392,336,65585,1,0,0:0:0
392,336,65735,1,0,0:0:0
392,336,65885,6,0,B|336:352|280:340,1,90,2|0,0:0|0:0,0:0:0
120,336,66485,2,0,B|176:352|209:343,1,90,8|0,0:0|0:0,0:0:0
256,268,67085,5,2,0:0:0
192,204,67385,1,0,0:0:0
256,144,67685,1,8,0:0:0
328,204,67985,1,0,0:0:0
328,204,68135,1,0,0:0:0
328,204,68285,6,0,B|372:220|432:212,1,90,4|0,0:0|0:0,0:0:0
508,204,68885,1,0,0:0:0
504,292,69185,1,0,0:0:0
416,316,69485,2,0,P|344:356|256:320,1,180,2|8,0:0|0:0,0:0:0
144,264,70385,1,0,0:0:0
100,248,70535,1,0,0:0:0
64,224,70685,6,0,B|28:184|20:136,1,90,4|0,0:0|0:0,0:0:0
84,80,71285,2,0,B|124:44|172:36,1,90
244,72,71885,1,2,0:0:0
316,188,72185,1,2,0:0:0
380,72,72485,1,8,0:0:0
244,72,72785,1,0,0:0:0
120,128,73085,6,0,B|80:168|72:224,1,90,4|0,0:0|0:0,0:0:0
168,212,73685,2,0,B|163:249|123:289,1,90,8|0,0:0|0:0,0:0:0
184,360,74285,1,0,0:0:0
316,340,74585,1,2,0:0:0
428,264,74885,2,0,B|476:228|492:188,2,90,8|2|4,0:0|0:0|0:0,0:0:0
180,160,76385,6,0,B|136:128|96:112,1,90,2|0,0:0|0:0,0:0:0
12,108,76985,1,2,0:0:0
4,196,77285,1,8,0:0:0
12,240,77435,1,8,0:0:0
32,280,77585,1,8,0:0:0
64,308,77735,1,8,0:0:0
108,320,77885,6,0,B|152:340|212:328,1,90,4|0,0:0|0:0,0:0:0
320,308,78485,1,8,0:0:0
392,256,78785,2,0,B|412:208,1,45,2|0,0:0|0:0,0:0:0
424,172,79085,2,0,B|444:120|432:80,2,90,2|2|8,0:0|0:0|0:0,0:0:0
336,156,79985,1,4,0:0:0
336,156,80585,6,0,B|284:180|232:184,1,90,2|8,0:0|0:0,0:0:0
224,96,81185,2,0,B|152:104|120:184|152:244|200:276|256:268,1,270,2|8,0:0|0:0,0:0:0
324,316,82385,1,0,0:0:0
368,320,82535,1,0,0:0:0
412,312,82685,6,0,B|452:284|464:236,1,90,4|0,0:0|0:0,0:0:0
464,152,83285,2,0,B|453:108|413:80,1,90,8|0,0:0|0:0,0:0:0
280,68,83885,1,2,0:0:0
248,216,84185,1,0,0:0:0
392,168,84485,1,8,0:0:0
280,68,84785,1,4,0:0:0
36,56,85685,5,2,0:0:0
24,236,86285,1,2,0:0:0
204,248,86885,2,0,B|260:236|284:200,1,90,2|4,0:0|0:0,0:0:0
256,192,87485,12,0,89285,0:0:0
