osu file format v10

[General]
AudioFilename: Hi.mp3
AudioLeadIn: 1500
PreviewTime: 49081
Countdown: 0
SampleSet: Soft
StackLeniency: 0.7
Mode: 0
LetterboxInBreaks: 0

[Editor]
Bookmarks: 29889
DistanceSpacing: 0.8
BeatDivisor: 4
GridSize: 4

[Metadata]
Title:Puzzle (TV Size)
TitleUnicode:Puzzle (TV Size)
Artist:Itou Kanae
ArtistUnicode:Itou Kanae
Creator:Flask
Version:Easy
Source:Shinryaku!! Ika Musume
Tags:OVA OAD ikamusume Kanemoto Hisako squid girl Diomedea invasion! ending [kirisame-marisa] yia pazuru
BeatmapID:192257
BeatmapSetID:63851

[Difficulty]
HPDrainRate:2
CircleSize:3
OverallDifficulty:2
ApproachRate:3
SliderMultiplier:1.2
SliderTickRate:1

[Events]
//Background and Video events
0,0,"4 (1).jpg"
Video,0,"Puzzle.avi"
//Break Periods
//Storyboard Layer 0 (Background)
//Storyboard Layer 1 (Fail)
//Storyboard Layer 2 (Pass)
//Storyboard Layer 3 (Foreground)
//Storyboard Sound Samples
//Background Colour Transformations
3,100,163,162,255

[TimingPoints]
-1315,600,4,2,1,60,1,0
1085,-100,4,2,1,70,0,0
5885,-100,4,2,1,65,0,0
8885,-100,4,2,1,60,0,0
10085,-100,4,2,1,65,0,0
10685,-100,4,2,1,60,0,0
17885,-100,4,2,1,30,0,0
18185,-100,4,2,1,60,0,0
27485,-100,4,2,1,30,0,0
27635,-100,4,2,1,60,0,0
29885,-100,4,2,2,65,0,0
32735,-100,4,2,4,65,0,0
33035,-100,4,2,2,65,0,0
42335,-100,4,2,4,65,0,0
42635,-100,4,2,2,65,0,0
44285,-100,4,2,1,45,0,0
44735,-100,4,2,3,60,0,0
45035,-100,4,2,1,60,0,0
48485,-100,4,2,1,50,0,0
48785,-100,4,2,1,60,0,0
49085,-100,4,2,1,75,0,1
54335,-100,4,2,3,75,0,1
54635,-100,4,2,1,75,0,1
56735,-100,4,2,3,75,0,1
57035,-100,4,2,1,75,0,1
61535,-100,4,2,3,75,0,1
61835,-100,4,2,1,75,0,1
63935,-100,4,2,3,75,0,1
64235,-100,4,2,1,75,0,1
68285,-100,4,2,1,60,0,1
75485,-100,4,2,1,60,0,0
77885,-100,4,2,1,70,0,0
87485,-100,4,2,1,30,0,0
87785,-100,4,2,1,25,0,0
88085,-100,4,2,1,20,0,0
88385,-100,4,2,1,15,0,0
88685,-100,4,2,1,10,0,0
88985,-100,4,2,1,5,0,0

[Colours]
Combo1 : 0,242,61
Combo2 : 0,128,192
Combo3 : 234,234,0
Combo4 : 0,255,255

[HitObjects]
132,104,485,1,8,0:0:0
76,180,1085,2,0,B|108:212|164:212|204:168,1,120,4|8,0:0|0:0,0:0:0
272,144,2285,2,0,B|304:112|360:112|400:156,1,120,2|8,0:0|0:0,0:0:0
424,164,3185,1,4,0:0:0
421,259,3785,1,2,0:0:0
424,308,4085,2,0,B|360:344|296:336,2,120,8|2|8,0:0|0:0|0:0,0:0:0
472,224,5885,6,0,B|492:156|476:96,1,120,4|8,0:0|0:0,0:0:0
404,44,7085,2,0,B|332:44,1,60,2|2,0:0|0:0,0:0:0
296,44,7685,2,0,B|224:56,1,60,8|4,0:0|0:0,0:0:0
112,128,8885,6,0,B|100:192|100:264,2,120,2|2|8,0:0|0:0|0:0,0:0:0
104,32,10685,6,0,B|172:24|208:100,2,120,4|8|0,0:0|0:0|0:0,0:0:0
112,128,12485,1,8,0:0:0
200,164,13085,1,2,0:0:0
296,172,13685,1,8,0:0:0
384,132,14285,2,0,B|354:68|286:76,1,120,0|8,0:0|0:0,0:0:0
196,44,15485,6,0,B|68:44,1,120,2|8,0:0|0:0,0:0:0
32,60,16385,1,2,0:0:0
60,156,16985,2,0,B|56:224,1,60,0|8,0:0|0:0,0:0:0
116,292,17885,6,8,B|140:328|192:340|232:304,1,120,12|8,0:0|0:0,0:0:0
268,304,18785,2,0,B|324:272|380:300|380:300|448:280,1,180,2|8,0:0|0:0,0:0:0
468,192,20285,6,0,B|472:124|444:68,1,120,4|8,0:0|0:0,0:0:0
352,92,21485,2,0,B|348:160|376:216,1,120,0|8,0:0|0:0,0:0:0
436,280,22685,1,2,0:0:0
492,356,23285,2,0,B|432:392|368:352,1,120,8|0,0:0|0:0,0:0:0
308,292,24485,1,8,0:0:0
244,220,25085,6,0,B|196:168|116:192,2,120,2|8|0,0:0|0:0|0:0,0:0:0
168,280,26885,1,8,0:0:0
92,340,27485,6,0,B|140:392|220:368,1,120,4|8,0:0|0:0,0:0:0
292,344,28685,2,0,B|348:320,2,60,8|8|8,0:0|0:0|0:0,0:0:0
244,264,29885,5,4,0:0:0
272,172,30485,1,8,0:0:0
192,120,31085,2,0,B|152:68|88:72,1,120,8|8,0:0|0:0,0:0:0
20,136,32285,2,0,B|24:236|140:272|204:196,1,240,8|8,0:0|0:0,0:0:0
120,144,34085,1,8,0:0:0
208,104,34685,6,0,B|264:72|340:84,1,120,8|8,0:0|0:0,0:0:0
412,120,35885,2,0,B|452:176|456:240,1,120,8|8,0:0|0:0,0:0:0
404,312,37085,1,8,0:0:0
312,340,37685,1,8,0:0:0
216,340,38285,1,8,0:0:0
136,284,38885,1,8,0:0:0
120,188,39485,6,0,B|120:116|168:76,1,120,4|8,0:0|0:0,0:0:0
260,84,40685,2,0,B|303:119|303:191,1,120,8|8,0:0|0:0,0:0:0
316,288,41885,2,0,B|320:360|408:400|476:368|492:312,1,240,8|8,0:0|0:0,0:0:0
408,276,43685,1,8,0:0:0
380,183,44285,6,0,B|407:117|346:43|271:41|228:80,1,240,4|0,0:0|0:0,0:0:0
288,156,46085,2,0,B|236:200,1,60,8|4,0:0|0:0,0:0:0
88,264,46985,1,0,0:0:0
88,312,47285,2,0,B|144:364|208:360,2,120,8|8|8,0:0|0:0|0:0,0:0:0
88,264,48785,1,8,0:0:0
76,216,49085,6,0,B|16:188|4:104,2,120,4|8|0,0:0|0:0|0:0,0:0:0
168,184,50885,1,8,0:0:0
252,228,51485,2,8,B|317:219|345:159,2,120,2|8|2,0:0|0:0|0:0,0:0:0
160,256,53285,1,8,0:0:0
232,320,53885,6,0,B|296:356|344:316|344:316|396:356|464:316,1,240,4|2,0:0|0:0,0:0:0
400,244,55685,1,8,0:0:0
456,164,56285,2,0,B|392:128|344:168|344:168|292:128|224:168,1,240,4|2,0:0|0:0,0:0:0
220,260,58085,1,8,0:0:0
120,284,58685,6,0,B|56:300|12:248,1,120,4|8,0:0|0:0,0:0:0
92,196,59885,2,0,B|132:76,1,120,0|8,0:0|0:0,0:0:0
224,56,61085,2,0,B|296:80|348:56|348:56|408:84|420:148,1,240,2|2,0:0|0:0,0:0:0
324,152,62885,1,8,0:0:0
228,164,63485,6,0,B|238:219|298:247|298:247|350:223|422:247,1,240,4|0,0:0|0:0,0:0:0
360,320,65285,1,8,0:0:0
268,340,65885,2,0,B|208:352|136:328,1,120,4|8,0:0|0:0,0:0:0
76,272,67085,2,0,B|32:228,2,60,8|8|8,0:0|0:0|0:0,0:0:0
144,204,68285,6,0,B|140:132|212:92|288:108|312:188,1,240,4|2,0:0|0:0,0:0:0
232,236,70085,1,8,0:0:0
320,272,70685,2,0,B|324:344|252:384|176:368|152:288,1,240,4|2,0:0|0:0,0:0:0
76,248,72485,1,8,0:0:0
12,180,73085,6,0,B|68:140|128:168,1,120,4|8,0:0|0:0,0:0:0
220,184,74285,2,0,B|277:210|333:170,2,120,2|8|4,0:0|0:0|0:0,0:0:0
388,92,76685,1,0,0:0:0
480,60,77285,1,8,0:0:0
484,156,77885,6,0,B|488:232|472:296,1,120,4|8,0:0|0:0,0:0:0
400,332,79085,2,0,B|340:348,2,60,2|2|8,0:0|0:0|0:0,0:0:0
400,284,79985,1,4,0:0:0
384,188,80585,1,0,0:0:0
356,148,80885,2,0,B|292:152|240:108,1,120,8|2,0:0|0:0,0:0:0
156,72,82085,1,8,0:0:0
88,140,82685,6,0,B|64:208|92:264,1,120,4|8,0:0|0:0,0:0:0
160,324,83885,2,0,B|224:324,1,60,2|2,0:0|0:0,0:0:0
268,324,84485,2,0,B|332:308,1,60,8|4,0:0|0:0,0:0:0
368,172,85685,2,0,B|400:124|400:124|420:108|420:108|444:72,2,120,2|2|2,0:0|0:0|0:0,0:0:0
340,212,87185,1,4,0:0:0
256,192,87485,12,0,89285,0:0:0
