osu file format v9

[General]
AudioFilename: Metamerism(TV size).mp3
AudioLeadIn: 2000
PreviewTime: 54362
Countdown: 0
SampleSet: Soft
StackLeniency: 0.5
Mode: 0
LetterboxInBreaks: 1

[Editor]
Bookmarks: 1112,13111,19111,43111,55111,79110
DistanceSpacing: 1
BeatDivisor: 2
GridSize: 8

[Metadata]
Title:Metamerism (TV Size)
Artist:Itou Kanae
Creator:Joshua Lost
Version:Normal
Source:Shinryaku! Ika Musume
Tags:Muya kanpakyin Invasion! Squid Girl

[Difficulty]
HPDrainRate:4
CircleSize:3
OverallDifficulty:5
ApproachRate:5
SliderMultiplier:0.899999999999999
SliderTickRate:1

[Events]
//Background and Video events
0,0,"BG1.jpg"
//Break Periods
//Storyboard Layer 0 (Background)
//Storyboard Layer 1 (Fail)
//Storyboard Layer 2 (Pass)
//Storyboard Layer 3 (Foreground)
//Storyboard Sound Samples
//Background Colour Transformations
3,100,17,166,255

[TimingPoints]
1104,376.104807873127,4,2,1,20,1,0
5617,-100,4,2,1,0,0,0
6737,-100,4,2,1,30,0,0
7111,375,4,2,1,30,1,0
11635,375.234521575985,4,2,1,30,1,0
12755,-100,4,2,1,50,0,0
13124,375,4,2,1,50,1,0
14965,375,4,2,1,50,1,0
16106,375,4,2,1,50,1,0
19093,375.16413430876,4,2,1,50,1,0
43120,372.670807453416,4,2,1,50,1,0
49082,375,4,2,1,50,1,0
52100,375,4,2,1,50,1,0
55121,375,4,2,1,50,1,1
55121,-100,4,2,1,50,0,1
61863,-100,4,2,1,0,0,1
62144,-100,4,2,1,50,0,1
77592,375,4,2,1,50,1,1
79114,375.469336670839,4,2,1,50,1,0
79114,-100,4,2,1,50,0,0
88496,-100,4,2,1,30,0,0
89247,-100,4,2,1,20,0,0
89998,-100,4,2,1,10,0,0
90749,-100,4,2,1,0,0,0

[Colours]
Combo1 : 169,162,255
Combo2 : 149,191,255
Combo3 : 155,238,255

[HitObjects]
256,32,727,1,0
256,32,1103,2,0,B|168:72,1,89.9999999999999
256,112,1856,2,0,B|344:152,1,89.9999999999999
256,192,2608,2,0,B|192:272|320:272|256:352,1,180
176,192,4112,6,0,B|176:136|232:136,1,89.9999999999999
280,136,4676,2,0,B|336:136|336:192,1,89.9999999999999
352,280,5429,2,0,B|312:336|200:336|152:280,1,225
160,96,7111,6,0,B|224:32,1,89.9999999999999
240,120,7861,2,0,B|312:48,1,89.9999999999999
320,144,8611,2,0,B|240:224,1,89.9999999999999
344,224,9361,2,0,B|272:296,1,89.9999999999999
256,192,10111,12,0,12385
72,64,13124,6,0,B|112:40|160:40,1,89.9999999999999,4|0
168,128,13874,2,0,B|214:127|256:151,1,89.9999999999999,8|0
224,232,14624,2,0,B|264:254|288:296,1,89.9999999999999,0|0
368,336,15340,2,0,B|398:302|407:256,1,89.9999999999999,8|0
328,224,16106,6,0,B|337:179|322:135,1,89.9999999999999,0|0
232,136,16856,2,0,B|217:92|182:61,1,89.9999999999999,8|0
120,128,17606,2,0,B|86:97|40:88,2,89.9999999999999,0|0|8
120,128,18731,1,0
64,200,19093,6,0,B|120:248|208:216|208:136,1,180,4|8
256,80,20218,1,0
305,156,20593,2,0,B|304:216|392:248|448:200,1,180,0|8
384,136,21719,1,0
464,112,22094,6,0,B|448:48|368:24|312:80,1,180,0|8
256,136,23219,1,0
256,224,23594,2,0,B|256:288,2,45
216,144,24345,2,0,B|256:104|296:144,1,89.9999999999999,8|0
360,80,25095,6,0,B|408:128|400:208|320:232,1,180,0|8
256,272,26221,1,0
176,224,26596,1,0
176,136,26971,1,0
256,96,27346,1,8
336,136,27721,1,0
336,224,28096,6,0,B|416:216|440:144|408:88,1,180,0|8
336,48,29222,1,0
248,48,29597,2,0,B|184:48,2,45
248,136,30347,2,0,B|304:136|336:72,1,89.9999999999999,8|0
400,40,31098,6,0,B|432:96|400:136,1,89.9999999999999
344,184,31848,2,0,B|376:224|424:208,1,89.9999999999999,8|0
496,264,32598,2,0,B|464:304|408:296,1,89.9999999999999
360,368,33349,2,0,B|312:336|328:272,1,89.9999999999999,8|0
248,248,34099,6,0,B|216:136|112:88,1,180,0|8
216,56,35225,1,0
296,96,35600,2,0,B|192:144|152:256,1,180,0|8
216,296,36725,6,0,B|256:344,2,45,0|0|0
136,264,37476,2,0,B|160:208|232:216,1,89.9999999999999,0|8
256,144,38226,1,0
306,215,38601,6,0,B|352:216|376:264,1,89.9999999999999,0|0
296,296,39351,1,8
224,248,39727,2,0,B|192:216,2,45
256,120,40664,1,0
256,120,40852,2,0,B|368:120|304:192|416:192,1,180,8|2
440,280,41978,1,2
376,344,42353,6,0,B|304:368,4,45,2|2|2|0|4
352,256,43492,6,0,B|360:192|296:176,1,89.9999999999999,0|8
264,256,44238,2,0,B|208:224|232:152,1,89.9999999999999
248,96,44983,2,0,B|176:80|144:152,1,89.9999999999999,0|8
165,118,45728,1,0
112,48,46101,6,0,B|48:96|72:192|160:208,1,180,0|8
126,196,47219,1,0
208,232,47592,2,0,B|256:248,2,45,0|2|0
232,144,48337,6,0,B|160:136|136:192,1,89.9999999999999,8|0
208,232,49082,1,0
296,208,49457,2,0,B|304:232|296:256,2,45,0|0|8
328,80,50394,5,0
304,40,50582,1,0
216,40,50957,1,0
192,80,51144,2,0,B|112:96|104:192,1,135
106,172,51894,1,0
106,172,52100,5,4
184,224,52475,1,4
256,176,52850,1,4
328,224,53225,1,4
400,176,53600,1,4
256,64,54350,6,0,B|256:120,2,45,8|0|0
176,104,55121,6,0,B|176:176|248:184,1,89.9999999999999,4|0
304,136,55871,1,8
296,224,56246,1,0
216,264,56621,2,0,B|248:320|304:312,1,89.9999999999999
368,280,57371,1,8
296,224,57746,1,0
360,160,58121,6,0,B|312:120|256:144,1,89.9999999999999
296,224,58871,1,8
208,200,59246,1,0
248,120,59621,2,0,B|176:88|104:144|120:208,1,180,0|8
168,272,60746,6,0,B|120:320,2,45
232,208,61496,1,0
232,208,61683,2,0,B|232:136|312:192|312:112,1,135
256,48,62621,2,0,B|304:8|376:48,2,89.9999999999999,0|0|8
168,80,63746,5,0
192,120,63933,1,0
232,136,64121,1,0
312,88,64496,1,0
392,136,64871,1,8
392,224,65246,1,0
312,272,65621,6,0,B|304:192|216:160|160:208,1,180,0|8
216,280,66746,1,0
128,296,67121,6,0,B|134:345|182:361,1,89.9999999999999,4|0
216,280,67871,1,8
160,208,68246,1,0
248,200,68621,2,0,B|240:128|168:128,1,89.9999999999999
168,48,69371,6,0,B|128:88,1,45,8|0
104,112,69746,2,0,B|64:152,1,45
40,176,70121,2,0,B|16:232|64:304|136:288,1,180,0|8
120,208,71246,1,0
104,128,71621,2,0,B|174:112|224:184|192:248,1,180,0|8
256,304,72746,1,0
344,280,73121,5,4
376,192,73496,1,0
344,104,73871,1,8
256,72,74246,1,0
168,104,74621,5,0
136,192,74996,1,0
168,280,75371,1,8
256,304,75746,1,0
256,192,76121,12,0,78342
256,192,79114,6,0,B|320:192,2,45,4|0|0
256,104,79864,2,0,B|192:104|176:160,1,89.9999999999999,8|0
184,232,80615,2,0,B|184:280,2,45,0|2|0
128,160,81366,2,0,B|80:192|96:256,1,89.9999999999999,8|0
128,320,82117,5,0
176,320,82305,1,2
224,320,82493,1,0
312,320,82868,2,0,B|320:264|264:240,1,89.9999999999999,8|0
192,216,83619,5,0
216,176,83807,1,2
256,160,83995,1,0
344,160,84370,2,0,B|400:160,4,45,8|2|0|2|0
256,192,85496,5,0
168,224,85872,1,8
232,344,86435,1,0
280,344,86623,1,8
256,208,87186,2,0,B|256:160,1,45,0|8
256,192,88125,12,0,91129
