osu file format v9

[General]
AudioFilename: Metamerism(TV size).mp3
AudioLeadIn: 2000
PreviewTime: 54362
Countdown: 0
SampleSet: Soft
StackLeniency: 0.5
Mode: 0
LetterboxInBreaks: 1

[Editor]
Bookmarks: 1112,13111,19111,43111,55111,79110
DistanceSpacing: 1
BeatDivisor: 4
GridSize: 8

[Metadata]
Title:Metamerism (TV Size)
Artist:Itou Kanae
Creator:Joshua Lost
Version:Hard
Source:Shinryaku! Ika Musume
Tags:Muya kanpakyin Invasion! Squid Girl

[Difficulty]
HPDrainRate:7
CircleSize:4
OverallDifficulty:7
ApproachRate:7
SliderMultiplier:0.8
SliderTickRate:1

[Events]
//Background and Video events
0,0,"BG1.jpg"
//Break Periods
//Storyboard Layer 0 (Background)
//Storyboard Layer 1 (Fail)
//Storyboard Layer 2 (Pass)
//Storyboard Layer 3 (Foreground)
//Storyboard Sound Samples
//Background Colour Transformations
3,100,17,166,255

[TimingPoints]
1104,376.104807873127,4,2,1,20,1,0
2232,-100,4,2,1,0,0,0
2984,-100,4,2,1,20,0,0
5617,-100,4,2,1,0,0,0
6737,-100,4,2,1,30,0,0
7111,375,4,2,1,30,1,0
11635,375.234521575985,4,2,1,30,1,0
12755,-100,4,2,1,50,0,0
13124,375,4,2,1,50,1,0
14965,375,4,2,1,50,1,0
16106,375,4,2,1,50,1,0
19093,375.16413430876,4,2,1,50,1,0
20593,-100,4,2,1,0,0,0
20875,-100,4,2,1,50,0,0
32598,-100,4,2,1,0,0,0
32880,-100,4,2,1,50,0,0
43120,372.670807453416,4,2,1,50,1,0
49082,375,4,2,1,50,1,0
51332,-100,4,2,1,0,0,0
51613,-100,4,2,1,50,0,0
52100,375,4,2,1,50,1,0
55121,375,4,2,1,50,1,1
55121,-100,4,2,1,50,0,1
77592,375,4,2,1,50,1,1
79114,375.469336670839,4,2,1,50,1,0
79114,-100,4,2,1,50,0,0
88496,-100,4,2,1,30,0,0
89247,-100,4,2,1,20,0,0
89998,-100,4,2,1,10,0,0
90749,-100,4,2,1,0,0,0

[Colours]
Combo1 : 169,162,255
Combo2 : 149,191,255
Combo3 : 155,238,255

[HitObjects]
256,104,727,1,0
256,104,1103,2,0,B|200:96|168:128,1,80
179,118,1668,1,0
112,80,2044,2,0,B|80:152|144:192,1,120
264,288,3360,5,0
304,272,3548,1,0
336,248,3736,1,0
360,216,3924,1,0
368,176,4112,2,0,B|328:176|296:144,1,80
296,144,4676,1,0
224,168,5053,1,0
160,120,5429,2,0,B|120:192|176:264|256:240,1,200
256,80,7111,5,0
336,104,7486,1,0
400,152,7861,1,0
432,224,8236,1,0
400,296,8611,2,0,B|368:336|320:336,1,80
320,256,9361,2,0,B|272:280|232:256,1,80
256,192,10111,12,0,12385
120,128,13124,6,0,B|184:64,1,80,4|0
216,144,13874,2,0,B|152:208,1,80,8|0
232,240,14624,2,0,B|296:304,1,80
360,256,15340,2,0,B|296:192,1,80,8|0
328,120,16106,6,0,B|264:112|240:144,2,80,0|0|8
408,144,17231,1,0
480,184,17606,2,0,B|448:232|400:224,1,80
415,225,18168,1,0
400,184,18356,1,8
368,160,18543,1,0
328,152,18731,1,0
256,192,19093,5,4
184,152,19468,1,0
144,136,19655,1,0
104,144,19843,1,8
72,168,20030,1,0
56,200,20218,1,0
56,240,20406,2,0,B|128:232|144:304,1,120
143,302,21156,1,0
64,320,21531,1,0
88,240,21906,2,0,B|120:208|168:224,1,80
161,222,22469,1,0
200,296,22844,6,0,B|248:264|240:216,1,80,8|0
184,168,23594,2,0,B|224:144,2,40,0|0|0
184,88,24345,2,0,B|149:107,2,40,8|0|0
256,128,25095,5,0
328,88,25470,2,0,B|368:112,2,40,0|0|8
392,192,26408,1,0
376,232,26596,1,0
352,264,26783,1,0
320,288,26971,1,0
280,304,27159,1,0
240,304,27346,1,8
200,288,27534,1,0
168,264,27721,1,0
144,232,27909,1,0
128,192,28096,6,0,B|112:144|152:104,1,80
208,168,28847,2,0,B|240:136|224:88,1,80,8|0
200,16,29597,2,0,B|152:32|144:80,1,80
80,120,30347,2,0,B|88:144|120:144,2,40,8|0|0
48,192,31098,5,0
48,272,31473,1,0
88,264,31660,1,0
120,240,31848,1,8
128,200,32036,1,0
128,120,32411,2,0,B|200:128|208:200,1,120
207,195,33161,1,0
207,195,33349,1,8
256,256,33724,1,0
304,192,34099,6,0,B|344:224|336:280,2,80,0|0|8
304,192,35225,1,0
368,144,35600,2,0,B|312:88|240:120|232:176,1,160,0|8
168,128,36725,5,0
160,168,36913,1,0
176,208,37100,1,0
256,232,37476,1,0
256,232,37663,2,0,B|304:232,1,40,0|8
256,344,38413,6,0,B|208:344,1,40
64,280,38976,1,0
64,120,39351,1,8
192,24,39727,1,0
256,72,39914,1,2
320,24,40102,1,0
256,256,40664,1,0
256,256,40852,2,0,B|296:184|216:184|256:104,1,160,8|2
216,40,41978,5,2
296,40,42353,1,8
336,48,42540,1,2
368,72,42728,1,2
392,104,42915,1,0
400,144,43120,5,4
400,224,43492,1,0
368,248,43679,1,0
336,224,43865,1,8
304,248,44051,1,0
272,224,44238,1,0
240,248,44424,1,0
208,224,44610,6,0,B|160:200|120:208,1,80
128,168,45169,2,0,B|80:200|40:168,1,80
80,104,45915,2,0,B|120:72|168:96,1,80
155,90,46474,1,0
224,48,46846,2,0,B|256:96|216:136,1,80,8|0
184,192,47592,2,0,B|232:224|272:184,1,80
256,120,48337,6,0,B|312:120|328:168,1,80,8|0
368,88,49082,2,0,B|400:120|400:160,1,80
399,159,49644,1,0
399,159,49832,1,8
312,248,50394,5,0
296,288,50582,1,0
216,288,50957,1,0
200,248,51144,2,0,B|248:224|256:144,1,120
255,147,51894,1,0
255,147,52100,5,4
176,144,52475,1,4
336,144,52850,1,4
96,144,53225,1,4
416,144,53600,1,4
256,192,54350,5,8
256,192,54537,1,0
256,192,54725,1,0
272,72,55121,6,0,B|208:56|152:96|152:160,1,160,4|8
152,264,56246,1,0
256,328,56621,1,0
312,328,56808,1,2
368,304,56996,1,0
456,216,57371,2,0,B|432:176|376:184,1,80,2|0
328,80,58121,6,0,B|272:88|240:160|264:208,1,160,0|8
384,184,59246,1,0
296,264,59621,2,0,B|256:304,2,40,0|2|0
416,264,60371,2,0,B|416:320|376:344,1,80,2|0
296,264,61121,6,0,B|336:192|264:120,1,160,0|8
264,120,62246,1,0
184,216,62621,1,0
128,224,62808,1,2
80,256,62996,1,0
144,352,63371,1,8
200,344,63558,1,0
248,312,63746,1,0
256,192,64121,5,2
392,112,64496,1,0
392,272,64871,1,8
256,192,65246,1,2
112,120,65621,2,0,B|48:192|112:264,1,160,0|8
256,192,66746,1,0
256,72,67121,6,0,B|320:64|368:96|376:168,1,160,4|8
373,153,68246,1,0
376,272,68621,2,0,B|376:320,2,40,0|2|0
256,272,69371,5,8
216,224,69558,1,0
256,176,69746,1,0
216,128,69933,1,0
256,80,70121,1,0
136,80,70496,2,0,B|96:112|128:168,1,80,0|8
120,151,71246,1,0
56,256,71621,2,0,B|88:296|144:272,2,80,0|0|8
168,40,73121,6,0,B|264:40,1,80
296,192,73871,2,0,B|200:192,1,80,8|0
264,344,74621,2,0,B|344:344,1,80
296,192,75371,2,0,B|376:192,1,80,8|0
336,40,76121,5,0
256,40,76308,1,2
296,112,76496,1,0
216,112,76683,1,0
176,40,76871,1,8
256,184,77246,1,0
336,328,77592,1,0
296,256,77779,1,2
216,256,77967,1,0
376,256,78342,5,8
336,328,78529,1,2
256,328,78717,1,0
176,328,78904,1,2
136,256,79114,6,0,B|144:184|224:168|256:192,1,160,4|8
254,191,80240,1,0
254,191,80615,2,0,B|285:168|365:184|373:256,1,160,0|8
296,256,81742,1,0
216,256,82117,6,0,B|223:327|296:344|334:320,1,160,0|8
296,256,83244,1,0
296,176,83619,1,0
256,160,83807,1,2
216,176,83995,1,0
184,104,84370,1,8
216,80,84558,1,2
256,72,84746,1,0
296,80,84933,1,0
328,104,85121,6,0,B|360:144|328:176,1,80,0|0
256,216,85872,2,0,B|224:184|256:144,1,80,8|0
296,72,86623,2,0,B|344:72,2,40,8|0|0
216,72,87374,2,0,B|160:72,2,40,8|0|0
256,192,88125,12,0,91129
