osu file format v9

[General]
AudioFilename: Metamerism(TV size).mp3
AudioLeadIn: 2000
PreviewTime: 54362
Countdown: 0
SampleSet: Soft
StackLeniency: 0.5
Mode: 0
LetterboxInBreaks: 1

[Editor]
Bookmarks: 1112,13111,19111,43111,55111,79110
DistanceSpacing: 1
BeatDivisor: 1
GridSize: 8

[Metadata]
Title:Metamerism (TV Size)
Artist:Itou Kanae
Creator:Joshua Lost
Version:Easy
Source:Shinryaku! Ika Musume
Tags:Muya kanpakyin Invasion! Squid Girl

[Difficulty]
HPDrainRate:2
CircleSize:3
OverallDifficulty:3
ApproachRate:3
SliderMultiplier:0.5
SliderTickRate:1

[Events]
//Background and Video events
0,0,"BG1.jpg"
//Break Periods
2,13324,17653
//Storyboard Layer 0 (Background)
//Storyboard Layer 1 (Fail)
//Storyboard Layer 2 (Pass)
//Storyboard Layer 3 (Foreground)
//Storyboard Sound Samples
//Background Colour Transformations
3,100,17,166,255

[TimingPoints]
1104,376.104807873127,4,2,1,20,1,0
6737,-100,4,2,1,30,0,0
7111,375,4,2,1,30,1,0
11635,375.234521575985,4,2,1,30,1,0
13124,375,4,2,1,30,1,0
14965,375,4,2,1,30,1,0
16106,375,4,2,1,30,1,0
18358,-100,4,2,1,50,0,0
19093,375.16413430876,4,2,1,50,1,0
43120,372.670807453416,4,2,1,50,1,0
49082,375,4,2,1,50,1,0
52100,375,4,2,1,50,1,0
55121,375,4,2,1,50,1,1
55121,-100,4,2,1,50,0,1
77592,375,4,2,1,50,1,1
79114,375.469336670839,4,2,1,50,1,0
79114,-100,4,2,1,50,0,0
88496,-100,4,2,1,30,0,0
89247,-100,4,2,1,20,0,0
89998,-100,4,2,1,10,0,0
90749,-100,4,2,1,0,0,0

[Colours]
Combo1 : 169,162,255
Combo2 : 149,191,255
Combo3 : 155,238,255

[HitObjects]
152,96,1104,2,0,B|104:192|152:288,1,200
256,288,3360,1,0
352,288,4112,2,0,B|400:191|352:95,1,200
256,96,6369,1,0
160,96,7111,6,0,B|160:168|240:192,1,100
304,176,8611,2,0,B|352:152|352:96,1,100
256,192,10111,12,4,13124
256,64,19093,6,0,B|192:64|136:112,1,100,0|8
248,144,20593,2,0,B|176:176|176:248,1,100,0|8
280,224,22094,2,0,B|240:288|288:360,1,100,0|8
360,280,23594,2,0,B|424:280|464:208,2,100,0|8|0
360,176,25845,5,8
376,80,26596,2,0,B|296:72|264:152,1,100,0|8
200,64,28096,2,0,B|168:120|208:192,1,100,0|8
144,248,29597,2,0,B|224:272|280:224,2,100,0|8|0
64,192,31848,5,8
144,136,32598,2,0,B|224:112|280:160,1,100,0|8
336,88,34099,2,0,B|360:152|328:208,1,100,0|8
416,248,35600,2,0,B|368:304|280:280,1,100,0|8
224,288,37100,5,0
168,208,37851,1,8
192,112,38601,1,0
288,72,39351,1,8
256,192,40102,12,8,42353
256,104,43120,6,0,B|336:72|392:128,1,100,4|8
440,48,44610,2,0,B|488:112|416:176,1,100,0|8
352,160,46101,2,0,B|360:240|456:240,3,100,0|8|0|8
368,328,49082,6,0,B|328:248|248:264,1,100,0|8
208,216,50582,2,0,B|296:176|288:104,1,100,0|8
256,192,52100,12,0,54350
176,88,55121,6,0,B|240:48|312:80,1,100,4|8
240,160,56621,1,0
336,144,57371,1,8
400,64,58121,6,0,B|472:112|424:192|424:192,1,100,0|8
424,248,59621,1,0
344,184,60371,1,8
376,88,61121,6,0,B|272:88|256:152,1,100,0|8
344,184,62621,2,0,B|280:224|208:200,1,100,0|8
280,112,64121,5,0
184,88,64871,1,8
88,128,65621,1,0
48,224,66371,1,8
144,216,67121,6,0,B|144:296|224:328,1,100,4|8
248,224,68621,1,0
208,128,69371,1,8
128,64,70121,6,0,B|176:8|256:40,1,100,0|8
208,128,71621,1,0
304,104,72371,1,8
336,200,73121,5,0
240,224,73871,1,8
208,128,74621,1,0
112,160,75371,1,8
256,192,76121,12,0,78342
160,96,79114,6,0,B|256:40|352:96,1,200,4|0
352,192,81366,1,8
352,288,82117,6,0,B|256:344|160:288,1,200
160,192,84370,1,8
160,96,85121,6,0,B|272:96,1,100,0|8
360,96,86623,2,0,B|232:96,1,100,8|8
256,192,88125,12,0,91129
