osu file format v9

[General]
AudioFilename: CW.mp3
AudioLeadIn: 0
PreviewTime: 75625
Countdown: 0
SampleSet: Normal
StackLeniency: 0.5
Mode: 0
LetterboxInBreaks: 1

[Editor]
Bookmarks: 119013,125299
DistanceSpacing: 0.8
BeatDivisor: 4
GridSize: 8

[Metadata]
Title:Kimi ga Ireba
Artist:Itou Kanae
Creator:frost-b-spec
Version:Insane
Source:
Tags:samiljul 31 jojo joshua lost metamerism

[Difficulty]
HPDrainRate:7
CircleSize:4
OverallDifficulty:7
ApproachRate:7
SliderMultiplier:2.5
SliderTickRate:2

[Events]
//Background and Video events
0,0,"kanae.jpg"
//Break Periods
//Storyboard Layer 0 (Background)
//Storyboard Layer 1 (Fail)
//Storyboard Layer 2 (Pass)
//Storyboard Layer 3 (Foreground)
//Storyboard Sound Samples
//Background Colour Transformations
3,100,0,255,255

[TimingPoints]
768,571.428571428571,4,1,0,60,1,0
76196,-100,4,1,0,60,0,1
115053,-100,4,1,0,60,0,0
117910,-100,4,1,0,50,0,0
118482,-100,4,1,0,40,0,0
119053,-100,4,1,0,30,0,0
119625,-100,4,1,0,20,0,0
120196,-100,4,1,0,10,0,0
120767,-100,4,1,0,5,0,0

[Colours]
Combo1 : 255,128,255
Combo2 : 128,255,255
Combo3 : 128,255,128
Combo4 : 255,255,128

[HitObjects]
376,56,20767,2,0,B|440:80|456:144,1,125,0|2
424,240,21339,1,0
328,272,21625,1,8
248,336,21910,1,0
152,320,22196,2,0,B|128:256|64:232,2,125,0|0|2
168,224,23053,6,0,B|144:160|80:136,2,125,0|0|0
264,240,23910,1,2
352,200,24196,1,0
400,112,24482,1,0
400,112,24625,2,0,B|304:136|240:40,1,187.5,0|8
248,144,25339,6,0,B|184:136|128:168,1,125,0|2
80,80,25910,2,0,B|16:192|80:320,1,250,0|0
192,336,26767,1,10
296,336,27053,2,0,B|432:336,1,125,0|2
504,280,27625,2,0,B|328:280,1,125,0|2
296,224,28196,6,0,B|424:224,2,125,0|0|8
192,224,29053,1,0
192,224,29196,2,0,B|96:224|48:120,1,187.5,0|2
256,64,29910,5,0
256,64,30053,1,0
256,64,30196,1,8
256,168,30482,2,0,B|256:304,1,125,4|2
352,296,31053,2,0,B|400:352,2,62.5,0|0|8
368,200,31625,1,0
384,168,31767,1,0
384,128,31910,1,2
320,48,32196,2,0,B|408:48,2,62.5,0|0|8
216,48,32767,6,0,B|152:56|96:96,1,125,0|2
56,184,33339,1,0
128,256,33625,1,0
128,256,33767,2,0,B|224:264|304:320,1,187.5,0|8
384,256,34482,5,0
400,224,34625,1,0
416,192,34767,1,2
400,160,34910,1,0
384,128,35053,1,8
304,192,35339,2,0,B|168:192,1,125,0|2
80,160,35910,1,0
80,160,36053,2,0,B|280:160,1,187.5,0|8
360,120,36767,2,0,B|200:120,1,125,0|2
136,88,37339,5,0
104,112,37482,1,0
88,144,37625,1,8
72,176,37767,1,0
64,216,37910,1,2
88,312,38196,1,0
88,312,38339,2,0,B|152:240|248:216,1,187.5,0|4
256,64,39053,5,0
296,72,39196,1,0
328,88,39339,1,2
352,112,39482,1,0
376,144,39625,2,0,B|416:192|432:264,1,125,4|8
328,256,40196,6,0,B|264:272|224:328,1,125,0|2
128,304,40767,2,0,B|184:280|224:224,1,125,0|8
128,208,41339,1,0
96,192,41482,1,0
72,168,41625,1,2
168,120,41910,6,0,B|232:96|264:40,1,125,0|8
272,136,42482,2,0,B|320:88|384:72,1,125,0|2
464,120,43053,1,0
448,152,43196,1,0
416,176,43339,1,8
384,272,43625,2,0,B|416:280|440:256,2,62.5,0|0|2
288,288,44196,6,0,B|288:144,1,125,0|8
208,104,44768,2,0,B|208:40,2,62.5,0|0|2
208,144,45196,2,0,B|208:336,1,187.5,0|8
208,331,45910,1,0
128,272,46196,6,0,B|104:208|56:168,1,125,0|2
128,96,46768,2,0,B|192:88|248:48,1,125,0|2
344,48,47339,2,0,B|344:120|400:152,1,125,0|8
312,200,47910,1,0
240,136,48196,6,0,B|184:104|120:136,1,125,0|2
72,224,48768,2,0,B|136:240|176:296,1,125,4|8
256,352,49339,2,0,B|256:280,2,62.5,0|0|2
352,344,49910,5,0
384,336,50053,1,0
416,320,50196,5,8
328,272,50482,1,0
328,272,50768,1,2
224,272,51053,5,0
384,184,51339,1,8
168,184,51625,1,0
272,104,51910,1,2
272,104,52053,1,4
408,32,52482,1,0
368,120,52767,1,2
272,104,53053,5,0
176,112,53339,2,0,B|120:80,2,62.5,0|0|8
160,208,53910,1,0
216,296,54196,1,2
312,312,54482,1,0
344,296,54625,1,0
368,272,54768,1,8
424,192,55053,2,0,B|504:192,2,62.5,4|0|2
376,104,55625,5,0
296,40,55910,1,8
192,40,56196,1,0
112,104,56482,1,2
56,192,56768,1,4
208,320,57339,6,0,B|136:320|120:248,1,125,0|8
208,192,57910,2,0,B|272:192,2,62.5,4|0|2
272,112,58482,1,0
336,192,58768,1,8
360,224,58910,1,0
392,248,59053,1,0
480,296,59339,1,2
512,200,59625,6,0,B|456:168|448:96,1,125,0|8
360,48,60196,1,0
328,72,60339,1,0
296,88,60482,1,2
256,184,60768,2,0,B|216:136|200:72,1,125,0|8
104,48,61339,2,0,B|16:48,2,62.5,0|0|4
112,144,61910,5,0
64,232,62196,1,8
160,272,62482,2,0,B|104:288|56:344,2,125,4|0|2
256,232,63339,1,0
296,240,63482,1,0
320,272,63625,1,8
400,328,63910,6,0,B|400:192,1,125,0|2
424,304,64482,2,0,B|424:136,1,125,0|8
456,272,65053,2,0,B|456:120,1,125,0|2
416,56,65625,1,0
416,56,65768,2,0,B|344:40|312:96|232:48,1,187.5,0|8
136,64,66482,1,0
72,144,66768,1,4
64,240,67053,6,0,B|104:312|168:280,1,125,4|0
248,344,67625,2,0,B|304:312|280:232,1,125,4|0
256,192,68053,2,0,B|192:112|248:16,1,187.5,4|0
336,72,68768,1,8
424,120,69053,1,0
472,208,69339,6,0,B|424:240|392:304,1,125,4|0
296,336,69910,1,4
256,320,70053,1,0
224,304,70196,1,2
192,288,70339,2,0,B|112:240|64:152,1,187.5,0|8
152,96,71053,6,0,B|104:48|40:48,2,125,0|0|4
232,152,71910,1,0
312,208,72196,1,2
376,288,72482,1,0
440,368,72768,1,8
376,288,73053,1,0
312,208,73339,1,2
232,152,73625,1,0
152,96,73910,5,8
248,72,74196,1,0
344,96,74482,1,0
344,96,74625,1,2
248,216,74910,1,2
291,279,75196,1,8
328,296,75339,1,0
364,308,75482,1,0
400,312,75625,5,0
496,344,75910,1,4
464,248,76196,6,0,B|416:216|408:136,1,125,4|8
312,112,76768,2,0,B|248:136|184:112,1,125,0|2
136,192,77339,2,0,B|176:240|152:312,1,125,0|8
72,248,77910,2,0,B|32:200|56:128,1,125,0|2
144,72,78482,6,0,B|296:72,1,125,0|8
304,72,78910,1,0
344,80,79053,1,0
376,96,79196,1,2
408,112,79339,1,0
440,136,79482,1,0
464,168,79625,1,4
456,264,79910,5,0
368,304,80196,1,8
272,328,80482,1,0
176,336,80768,2,0,B|16:336|16:184,1,250,0|8
24,152,81482,1,0
40,120,81625,1,2
144,80,81910,5,0
368,80,82196,1,8
368,304,82482,1,0
144,304,82768,1,2
256,32,83053,5,0
416,192,83339,1,8
256,336,83625,1,0
112,192,83910,1,8
112,192,84053,2,0,B|304:192,1,187.5,4|2
400,192,84768,1,0
464,328,85053,5,0
440,296,85196,1,0
408,272,85339,1,12
312,232,85625,1,0
216,192,85910,1,2
112,192,86196,2,0,B|56:168,2,62.5,0|0|8
216,192,86768,2,0,B|272:168,2,62.5,0|0|2
160,280,87339,5,0
248,336,87625,1,8
328,272,87910,1,0
344,240,88053,1,0
352,200,88196,1,2
368,104,88482,1,0
368,104,88625,2,0,B|304:72|256:160|192:96,1,187.5,4|8
40,216,89625,6,0,B|32:288|64:336,1,125,0|2
120,248,90196,2,0,B|152:304|216:328,1,125,0|8
248,232,90768,1,0
248,232,90910,2,0,B|352:272|416:192,1,187.5,0|2
416,191,91625,1,0
416,191,91768,1,8
416,191,91910,5,0
256,80,92196,1,0
104,192,92482,1,0
256,304,92768,1,2
416,192,93053,1,0
416,192,93196,2,0,B|200:192,1,187.5,0|8
152,128,93910,6,0,B|88:96|56:48,2,125,0|0|6
184,144,94625,1,0
216,152,94768,1,0
248,168,94910,1,8
272,192,95053,1,0
288,224,95196,1,0
302,261,95339,1,2
320,296,95482,1,0
352,312,95625,1,4
424,248,95910,6,0,B|464:192|464:128,1,125,0|8
408,48,96482,2,0,B|368:104|368:168,1,125,0|2
368,264,97053,1,0
352,296,97196,1,0
328,328,97339,1,8
256,256,97625,1,0
256,256,97768,1,2
104,272,98196,6,0,B|104:304|88:336,2,62.5,0|0|8
104,232,98625,1,0
96,200,98768,1,8
80,168,98910,1,0
48,144,99053,1,2
136,88,99339,1,0
232,56,99625,1,8
328,40,99910,5,0
360,64,100053,1,0
392,72,100196,1,2
464,136,100482,1,0
448,232,100768,1,0
416,248,100910,1,0
392,280,101053,1,8
296,264,101339,6,0,B|296:344|352:368,2,125,0|0|2
296,160,102196,1,0
296,160,102339,2,0,B|192:176|200:296,1,187.5,0|8
128,368,103053,1,0
32,352,103339,6,0,B|0:296|8:232,1,125,4|2
104,264,103910,2,0,B|72:216|80:144,1,125,0|8
176,184,104482,2,0,B|144:128|160:64,1,125,0|2
256,40,105053,1,0
264,80,105196,1,0
272,120,105339,1,8
344,192,105625,1,0
440,192,105910,6,0,B|512:192,2,62.5,0|0|2
392,280,106482,2,0,B|392:360,2,62.5,0|0|8
296,248,107053,1,0
200,272,107339,1,2
152,360,107625,1,2
80,288,107910,6,0,B|112:240|112:168,1,125,0|8
112,72,108482,1,0
208,88,108768,2,0,B|264:136|320:88,1,125,0|2
320,87,109196,1,0
464,56,109625,1,0
488,88,109768,1,0
496,128,109910,1,8
488,224,110196,5,0
464,256,110339,1,0
440,280,110482,1,2
376,320,110768,1,0
296,336,111053,1,0
256,336,111196,1,0
216,336,111339,1,2
136,320,111625,1,0
104,304,111768,1,8
72,280,111910,1,0
48,256,112053,1,0
24,224,112196,1,2
256,56,112768,6,0,B|256:208,1,125,4|8
400,192,113339,2,0,B|248:192,1,125,0|2
256,328,113910,2,0,B|256:184,1,125,0|8
112,192,114482,2,0,B|248:192,1,125,0|2
256,56,115053,1,4
152,280,115910,6,0,B|152:360,2,62.5,0|0|8
232,216,116482,1,0
256,192,116625,1,0
280,168,116768,1,8
352,104,117053,1,0
352,64,117196,1,0
256,192,117339,12,0,120767
