osu file format v9

[General]
AudioFilename: CW.mp3
AudioLeadIn: 0
PreviewTime: 75625
Countdown: 0
SampleSet: Normal
StackLeniency: 0.5
Mode: 0
LetterboxInBreaks: 1

[Editor]
Bookmarks: 40727,119013,125299
DistanceSpacing: 0.8
BeatDivisor: 2
GridSize: 8

[Metadata]
Title:Kimi ga Ireba
Artist:Itou Kanae
Creator:frost-b-spec
Version:Easy
Source:
Tags:samiljul 31 jojo joshua lost metamerism

[Difficulty]
HPDrainRate:2
CircleSize:3
OverallDifficulty:2
ApproachRate:2
SliderMultiplier:1.2
SliderTickRate:1

[Events]
//Background and Video events
0,0,"kanae.jpg"
//Break Periods
//Storyboard Layer 0 (Background)
//Storyboard Layer 1 (Fail)
//Storyboard Layer 2 (Pass)
//Storyboard Layer 3 (Foreground)
//Storyboard Sound Samples
//Background Colour Transformations
3,100,0,255,255

[TimingPoints]
768,571.428571428571,4,1,0,60,1,0
76196,-100,4,1,0,60,0,1
115053,-100,4,1,0,60,0,0
117910,-100,4,1,0,50,0,0
118482,-100,4,1,0,40,0,0
119053,-100,4,1,0,30,0,0
119625,-100,4,1,0,20,0,0
120196,-100,4,1,0,10,0,0
120767,-100,4,1,0,5,0,0

[Colours]
Combo1 : 255,128,255
Combo2 : 128,255,255
Combo3 : 128,255,128
Combo4 : 255,255,128

[HitObjects]
256,288,20767,1,0
176,240,21339,2,0,B|112:224|96:152,2,120,0|0|2
256,192,23053,1,0
336,144,23625,2,0,B|400:160|416:232,2,120,0|0|2
256,96,25339,1,0
160,72,25910,6,0,B|104:192|160:304,1,240,0|0
256,280,27625,1,0
352,304,28196,2,0,B|408:184|352:72,1,240
256,72,29910,1,4
256,168,30482,5,8
64,192,31625,1,0
256,224,32767,1,2
448,192,33910,1,8
256,192,35053,12,4,38339
90,255,39625,6,0,B|112:192|184:192,1,120
256,128,40767,2,0,B|256:56|192:32,2,120,0|0|2
328,192,42482,2,0,B|392:192|424:128,2,120,0|0|8
256,256,44196,6,0,B|256:336|312:352,2,120,0|0|2
256,160,45910,1,0
176,104,46482,2,0,B|104:104|88:40,2,120,0|0|8
256,56,48196,1,0
336,104,48767,6,0,B|407:102|422:38,2,120,0|0|8
256,152,50482,1,0
288,240,51053,2,0,B|440:240,2,120,0|0|8
256,328,52768,2,0,B|112:328,2,120,0|0|2
224,240,54482,2,0,B|104:240,2,120,0|0|8
320,264,56196,2,0,B|472:264,2,120,0|0|2
256,192,57910,5,4
160,192,58482,2,0,B|88:192|64:256,2,120,0|0|8
256,192,60196,1,0
352,192,60768,2,0,B|424:192|448:128,2,120,0|0|2
352,288,62482,1,4
160,288,63625,6,0,B|88:288|56:240,2,120,0|0|8
160,192,65339,1,0
160,96,65910,2,0,B|88:96|56:144,2,120,0|0|4
256,96,67625,2,0,B|360:96,1,90,0|4
472,272,69339,5,0
472,176,69910,2,0,B|384:136,1,90
360,256,71053,1,0
344,352,71625,1,4
152,352,72768,6,0,B|32:352,2,120,0|0|2
232,296,74482,2,0,B|264:192,1,90
64,192,76196,6,0,B|64:32|200:24,2,240,0|0|2
256,192,79625,1,8
448,192,80768,2,0,B|448:352|312:360,2,240,0|0|2
352,192,83625,1,0
256,192,84196,1,8
64,192,85339,5,4
208,320,86482,2,0,B|80:320,2,120,0|0|2
304,320,88196,2,0,B|472:320,2,120,0|0|8
256,232,89910,5,0
256,136,90482,2,0,B|256:16,2,120,0|0|2
336,192,92196,1,0
432,192,92768,2,0,B|424:128|368:96,2,120,0|0|8
384,280,94482,6,0,B|312:336|232:208|160:280,1,240,4|2
152,88,96768,2,0,B|224:15|304:143|376:87,1,240,0|8
256,240,99053,1,2
64,240,100196,2,0,B|64:320|120:336,2,120,0|0|8
64,144,101910,2,0,B|64:64|120:48,2,120,0|0|8
144,192,103625,5,4
336,192,104768,2,0,B|200:192,2,120,0|0|8
432,192,106482,2,0,B|432:360,2,120,0|0|2
432,96,108196,5,4
256,168,109339,1,8
80,96,110482,1,2
256,168,111625,2,0,B|256:304,2,120,4|0|0
256,192,112910,12,4,115053
256,192,116196,5,0
256,192,116768,1,2
256,192,117339,12,0,120767
