osu file format v10

[General]
AudioFilename: konekone.mp3
AudioLeadIn: 2000
PreviewTime: 54876
Countdown: 0
SampleSet: Normal
StackLeniency: 0.7
Mode: 0
LetterboxInBreaks: 0

[Editor]
Bookmarks: 9760
DistanceSpacing: 1
BeatDivisor: 6
GridSize: 4

[Metadata]
Title:Fuwaffuwa no Mahou (TV Size)
TitleUnicode:Fuwaffuwa no Mahou (TV Size)
Artist:Itou Kanae & Aizawa Mai & Mikami Shiori
ArtistUnicode:Itou Kanae & Aizawa Mai & Mikami Shiori
Creator:kosiga
Version:Neris
Source:Shining Hearts ~ Shiawase no Pan ~
Tags:ending hyadain maeyamada kennichi tony sega Neris Filiam Amil Manaflare Airy Ardet
BeatmapID:153305
BeatmapSetID:49256

[Difficulty]
HPDrainRate:3
CircleSize:3
OverallDifficulty:4
ApproachRate:4
SliderMultiplier:1.1
SliderTickRate:1

[Events]
//Background and Video events
Video,0,"konekone.avi"
0,0,"Neris.jpg"
//Break Periods
//Storyboard Layer 0 (Background)
//Storyboard Layer 1 (Fail)
//Storyboard Layer 2 (Pass)
//Storyboard Layer 3 (Foreground)
//Storyboard Sound Samples
//Background Colour Transformations
3,100,163,162,255

[TimingPoints]
530,461.538461538462,4,1,1,60,1,0
5760,-100,4,1,1,70,0,0
6376,-100,4,1,1,5,0,0
6530,-100,4,1,1,70,0,0
11530,-100,4,1,1,50,0,0
11991,-100,4,1,1,70,0,0
13914,-100,4,1,1,20,0,0
14376,-100,4,1,1,70,0,0
22145,-100,4,1,2,40,0,0
22530,-100,4,1,1,70,0,0
28683,-100,4,1,1,20,0,0
29606,-100,4,1,1,70,0,0
31376,-100,4,2,2,40,0,0
31760,-100,4,1,1,70,0,0
33222,-100,4,1,2,40,0,0
33606,-100,4,1,1,40,0,0
35145,-100,4,1,1,20,0,0
35760,-100,4,1,1,70,0,0
36376,-100,4,1,1,5,0,0
36530,-100,4,1,1,70,0,0
37914,-100,4,2,1,20,0,0
38530,-100,4,1,1,70,0,0
39760,-100,4,2,1,20,0,0
40376,-100,4,1,1,70,0,0
41606,-100,4,1,1,20,0,0
42068,-100,4,1,1,70,0,0
45299,-100,4,2,1,20,0,0
45914,-100,4,1,1,70,0,0
47145,-100,4,1,1,20,0,0
47606,-100,4,1,1,50,0,0
48453,-100,4,1,1,70,0,0
52222,-100,4,1,1,40,0,0
54530,-100,4,2,2,40,0,0
55914,-100,4,1,1,80,0,1
63760,-100,4,1,1,40,0,1
64222,-100,4,1,1,80,0,1
65606,-100,4,1,1,40,0,1
66068,-100,4,1,1,80,0,1
66991,-100,4,1,1,50,0,1
69760,-100,4,1,1,60,0,0
70683,-100,4,1,1,80,0,1
76683,-100,4,1,1,40,0,1
77145,-100,4,1,1,80,0,1
77606,-100,4,1,1,40,0,0
78068,-100,4,2,1,20,0,0
78376,-100,4,1,1,70,0,0
81145,-100,4,1,1,60,0,0
81606,-100,4,1,1,70,0,0
84068,-100,4,1,1,30,0,0
85453,-100,4,1,1,50,0,0
86376,-100,4,1,1,5,0,0
86683,-100,4,1,2,30,0,0
87145,-100,4,1,1,50,0,0
87606,-100,4,1,1,40,0,0
88068,-100,4,1,1,30,0,0
88530,-100,4,1,1,20,0,0
88683,-100,4,1,1,10,0,0

[Colours]
Combo1 : 251,43,43
Combo2 : 34,251,34
Combo3 : 31,31,250

[HitObjects]
256,104,530,2,0,B|308:76|360:104,1,110
416,200,1453,2,0,B|364:228|312:200,1,110
256,104,2376,2,0,B|204:76|152:104,1,110
96,200,3299,2,0,B|148:228|200:200,1,110
256,104,4222,1,0,0:0:0
256,104,5914,6,0,B|268:140|256:176|244:216|256:248,1,146.666666666667,4|0,0:0|0:0,0:0:0
328,332,6991,1,4,0:0:0
432,296,7453,1,0,0:0:0
468,192,7914,6,0,B|486:135|449:89,1,110,0|8,0:0|0:0,0:0:0
340,88,8837,2,0,B|302:135|321:191,1,110,0|8,0:0|0:0,0:0:0
340,300,9760,2,0,B|392:328|444:300,2,110,0|8|0,0:0|0:0|0:0,0:0:0
304,196,11145,5,8,0:0:0
268,92,11606,1,4,0:0:0
172,36,12068,1,8,0:0:0
76,92,12530,1,0,0:0:0
40,196,12991,1,8,0:0:0
76,300,13453,2,0,B|132:332|180:300|232:268|288:300,1,220
388,348,14837,6,0,B|439:316|441:257,1,110,8|0,0:0|0:0,0:0:0
432,148,15760,1,8,0:0:0
364,60,16222,1,0,0:0:0
256,36,16683,1,8,0:0:0
148,60,17145,2,0,B|97:92|95:151,2,110,0|8|0,0:0|0:0|0:0,0:0:0
256,36,18530,1,8,0:0:0
364,60,18991,6,0,B|424:62|455:112,1,110,0|8,0:0|0:0,0:0:0
360,172,19914,2,0,B|378:228|341:275,1,110,0|8,0:0|0:0,0:0:0
256,344,20837,1,0,0:0:0
164,284,21299,1,0,0:0:0
144,176,21760,1,0,0:0:0
60,248,22222,1,2,0:0:0
60,248,22683,6,0,B|60:136,1,110,0|8,0:0|0:0,0:0:0
144,68,23606,2,0,B|188:104|188:104|240:88,1,110,0|8,0:0|0:0,0:0:0
344,56,24530,2,0,B|394:40|394:40|438:76,2,110,0|8|0,0:0|0:0|0:0,0:0:0
256,124,25914,5,8,0:0:0
166,188,26376,1,0,0:0:0
200,293,26837,1,8,0:0:0
311,293,27299,1,0,0:0:0
345,188,27760,1,8,0:0:0
256,124,28222,2,0,B|168:48|89:83|31:144|72:252,1,330,0|8,0:0|0:0,0:0:0
140,336,30068,6,0,B|192:316|192:316|248:316,1,110,0|8,0:0|0:0,0:0:0
336,252,30991,1,0,0:0:0
392,156,31453,1,0,0:0:0
372,48,31914,6,0,B|320:68|320:68|264:68,1,110,0|8,0:0|0:0,0:0:0
176,132,32837,1,0,0:0:0
120,228,33299,1,0,0:0:0
256,192,33760,12,8,35145,0:0:0
256,320,35914,6,0,B|282:345|323:358|362:338|383:308,1,146.666666666667,0|0,0:0|0:0,0:0:0
428,208,36991,1,8,0:0:0
392,104,37453,6,0,B|288:68,2,110,4|0|0,0:0|0:0|0:0,0:0:0
428,208,38837,1,0,0:0:0
368,300,39299,2,0,B|472:336,2,110,4|0|0,0:0|0:0|0:0,0:0:0
308,208,40683,1,0,0:0:0
272,104,41145,6,0,B|240:44|184:32|128:44|96:104,1,220,4|0,0:0|0:0,0:0:0
96,324,42991,2,0,B|144:296|144:296|164:244,1,110,4|0,0:0|0:0,0:0:0
256,184,43914,2,0,B|275:234|275:234|323:262,1,110
380,168,44837,6,0,B|399:118|399:118|447:90,2,110,4|0|0,0:0|0:0|0:0,0:0:0
324,262,46222,1,0,0:0:0
240,332,46683,2,0,B|179:362|126:340|87:298|95:231,1,220,0|4,0:0|0:0,0:0:0
94,121,48068,1,2,0:0:0
172,200,48530,6,0,B|203:250|263:252,1,110,0|8,0:0|0:0,0:0:0
356,192,49453,2,0,B|325:142|265:140,1,110,0|8,0:0|0:0,0:0:0
264,252,50376,2,0,B|233:302|173:304,1,110,0|8,0:0|0:0,0:0:0
172,192,51299,2,0,B|203:142|263:140,1,110,0|8,0:0|0:0,0:0:0
256,192,52222,12,2,54530,0:0:0
384,116,55914,5,4,0:0:0
464,192,56376,1,8,0:0:0
424,296,56837,2,0,B|390:246|330:246,1,110,0|8,0:0|0:0,0:0:0
256,328,57760,5,4,0:0:0
148,308,58222,1,8,0:0:0
220,224,58683,1,0,0:0:0
160,132,59145,1,8,0:0:0
268,128,59606,6,0,B|324:111|342:54,2,110,4|8|0,0:0|0:0|0:0,0:0:0
212,36,60991,1,8,0:0:0
160,132,61453,6,0,B|151:165|120:165|85:168|80:198,1,110,4|8,0:0|0:0,0:0:0
112,304,62376,2,0,B|120:270|151:270|186:267|191:237,1,110,4|8,0:0|0:0,0:0:0
288,184,63299,6,0,B|303:249|354:275|411:278|458:229,1,220,4|0,0:0|0:0,0:0:0
388,144,64683,1,8,0:0:0
288,184,65145,2,0,B|240:233|183:230|132:204|117:139,1,220,4|0,0:0|0:0,0:0:0
220,100,66529,1,8,0:0:0
256,192,66991,12,0,69760,0:0:0
272,252,70683,6,0,B|308:299|367:296,1,110,4|8,0:0|0:0,0:0:0
456,228,71606,2,0,B|420:181|361:184,1,110,0|8,0:0|0:0,0:0:0
272,252,72530,5,4,0:0:0
164,276,72991,1,8,0:0:0
64,228,73453,2,0,B|31:177|54:123,1,110,0|8,0:0|0:0,0:0:0
116,32,74376,5,4,0:0:0
208,92,74837,1,8,0:0:0
316,68,75299,1,0,0:0:0
424,56,75760,1,8,0:0:0
484,148,76222,2,0,B|497:212|462:258|412:285|348:260,2,220,4|0|0,0:0|0:0|0:0,0:0:0
448,44,78530,5,4,0:0:0
352,240,79453,1,0,0:0:0
256,44,80376,1,0,0:0:0
160,240,81299,1,4,0:0:0
92,152,81760,6,0,B|60:108|60:108|68:52,1,110,0|8,0:0|0:0,0:0:0
176,72,82683,2,0,B|208:116|208:116|200:172,1,110,0|8,0:0|0:0,0:0:0
128,252,83606,2,0,B|170:301|228:302|280:279|299:213,2,220,4|0|4,0:0|0:0|0:0,0:0:0
200,172,85914,2,0,B|200:118|236:82|286:76|329:108,1,183.333333333333,0|2,0:0|0:0,0:0:0
256,192,87145,12,0,88683,0:0:0
