osu file format v10

[General]
AudioFilename: konekone.mp3
AudioLeadIn: 2000
PreviewTime: 54876
Countdown: 0
SampleSet: Normal
StackLeniency: 0.7
Mode: 0
LetterboxInBreaks: 0

[Editor]
Bookmarks: 9760
DistanceSpacing: 1
BeatDivisor: 6
GridSize: 4

[Metadata]
Title:Fuwaffuwa no Mahou (TV Size)
TitleUnicode:Fuwaffuwa no Mahou (TV Size)
Artist:Itou Kanae & Aizawa Mai & Mikami Shiori
ArtistUnicode:Itou Kanae & Aizawa Mai & Mikami Shiori
Creator:kosiga
Version:Amil
Source:Shining Hearts ~ Shiawase no Pan ~
Tags:ending hyadain maeyamada kennichi tony sega Neris Filiam Amil Manaflare Airy Ardet
BeatmapID:153304
BeatmapSetID:49256

[Difficulty]
HPDrainRate:5
CircleSize:4
OverallDifficulty:5
ApproachRate:7
SliderMultiplier:1.6
SliderTickRate:1

[Events]
//Background and Video events
Video,0,"konekone.avi"
0,0,"Amil.jpg"
//Break Periods
//Storyboard Layer 0 (Background)
//Storyboard Layer 1 (Fail)
//Storyboard Layer 2 (Pass)
//Storyboard Layer 3 (Foreground)
//Storyboard Sound Samples
//Background Colour Transformations
3,100,163,162,255

[TimingPoints]
530,461.538461538462,4,1,1,60,1,0
5760,-100,4,1,1,70,0,0
11530,-100,4,1,1,50,0,0
11683,-100,4,1,1,70,0,0
22068,-100,4,1,2,40,0,0
22530,-100,4,1,1,70,0,0
31299,-100,4,2,2,40,0,0
31760,-100,4,1,1,70,0,0
33145,-100,4,1,2,40,0,0
33606,-100,4,1,1,70,0,0
35606,-100,4,1,1,20,0,0
35760,-100,4,1,1,70,0,0
37914,-100,4,2,1,20,0,0
38530,-100,4,1,1,70,0,0
39760,-100,4,2,1,20,0,0
40376,-100,4,1,1,70,0,0
41606,-100,4,2,1,20,0,0
42068,-100,4,1,1,70,0,0
42222,-100,4,1,1,40,0,0
42914,-100,4,1,1,70,0,0
45299,-100,4,2,1,20,0,0
45914,-100,4,1,1,70,0,0
47145,-100,4,1,1,50,0,0
48453,-100,4,1,1,70,0,0
52376,-100,4,1,1,40,0,0
54530,-100,4,2,2,40,0,0
55299,-100,4,1,1,40,0,0
55914,-100,4,1,1,80,0,1
69145,-100,4,1,1,60,0,1
69760,-100,4,1,1,60,0,0
70683,-100,4,1,1,80,0,1
77606,-100,4,1,1,70,0,0
77914,-100,4,2,1,20,0,0
78376,-100,4,1,1,70,0,0
78837,-100,4,2,1,20,0,0
79299,-100,4,1,1,70,0,0
79760,-100,4,2,1,20,0,0
80222,-100,4,1,1,70,0,0
80683,-100,4,2,1,20,0,0
81145,-100,4,1,1,60,0,0
81606,-100,4,1,1,70,0,0
84068,-100,4,1,1,50,0,0
86222,-100,4,1,2,40,0,0
86991,-100,4,1,1,70,0,0
88222,-100,4,1,1,40,0,0
88530,-100,4,1,1,10,0,0

[Colours]
Combo1 : 251,43,43
Combo2 : 34,251,34
Combo3 : 31,31,250

[HitObjects]
256,64,530,1,0,0:0:0
412,32,991,1,0,0:0:0
428,192,1453,1,0,0:0:0
256,192,1914,1,0,0:0:0
256,64,2376,5,0,0:0:0
100,32,2837,1,0,0:0:0
84,192,3299,1,0,0:0:0
256,192,3760,1,0,0:0:0
256,85,4222,6,0,B|256:193,1,106.666666666667
256,316,5914,6,0,B|338:325|413:288,1,160,4|0,0:0|0:0,0:0:0
440,244,6530,2,0,B|472:200|475:146,1,106.666666666667
472,92,6991,2,0,B|368:64,1,106.666666666667,4|0,0:0|0:0,0:0:0
316,72,7453,2,0,B|283:115|280:169,1,106.666666666667
308,216,7914,6,0,B|268:256|212:244|212:244|184:196,1,160,0|8,0:0|0:0,0:0:0
108,120,8683,1,8,0:0:0
108,120,8837,2,0,B|64:203|64:203|96:264,1,160,0|8,0:0|0:0,0:0:0
184,320,9606,1,0,0:0:0
184,320,9760,2,0,B|230:250|305:217,1,160,0|8,0:0|0:0,0:0:0
392,280,10530,1,8,0:0:0
124,156,10991,5,0,0:0:0
124,156,11145,1,8,0:0:0
256,68,11606,2,0,B|288:45|333:41|375:60|397:93,1,160,4|8,0:0|0:0,0:0:0
444,248,12530,2,0,B|411:270|366:274|324:255|302:222,1,160,0|8,0:0|0:0,0:0:0
176,124,13453,5,0,0:0:0
336,124,13914,2,0,B|384:188|384:188|456:152,2,160,8|0|8,0:0|0:0|0:0,0:0:0
256,52,15145,6,0,B|200:64,1,53.3333333333333
268,148,15606,2,0,B|212:160,1,53.3333333333333,0|8,0:0|0:0,0:0:0
112,184,16068,2,0,B|80:264|112:344,1,160,8|0,0:0|0:0,0:0:0
160,364,16683,1,8,0:0:0
401,340,17145,6,0,B|432:264|400:184,1,160,0|8,0:0|0:0,0:0:0
296,160,17914,2,0,B|210:162|149:107,1,160,8|0,0:0|0:0,0:0:0
124,60,18530,1,8,0:0:0
36,192,18991,6,0,B|68:256|68:256|128:244|128:244|152:256,1,160,0|8,0:0|0:0,0:0:0
476,192,19914,2,0,B|444:256|444:256|384:244|384:244|360:256,1,160,0|8,0:0|0:0,0:0:0
204,340,20837,1,0,0:0:0
308,264,21299,1,0,0:0:0
204,192,21760,1,0,0:0:0
308,52,22222,5,2,0:0:0
308,52,22683,2,0,B|346:124|428:152,1,160,0|8,0:0|0:0,0:0:0
440,268,23453,1,8,0:0:0
440,268,23606,2,0,B|379:213|293:215,1,160,0|8,0:0|0:0,0:0:0
244,120,24376,1,0,0:0:0
244,120,24530,2,0,B|165:145|124:220,1,160,0|8,0:0|0:0,0:0:0
192,304,25299,1,8,0:0:0
76,112,25760,5,0,0:0:0
116,76,25914,2,0,B|188:36|188:36|264:36,2,160,8|0|8,0:0|0:0|0:0,0:0:0
104,180,27145,2,0,B|92:232,1,53.3333333333333,8|0,0:0|0:0,0:0:0
200,300,27606,2,0,B|236:260,1,53.3333333333333,0|8,0:0|0:0,0:0:0
360,224,28068,2,0,B|348:276,1,53.3333333333333
492,348,28683,2,0,B|516:269|477:192,1,160,8|0,0:0|0:0,0:0:0
412,108,29453,5,0,0:0:0
412,108,29606,1,8,0:0:0
312,72,29914,1,0,0:0:0
312,72,30068,2,0,B|266:59|232:78|197:98|152:85,2,160,0|8|0,0:0|0:0|0:0,0:0:0
348,228,31453,1,0,0:0:0
216,320,31914,2,0,B|172:300|158:263|144:226|101:207,2,160,0|8|0,0:0|0:0|0:0,0:0:0
348,228,33299,1,0,0:0:0
212,144,33760,6,0,B|76:60,1,160,0|8,0:0|0:0,0:0:0
32,156,34530,1,8,0:0:0
32,156,34683,2,0,B|120:212|120:212|144:264,2,160,0|8|0,0:0|0:0|0:0,0:0:0
176,116,35914,5,0,0:0:0
176,116,36068,1,8,0:0:0
336,116,36376,2,0,B|380:152,1,53.3333333333333,8|0,0:0|0:0,0:0:0
256,256,36837,2,0,B|237:309,1,53.3333333333333,0|8,0:0|0:0,0:0:0
96,232,37299,5,0,0:0:0
96,232,37453,2,0,B|58:158|83:75,2,160,4|0|0,0:0|0:0|0:0,0:0:0
168,312,38683,2,0,B|184:336|212:340,1,53.3333333333333
416,232,39299,2,0,B|454:158|429:75,2,160,4|0|0,0:0|0:0|0:0,0:0:0
344,312,40530,2,0,B|328:336|300:340,1,53.3333333333333
196,216,41145,6,0,B|208:172|256:160|304:172|316:216,2,160,4|0|0,0:0|0:0|0:0,0:0:0
172,320,42376,2,0,B|148:337|121:331,1,53.3333333333333
48,256,42837,1,0,0:0:0
100,244,42991,6,0,B|152:230|189:191,1,106.666666666667,4|0,0:0|0:0,0:0:0
232,156,43453,2,0,B|276:188|276:188|328:176,1,106.666666666667
348,128,43914,2,0,B|398:116|398:116|442:148,1,106.666666666667
428,200,44376,2,0,B|431:254|431:254|473:284,1,106.666666666667
473,284,44837,6,0,B|312:284,2,160,4|0|0,0:0|0:0|0:0,0:0:0
480,176,46068,2,0,B|464:120,1,53.3333333333333
324,52,46683,2,0,B|264:104|264:104|240:180,1,160
356,292,47606,1,4,0:0:0
156,92,48068,5,2,0:0:0
156,92,48530,2,0,B|172:56|209:30|255:25|290:43,1,160,0|8,0:0|0:0,0:0:0
252,144,49299,1,8,0:0:0
252,144,49453,2,0,B|236:180|199:206|153:211|118:193,1,160,0|8,0:0|0:0,0:0:0
156,92,50222,1,0,0:0:0
196,56,50376,6,0,B|228:31|275:29|315:49|337:82,2,160,0|8|0,0:0|0:0|0:0,0:0:0
192,192,51606,1,0,0:0:0
192,192,51760,2,0,B|214:225|254:245|301:243|333:218,1,160,8|4,0:0|0:0,0:0:0
256,192,52376,12,2,54530,0:0:0
431,112,55453,6,0,B|376:117|332:148,1,106.666666666667
280,136,55914,2,0,B|204:168|170:247,1,160,4|8,0:0|0:0,0:0:0
96,324,56683,1,8,0:0:0
96,324,56837,2,0,B|64:224,1,106.666666666667
84,172,57299,2,0,B|146:166|151:104,1,106.666666666667,8|0,0:0|0:0,0:0:0
128,56,57760,5,4,0:0:0
284,92,58068,2,0,B|332:116,1,53.3333333333333,0|8,0:0|0:0,0:0:0
432,212,58530,2,0,B|384:188,1,53.3333333333333,8|0,0:0|0:0,0:0:0
224,184,58991,2,0,B|272:208,1,53.3333333333333,0|8,0:0|0:0,0:0:0
360,316,59453,2,0,B|312:292,1,53.3333333333333,0|4,0:0|0:0,0:0:0
224,184,59914,5,0,0:0:0
184,148,60068,2,0,B|145:132|100:141|65:169|52:207,1,160,8|0,0:0|0:0,0:0:0
184,148,60837,1,0,0:0:0
224,112,60991,2,0,B|251:55|311:72,1,106.666666666667,8|0,0:0|0:0,0:0:0
336,120,61453,6,0,B|356:152|404:148|404:120|404:92|452:88|472:120,3,160,4|8|0|8,0:0|0:0|0:0|0:0,0:0:0
320,312,63299,6,0,B|239:293|192:221,1,160,4|8,0:0|0:0,0:0:0
96,176,64068,1,8,0:0:0
96,176,64222,1,0,0:0:0
164,104,64530,2,0,B|180:52,1,53.3333333333333,0|8,0:0|0:0,0:0:0
272,156,64991,5,0,0:0:0
272,156,65145,2,0,B|319:228|400:247,1,160,4|8,0:0|0:0,0:0:0
332,68,65914,1,8,0:0:0
332,68,66068,1,0,0:0:0
272,156,66376,6,0,B|248:176|224:156,1,53.3333333333333,0|8,0:0|0:0,0:0:0
102,63,66837,2,0,B|132:52|148:80,1,53.3333333333333,0|4,0:0|0:0,0:0:0
192,224,67299,2,0,B|162:234|146:207,1,53.3333333333333,0|8,0:0|0:0,0:0:0
212,44,67760,2,0,B|242:54|236:86,1,53.3333333333333,8|0,0:0|0:0,0:0:0
80,168,68222,2,0,B|49:157|55:125,1,53.3333333333333,0|8,0:0|0:0,0:0:0
244,160,68683,1,0,0:0:0
284,216,68837,5,4,0:0:0
96,252,69299,1,8,0:0:0
384,52,69760,1,0,0:0:0
192,52,70068,1,0,0:0:0
192,52,70222,2,0,B|138:52|90:24,1,106.666666666667,8|0,0:0|0:0,0:0:0
44,52,70683,6,0,B|71:99|71:153,1,106.666666666667,4|0,0:0|0:0,0:0:0
52,204,71145,1,8,0:0:0
148,252,71453,1,8,0:0:0
148,252,71606,2,0,B|216:200|299:210,2,160,0|8|4,0:0|0:0|0:0,0:0:0
160,144,72837,6,0,B|172:88,1,53.3333333333333,0|8,0:0|0:0,0:0:0
260,152,73299,2,0,B|272:208,1,53.3333333333333,8|0,0:0|0:0,0:0:0
352,276,73760,1,0,0:0:0
352,276,73914,2,0,B|416:276|416:276|464:256|476:204,2,160,8|4|8,0:0|0:0|0:0,0:0:0
256,224,75145,5,8,0:0:0
256,224,75299,2,0,B|192:224|192:224|144:244|132:296,1,160,0|8,0:0|0:0,0:0:0
256,336,76222,5,4,0:0:0
256,224,76683,1,0,0:0:0
256,112,77145,1,0,0:0:0
352,168,77606,2,0,B|400:208|400:208|440:192,1,106.666666666667
160,284,78530,6,0,B|112:324|112:324|72:308,1,106.666666666667,4|0,0:0|0:0,0:0:0
208,144,79453,2,0,B|256:104|256:104|296:120,1,106.666666666667
436,284,80376,2,0,B|388:324|388:324|348:308,1,106.666666666667
160,204,81299,1,4,0:0:0
160,204,81760,6,0,B|260:172,1,106.666666666667
300,208,82222,2,0,B|292:236|314:262|348:268|369:247,1,106.666666666667,8|8,0:0|0:0,0:0:0
400,204,82683,2,0,B|379:183|385:149|411:127|439:134,1,106.666666666667
476,96,83145,2,0,B|488:69|471:39|439:27|415:43,1,106.666666666667,8|0,0:0|0:0,0:0:0
360,88,83606,6,0,B|292:108|292:108|256:108,1,106.666666666667,4|0,0:0|0:0,0:0:0
256,192,84068,12,4,85453,0:0:0
152,88,85914,6,0,B|220:108|220:108|256:108,1,106.666666666667,0|0,0:0|0:0,0:0:0
412,76,86683,1,2,0:0:0
288,176,87145,2,0,B|252:196|232:238|234:283|257:315,1,160,4|0,0:0|0:0,0:0:0
257,316,87760,2,0,B|314:329|357:289,1,106.666666666667,8|8,0:0|0:0,0:0:0
376,240,88222,1,4,0:0:0
257,316,88683,1,0,0:0:0
