osu file format v10

[General]
AudioFilename: konekone.mp3
AudioLeadIn: 2000
PreviewTime: 54876
Countdown: 0
SampleSet: Normal
StackLeniency: 0.7
Mode: 0
LetterboxInBreaks: 0

[Editor]
DistanceSpacing: 1.1
BeatDivisor: 6
GridSize: 4

[Metadata]
Title:Fuwaffuwa no Mahou (TV Size)
TitleUnicode:Fuwaffuwa no Mahou (TV Size)
Artist:Itou Kanae & Aizawa Mai & Mikami Shiori
ArtistUnicode:Itou Kanae & Aizawa Mai & Mikami Shiori
Creator:kosiga
Version:Airy
Source:Shining Hearts ~ Shiawase no Pan ~
Tags:ending hyadain maeyamada kennichi tony sega Neris Filiam Amil Manaflare Airy Ardet
BeatmapID:153303
BeatmapSetID:49256

[Difficulty]
HPDrainRate:6
CircleSize:4
OverallDifficulty:7
ApproachRate:7
SliderMultiplier:2
SliderTickRate:1

[Events]
//Background and Video events
Video,0,"konekone.avi"
0,0,"Airy.jpg"
//Break Periods
//Storyboard Layer 0 (Background)
//Storyboard Layer 1 (Fail)
//Storyboard Layer 2 (Pass)
//Storyboard Layer 3 (Foreground)
//Storyboard Sound Samples
//Background Colour Transformations
3,100,163,162,255

[TimingPoints]
530,461.538461538462,4,1,1,60,1,0
4991,-100,4,1,1,5,0,0
5145,-100,4,2,2,40,0,0
5760,-100,4,1,1,70,0,0
11530,-100,4,1,1,50,0,0
11683,-100,4,1,1,70,0,0
22145,-100,4,1,2,40,0,0
22530,-100,4,1,1,70,0,0
31376,-100,4,2,2,40,0,0
31760,-100,4,1,1,70,0,0
33222,-100,4,1,2,40,0,0
33606,-100,4,1,1,70,0,0
35453,-100,4,1,1,35,0,0
35760,-100,4,1,1,70,0,0
37760,-100,4,2,1,20,0,0
38530,-100,4,1,1,70,0,0
39606,-100,4,2,1,20,0,0
40376,-100,4,1,1,70,0,0
41453,-100,4,2,1,20,0,0
41991,-100,4,1,1,70,0,0
42222,-100,4,1,1,40,0,0
42914,-100,4,1,1,70,0,0
45222,-100,4,2,1,20,0,0
45914,-100,4,1,1,70,0,0
47453,-100,4,1,1,50,0,0
48453,-100,4,1,1,70,0,0
52222,-100,4,1,1,50,0,0
53991,-100,4,2,1,20,0,0
54453,-100,4,2,2,40,0,0
55222,-100,4,1,1,30,0,0
55376,-100,4,1,1,40,0,0
55530,-100,4,1,1,50,0,0
55683,-100,4,1,1,60,0,0
55914,-100,4,1,1,80,0,1
69068,-100,4,1,1,60,0,1
69760,-100,4,1,1,60,0,0
70683,-100,4,1,1,80,0,1
77606,-100,4,1,1,70,0,0
77837,-100,4,2,1,20,0,0
78376,-100,4,1,1,70,0,0
78837,-100,4,2,1,20,0,0
79299,-100,4,1,1,70,0,0
79760,-100,4,2,1,20,0,0
80222,-100,4,1,1,70,0,0
80683,-100,4,2,1,20,0,0
81145,-100,4,1,1,60,0,0
81606,-100,4,1,1,70,0,0
84068,-100,4,1,1,30,0,0
85222,-100,4,1,1,50,0,0
86145,-100,4,1,2,40,0,0
86837,-100,4,2,1,10,0,0
86991,-100,4,1,1,70,0,0
88145,-100,4,1,1,40,0,0
88530,-100,4,1,1,10,0,0

[Colours]
Combo1 : 251,43,43
Combo2 : 34,251,34
Combo3 : 31,31,250

[HitObjects]
196,96,530,2,0,B|217:61|257:67|292:88|286:128,1,133.333333333333
220,172,991,2,0,B|213:212|248:233|289:239|310:204,1,133.333333333333
388,180,1453,2,0,B|348:173|327:208|321:249|356:270,1,133.333333333333
388,180,1914,2,0,B|423:159|417:118|396:83|356:90,1,133.333333333333
312,156,2376,6,0,B|319:196|284:217|243:223|222:188,1,133.333333333333
176,124,2837,2,0,B|155:89|114:95|79:116|86:156,1,133.333333333333
192,244,3299,2,0,B|213:279|254:273|289:252|282:212,1,133.333333333333
344,84,3760,2,0,B|357:45|398:45|437:60|437:101,1,133.333333333333
428,180,4222,1,0,0:0:0
344,84,4530,2,0,B|311:16|226:15|146:45|139:120,1,266.666666666667,0|2,0:0|0:0,0:0:0
140,116,5914,6,0,B|229:175|235:282,1,200,4|0,0:0|0:0,0:0:0
180,332,6530,1,0,0:0:0
312,268,6837,1,0,0:0:0
236,284,6991,6,0,B|104:308,1,133.333333333333,4|0,0:0|0:0,0:0:0
360,212,7453,2,0,B|228:236,1,133.333333333333
208,236,7914,6,0,B|272:207|290:137,1,133.333333333333
300,64,8376,1,8,0:0:0
452,172,8683,1,8,0:0:0
380,284,8837,6,0,B|339:343|269:348,1,133.333333333333
104,220,9299,2,0,B|174:225|215:284,1,133.333333333333,8|0,0:0|0:0,0:0:0
296,212,9760,2,0,B|301:142|360:101,1,133.333333333333
432,120,10222,1,8,0:0:0
204,44,10530,1,8,0:0:0
204,44,10991,5,0,0:0:0
204,44,11145,2,0,B|133:62|104:126,1,133.333333333333,8|0,0:0|0:0,0:0:0
176,196,11606,2,0,B|228:247|221:317,1,133.333333333333,4|0,0:0|0:0,0:0:0
290,317,12068,2,0,B|283:247|336:196,1,133.333333333333,8|8,0:0|0:0,0:0:0
290,317,12530,5,0,0:0:0
176,196,12837,2,0,B|148:136,1,66.6666666666667,0|8,0:0|0:0,0:0:0
40,36,13299,2,0,B|101:64,1,66.6666666666667
256,104,13760,1,0,0:0:0
308,52,13914,2,0,B|344:4|406:16|448:64|425:119,1,200,8|0,0:0|0:0,0:0:0
432,308,14683,5,0,0:0:0
380,256,14837,2,0,B|276:172,1,133.333333333333,8|0,0:0|0:0,0:0:0
276,172,15299,2,0,B|143:151,1,133.333333333333
80,188,15760,1,8,0:0:0
256,40,16068,1,8,0:0:0
256,40,16530,5,0,0:0:0
256,40,16683,2,0,B|276:172,1,133.333333333333,8|0,0:0|0:0,0:0:0
112,136,17145,2,0,B|212:224,1,133.333333333333
356,156,17606,1,8,0:0:0
256,344,17914,1,8,0:0:0
256,344,18376,5,0,0:0:0
256,344,18530,2,0,B|284:284|284:284|348:268,1,133.333333333333,8|0,0:0|0:0,0:0:0
464,200,18991,2,0,B|429:96|328:62,1,200,0|8,0:0|0:0,0:0:0
48,184,19914,2,0,B|82:287|183:321,1,200,0|8,0:0|0:0,0:0:0
328,104,20837,6,0,B|335:144|300:165|259:171|238:136,1,133.333333333333
328,172,21299,2,0,B|321:212|356:233|397:239|418:204,1,133.333333333333,8|8,0:0|0:0,0:0:0
328,240,21760,2,0,B|335:280|300:301|259:307|238:272,1,133.333333333333
238,70,22222,5,2,0:0:0
240,272,22683,6,0,B|209:337|141:355,1,133.333333333333
76,320,23145,2,0,B|26:270|31:198,1,133.333333333333,8|8,0:0|0:0,0:0:0
96,104,23606,2,0,B|145:153|140:225,1,133.333333333333
148,300,24068,1,8,0:0:0
328,344,24376,5,0,0:0:0
328,344,24530,2,0,B|322:271|371:222,1,133.333333333333
492,168,24991,1,8,0:0:0
336,40,25299,1,8,0:0:0
336,40,25760,5,0,0:0:0
336,40,25914,2,0,B|220:108,1,133.333333333333,8|0,0:0|0:0,0:0:0
204,72,26376,2,0,B|137:188,1,133.333333333333
148,260,26837,1,8,0:0:0
8,140,27145,1,8,0:0:0
204,72,27299,6,0,B|77:118,1,133.333333333333
100,196,27760,2,0,B|224:149,1,133.333333333333,8|0,0:0|0:0,0:0:0
244,228,28222,2,0,B|56:296,1,200,0|8,0:0|0:0,0:0:0
100,196,28837,1,0,0:0:0
188,140,28991,1,8,0:0:0
244,228,29145,2,0,B|392:368,1,200,0|8,0:0|0:0,0:0:0
372,232,29760,1,0,0:0:0
244,228,29914,1,0,0:0:0
164,232,30068,6,0,B|130:255|140:294|165:328|205:318,1,133.333333333333
224,328,30530,2,0,B|340:256,1,133.333333333333,8|8,0:0|0:0,0:0:0
384,260,30991,2,0,B|448:139,1,133.333333333333
404,36,31453,1,0,0:0:0
404,36,31914,6,0,B|335:17|275:58,1,133.333333333333
244,124,32376,2,0,B|237:194|179:236,1,133.333333333333,8|8,0:0|0:0,0:0:0
32,316,32837,2,0,B|38:245|96:203,1,133.333333333333
256,336,33299,1,0,0:0:0
256,336,33606,5,0,0:0:0
256,336,33760,1,0,0:0:0
296,152,34068,2,0,B|306:217,1,66.6666666666667,0|8,0:0|0:0,0:0:0
472,312,34530,1,8,0:0:0
472,312,34683,2,0,B|472:176,1,133.333333333333
448,108,35145,2,0,B|416:43|348:24,1,133.333333333333,8|0,0:0|0:0,0:0:0
256,40,35606,1,0,0:0:0
160,152,35914,5,0,0:0:0
224,116,36068,2,0,B|329:133|379:231,1,200,8|0,0:0|0:0,0:0:0
360,300,36683,1,0,0:0:0
292,328,36837,1,0,0:0:0
224,300,36991,1,8,0:0:0
140,32,37453,6,0,B|71:51|41:116,1,133.333333333333,4|0,0:0|0:0,0:0:0
108,148,37914,2,0,B|177:167|207:232,1,133.333333333333
324,152,38376,1,0,0:0:0
292,336,38683,2,0,B|224:336,1,66.6666666666667
305,232,39145,5,0,0:0:0
305,232,39299,2,0,B|335:167|404:148,1,133.333333333333,4|0,0:0|0:0,0:0:0
400,28,39760,2,0,B|370:93|301:112,1,133.333333333333
240,72,40222,1,0,0:0:0
404,148,40530,2,0,B|456:188,1,66.6666666666667
300,148,40991,5,0,0:0:0
300,148,41145,2,0,B|216:256,1,133.333333333333,4|0,0:0|0:0,0:0:0
260,344,41606,2,0,B|341:238,1,133.333333333333
452,188,42068,1,0,0:0:0
368,52,42376,1,0,0:0:0
368,52,42530,2,0,B|309:91|239:74,1,133.333333333333
180,116,42991,5,4,0:0:0
108,176,43145,1,0,0:0:0
92,84,43299,1,0,0:0:0
196,208,43453,2,0,B|200:278|150:330,1,133.333333333333
80,348,43914,5,0,0:0:0
108,244,44068,1,0,0:0:0
4,268,44222,1,0,0:0:0
184,320,44376,2,0,B|316:348,1,133.333333333333
436,264,44837,5,4,0:0:0
384,72,45299,2,0,B|376:120|344:168|291:192|243:191,1,200
52,252,46068,1,0,0:0:0
52,252,46222,2,0,B|60:204|92:156|145:132|193:133,1,200
244,192,46837,5,0,0:0:0
308,144,46991,1,0,0:0:0
372,192,47145,2,0,B|456:76,1,133.333333333333
392,212,47606,2,0,B|313:319,1,133.333333333333,4|0,0:0|0:0,0:0:0
140,192,48068,5,2,0:0:0
140,192,48530,6,0,B|161:227|202:221|237:200|230:160,1,133.333333333333
372,84,48991,2,0,B|351:49|310:55|275:76|282:116,1,133.333333333333,8|8,0:0|0:0,0:0:0
370,192,49453,2,0,B|349:227|308:221|273:200|280:160,1,133.333333333333
138,84,49914,2,0,B|159:49|200:55|235:76|228:116,1,133.333333333333,8|0,0:0|0:0,0:0:0
212,188,50376,5,0,0:0:0
88,264,50683,2,0,B|36:220,1,66.6666666666667,0|8,0:0|0:0,0:0:0
256,284,51145,1,8,0:0:0
284,216,51299,2,0,B|289:144|348:103,1,133.333333333333
332,32,51760,2,0,B|340:80|372:128|425:152|473:151,1,200,8|4,0:0|0:0,0:0:0
460,136,52683,5,0,0:0:0
432,108,53145,1,0,0:0:0
416,72,53606,1,0,0:0:0
424,32,54068,2,0,B|404:116|404:116|352:116,1,133.333333333333,4|0,0:0|0:0,0:0:0
256,192,54530,5,2,0:0:0
112,228,55299,5,0,0:0:0
120,156,55453,1,0,0:0:0
160,96,55606,1,0,0:0:0
224,60,55760,1,0,0:0:0
296,52,55914,6,0,B|367:51|412:107,1,133.333333333333,4|0,0:0|0:0,0:0:0
356,156,56376,2,0,B|300:201|301:272,1,133.333333333333,8|8,0:0|0:0,0:0:0
304,344,56837,1,0,0:0:0
211,272,57145,1,0,0:0:0
211,272,57299,2,0,B|212:201|156:156,1,133.333333333333,8|0,0:0|0:0,0:0:0
92,204,57760,6,0,B|80:268|80:268|104:332,1,133.333333333333,4|0,0:0|0:0,0:0:0
212,272,58222,2,0,B|224:208|224:208|200:144,1,133.333333333333,8|8,0:0|0:0,0:0:0
200,144,58683,2,0,B|332:160,1,133.333333333333
284,72,59145,2,0,B|416:88,1,133.333333333333,8|0,0:0|0:0,0:0:0
476,152,59606,5,4,0:0:0
432,292,59914,2,0,B|403:317|368:303,1,66.6666666666667,0|8,0:0|0:0,0:0:0
244,228,60376,2,0,B|278:213|307:239,1,66.6666666666667,8|0,0:0|0:0,0:0:0
184,320,60837,1,0,0:0:0
184,320,60991,2,0,B|122:357|56:332,1,133.333333333333,8|0,0:0|0:0,0:0:0
96,176,61453,6,0,B|109:137|150:137|189:152|189:193,1,133.333333333333,4|0,0:0|0:0,0:0:0
257,141,61914,2,0,B|257:100|218:85|177:85|164:124,1,133.333333333333,8|8,0:0|0:0,0:0:0
255,243,62376,2,0,B|255:284|294:299|335:299|348:260,1,133.333333333333
416,208,62837,2,0,B|403:247|362:247|323:232|323:191,1,133.333333333333,8|0,0:0|0:0,0:0:0
292,312,63299,5,4,0:0:0
120,176,63760,2,0,B|166:122|152:51,1,133.333333333333,8|8,0:0|0:0,0:0:0
56,136,64222,1,0,0:0:0
232,40,64530,1,0,0:0:0
288,88,64683,2,0,B|388:176,1,133.333333333333,8|0,0:0|0:0,0:0:0
400,56,65145,5,4,0:0:0
244,212,65606,2,0,B|198:266|212:337,1,133.333333333333,8|8,0:0|0:0,0:0:0
284,356,66068,1,0,0:0:0
192,156,66376,5,0,0:0:0
192,156,66530,2,0,B|178:85|224:31,1,133.333333333333,8|0,0:0|0:0,0:0:0
292,95,66991,2,0,B|338:149|324:220,1,133.333333333333,4|0,0:0|0:0,0:0:0
188,352,67453,2,0,B|174:281|220:227,1,133.333333333333,8|8,0:0|0:0,0:0:0
292,96,67914,2,0,B|240:191|135:207,1,200,0|8,0:0|0:0,0:0:0
56,116,68530,1,0,0:0:0
148,128,68683,1,0,0:0:0
196,48,68837,5,4,0:0:0
340,168,69145,2,0,B|300:224,1,66.6666666666667,0|8,0:0|0:0,0:0:0
172,168,69606,2,0,B|212:224,1,66.6666666666667,8|0,0:0|0:0,0:0:0
300,340,70068,5,0,0:0:0
212,340,70222,1,8,0:0:0
256,160,70530,1,0,0:0:0
268,68,70683,6,0,B|322:22|393:36,1,133.333333333333,4|0,0:0|0:0,0:0:0
424,308,71145,2,0,B|370:354|299:340,1,133.333333333333,8|8,0:0|0:0,0:0:0
256,256,71606,2,0,B|220:194|149:183,1,133.333333333333
180,40,72068,2,0,B|111:63|87:130,1,133.333333333333,8|0,0:0|0:0,0:0:0
64,248,72530,1,4,0:0:0
88,129,72837,5,0,0:0:0
88,129,72991,2,0,B|224:104,1,133.333333333333,8|8,0:0|0:0,0:0:0
392,148,73453,2,0,B|256:173,1,133.333333333333
261,172,73914,2,0,B|226:149|237:109|261:75|301:86,1,133.333333333333,8|0,0:0|0:0,0:0:0
468,240,74376,5,4,0:0:0
376,296,74683,5,0,0:0:0
468,240,74837,1,8,0:0:0
296,224,75145,5,8,0:0:0
204,136,75299,1,0,0:0:0
404,156,75606,5,0,0:0:0
292,308,75760,2,0,B|240:352|240:352|180:328,1,133.333333333333,8|0,0:0|0:0,0:0:0
64,256,76222,6,0,B|72:208|104:160|157:136|205:137,1,200,4|8,0:0|0:0,0:0:0
156,296,76837,1,0,0:0:0
64,256,76991,1,8,0:0:0
16,344,77145,1,0,0:0:0
220,220,77453,2,0,B|280:188,2,66.6666666666667,0|8|0,0:0|0:0|0:0,0:0:0
220,220,77914,6,0,B|226:168|184:121|122:108|81:140,1,200
256,72,78530,1,4,0:0:0
284,332,78991,6,0,B|320:270|391:259,1,133.333333333333
256,108,79453,1,0,0:0:0
228,332,79914,6,0,B|192:270|121:259,1,133.333333333333
256,144,80376,1,0,0:0:0
304,36,80837,6,0,B|296:76|256:84|216:76|208:36,1,133.333333333333
256,180,81299,1,4,0:0:0
256,180,81606,5,0,0:0:0
308,232,81760,2,0,B|375:255|436:216,1,133.333333333333
448,144,82222,2,0,B|424:77|356:53,1,133.333333333333,8|8,0:0|0:0,0:0:0
308,108,82683,2,0,B|253:154|182:140,1,133.333333333333
64,44,83145,5,8,0:0:0
158,77,83299,1,0,0:0:0
123,172,83453,1,0,0:0:0
29,138,83606,1,4,0:0:0
43,301,83914,1,0,0:0:0
43,301,84068,2,0,B|95:105,2,200
196,212,85299,5,0,0:0:0
196,212,85453,2,0,B|181:161|214:108|273:84|318:109,1,200
340,256,86222,1,0,0:0:0
200,84,86683,2,0,B|156:28,1,66.6666666666667,2|0,0:0|0:0,0:0:0
292,200,87145,5,4,0:0:0
292,200,87299,2,0,B|400:120,1,133.333333333333
472,132,87760,2,0,B|452:264,1,133.333333333333,8|8,0:0|0:0,0:0:0
396,312,88222,1,4,0:0:0
256,116,88683,1,0,0:0:0
