osu file format v14

[General]
AudioFilename: OP.mp3
AudioLeadIn: 0
PreviewTime: 69360
Countdown: 0
SampleSet: Soft
StackLeniency: 0.7
Mode: 0
LetterboxInBreaks: 0
WidescreenStoryboard: 0

[Editor]
DistanceSpacing: 0.9
BeatDivisor: 4
GridSize: 4
TimelineZoom: 2.3

[Metadata]
Title:Amadeus
TitleUnicode:アマデウス
Artist:Ito Kanako
ArtistUnicode:いとうかなこ
Creator:TT Mouse
Version:Insane
Source:Steins;Gate 0
Tags:Chloe z1085684963 シュタインズ・ゲート
BeatmapID:797290
BeatmapSetID:363067

[Difficulty]
HPDrainRate:6
CircleSize:4.2
OverallDifficulty:8
ApproachRate:9.2
SliderMultiplier:1.6
SliderTickRate:1

[Events]
//Background and Video events
0,0,"trim.jpg",0,0
Video,-285,"optc.flv"
//Break Periods
//Storyboard Layer 0 (Background)
//Storyboard Layer 1 (Fail)
//Storyboard Layer 2 (Pass)
//Storyboard Layer 3 (Foreground)
//Storyboard Sound Samples

[TimingPoints]
208,338.983050847458,4,2,1,25,1,0
13767,-100,4,1,0,70,0,0
15123,-76.9230769230769,4,1,0,70,0,0
15462,-90.9090909090909,4,1,0,70,0,0
17835,-76.9230769230769,4,1,0,70,0,0
18174,-90.9090909090909,4,1,0,70,0,0
20546,-76.9230769230769,4,1,0,70,0,0
21563,-90.9090909090909,4,1,0,70,0,0
24530,-90.9090909090909,4,1,0,5,0,0
25801,-166.666666666667,4,1,0,60,0,0
28046,-166.666666666667,4,1,0,50,0,0
28131,-166.666666666667,4,1,0,60,0,0
33470,-166.666666666667,4,1,0,10,0,0
33555,-166.666666666667,4,1,0,60,0,0
36818,-111.111111111111,4,1,0,60,0,0
47665,-142.857142857143,4,1,0,60,0,0
58174,-111.111111111111,4,1,0,60,0,0
70038,-200,4,1,0,60,0,0
70546,-90.9090909090908,4,1,0,60,0,1
80038,-111.111111111111,4,1,0,60,0,0
80546,-90.9090909090909,4,1,0,60,0,0
81394,-90.9090909090909,4,1,0,60,0,1
91563,-142.857142857143,4,1,0,30,0,0
91818,-142.857142857143,4,1,0,20,0,0
92241,-76.9230769230769,4,1,0,60,0,0
92580,-90.9090909090909,4,1,0,60,0,0

[Colours]
Combo1 : 245,50,89
Combo2 : 209,209,209
Combo3 : 243,227,88
Combo4 : 168,168,255

[HitObjects]
199,285,13767,5,2,0:3:0:0:
299,213,13936,1,2,0:3:0:0:
318,368,14106,1,8,1:3:0:0:
199,285,14275,1,2,0:3:0:0:
414,176,14445,1,10,1:3:0:0:
350,299,14614,1,0,0:0:0:0:
345,310,14699,1,0,0:0:0:0:
340,321,14784,1,0,0:0:0:0:
335,332,14869,1,0,0:0:0:0:
330,343,14953,1,0,0:0:0:0:
325,354,15038,1,0,0:0:0:0:
318,368,15123,6,0,L|300:216,1,103.999995239258,4|0,0:0|0:0,0:0:0:0:
290,138,15462,1,8,0:3:0:0:
199,285,15631,1,2,0:2:0:0:
290,138,15801,1,0,0:0:0:0:
97,271,15970,1,2,0:2:0:0:
228,366,16140,2,0,P|185:368|143:391,1,88.000002685547,8|2,0:3|0:2,0:0:0:0:
53,196,16479,6,0,L|81:90,1,88.000002685547,2|0,0:2|0:0,0:0:0:0:
229,11,16818,2,0,L|201:117,1,88.000002685547,8|2,0:3|0:2,0:0:0:0:
206,96,17072,1,0,0:0:0:0:
206,96,17157,1,0,0:0:0:0:
174,207,17326,1,0,0:0:0:0:
375,253,17496,2,0,P|433:226|500:247,1,132.00000402832,8|0,0:3|0:2,0:0:0:0:
442,331,17835,6,0,L|432:200,1,103.999995239258,4|2,0:0|0:2,0:0:0:0:
422,89,18174,1,8,0:3:0:0:
375,253,18343,1,2,0:2:0:0:
422,89,18513,1,0,0:0:0:0:
283,281,18682,1,2,0:2:0:0:
199,189,18852,2,0,P|169:220|159:263,1,88.000002685547,8|2,0:3|0:2,0:0:0:0:
348,353,19191,6,0,L|461:355,1,88.000002685547,2|0,0:2|0:0,0:0:0:0:
159,263,19530,2,0,L|52:260,1,88.000002685547,8|2,0:3|0:2,0:0:0:0:
71,260,19784,1,0,0:0:0:0:
71,260,19869,1,0,0:0:0:0:
210,326,20038,1,0,0:0:0:0:
128,137,20208,2,0,P|148:79|110:6,1,132.00000402832,8|0,0:3|0:0,0:0:0:0:
45,82,20546,6,0,L|184:71,1,103.999995239258,4|2,0:0|0:2,0:0:0:0:
289,64,20885,1,8,0:3:0:0:
504,111,21055,2,0,B|348:125|348:125|411:149,1,207.999990478516,2|0,0:2|0:0,0:0:0:0:
407,0,21563,1,8,0:3:0:0:
407,0,21733,1,2,0:2:0:0:
395,143,21902,6,0,B|382:190|382:190|397:226,1,88.000002685547,0|2,0:0|0:2,0:0:0:0:
473,367,22241,2,0,B|487:321|487:321|472:285,1,88.000002685547,8|2,0:3|0:2,0:0:0:0:
472,285,22496,1,0,0:0:0:0:
472,285,22580,1,0,0:0:0:0:
285,359,22750,1,2,0:2:0:0:
285,359,22919,2,0,L|399:367,1,88.000002685547,8|0,0:3|0:0,0:0:0:0:
395,143,23258,5,4,0:0:0:0:
188,318,23428,1,2,0:0:0:0:
368,286,23597,1,0,0:0:0:0:
267,194,23767,5,2,0:0:0:0:
398,354,23936,1,0,0:0:0:0:
395,143,24106,1,2,0:0:0:0:
286,360,24275,1,0,0:0:0:0:
254,142,24445,2,0,L|240:56,1,88.000002685547
176,263,25970,6,0,B|33:220,2,143.999995605469,8|8|2,2:3|2:3|2:0,2:0:0:0:
176,263,27326,5,0,1:1:0:0:
248,359,27496,1,2,2:0:0:0:
256,351,27580,1,2,2:0:0:0:
265,343,27665,1,2,2:0:0:0:
336,268,27835,1,0,0:0:0:0:
137,176,28004,2,0,L|125:138,1,23.9999992675781,2|0,2:3|2:2,0:0:0:0:
93,54,28174,1,0,2:0:0:0:
96,50,28343,1,0,2:0:0:0:
99,47,28513,1,0,2:0:0:0:
102,43,28682,6,0,B|244:81,2,143.999995605469,8|8|2,3:0|2:3|2:0,2:0:0:0:
102,43,30038,5,0,2:0:0:0:
206,20,30208,1,0,2:0:0:0:
297,67,30377,1,2,2:0:0:0:
401,44,30547,1,0,2:3:0:0:
391,37,30631,1,0,2:3:0:0:
380,30,30716,1,2,2:2:0:0:
396,145,30885,1,0,2:3:0:0:
400,156,30970,1,0,2:3:0:0:
404,166,31055,1,2,2:2:0:0:
297,67,31224,1,2,2:2:0:0:
226,248,31394,6,0,B|220:288|220:288|244:354,1,95.9999970703126,8|0,2:3|2:0,2:0:0:0:
213,155,31902,2,0,B|232:208|232:208|226:248,1,95.9999970703126,8|0,2:3|2:0,2:0:0:0:
174,63,32411,1,0,2:0:0:0:
115,144,32580,1,2,2:0:0:0:
168,83,32750,5,2,2:2:0:0:
109,164,32919,1,0,2:0:0:0:
109,164,33004,1,0,2:0:0:0:
109,164,33089,2,0,L|101:230,1,47.9999985351563,8|2,2:3|2:3,2:3:0:0:
81,345,33428,2,0,L|111:351,1,23.9999992675781,2|0,2:3|2:2,0:0:0:0:
189,365,33597,1,0,2:2:0:0:
193,363,33767,1,0,2:2:0:0:
197,361,33936,1,0,2:2:0:0:
201,359,34106,6,0,B|295:375|295:375|346:354,1,143.999995605469,8|8,2:3|2:3,2:2:0:0:
393,52,34953,1,0,2:0:0:0:
336,251,35123,2,0,L|324:200,1,47.9999985351563,0|0,2:0|2:0,2:0:0:0:
426,339,35462,6,0,L|472:350,1,47.9999985351563,2|0,2:0|2:0,2:0:0:0:
354,129,35801,1,8,2:3:0:0:
472,350,35970,2,0,P|417:271|488:208,1,191.999994140625,2|0,2:0|2:0,2:0:0:0:
490,280,36818,5,12,1:3:0:0:
110,188,37157,1,8,1:3:0:0:
246,166,37326,2,0,B|285:121|285:121|266:83|266:83|271:39,1,143.999995605469,12|0,0:3|2:0,0:0:0:0:
221,267,37835,1,8,0:0:0:0:
215,243,38174,5,8,2:3:0:0:
174,358,38343,1,8,2:3:0:0:
110,188,38513,1,0,1:0:0:0:
246,166,38682,2,0,B|285:121|285:121|266:83|266:83|271:39,1,143.999995605469,8|0,2:3|2:2,0:0:0:0:
221,267,39191,1,8,1:0:0:0:
456,33,39530,5,12,0:3:0:0:
276,356,39869,1,8,0:3:0:0:
418,238,40038,2,0,B|379:283|379:283|398:321|398:321|393:365,1,143.999995605469,12|0,0:3|2:2,0:0:0:0:
480,173,40546,1,8,0:1:0:0:
473,148,40885,5,8,2:3:0:0:
495,308,41055,1,8,2:3:0:0:
276,356,41224,1,0,1:0:0:0:
418,238,41394,2,0,B|379:283|379:283|398:321|398:321|393:365,1,143.999995605469,8|0,2:3|2:2,0:0:0:0:
480,173,41902,1,8,0:0:0:0:
296,21,42241,6,0,P|254:78|167:63,1,143.999995605469,12|0,0:3|0:0,0:0:0:0:
222,12,42750,1,8,0:3:0:0:
81,306,43089,1,0,0:0:0:0:
81,306,43258,2,0,L|72:235,1,71.9999978027344,8|0,0:0|0:0,0:0:0:0:
229,367,43597,5,8,2:3:0:0:
170,294,43767,1,8,2:3:0:0:
297,214,43936,1,0,0:1:0:0:
73,235,44106,2,0,L|89:387,1,143.999995605469,8|0,2:3|2:2,0:0:0:0:
63,157,44614,1,8,0:0:0:0:
377,218,44953,6,0,P|346:279|270:290,1,143.999995605469,12|0,0:3|1:2,0:0:0:0:
297,214,45462,1,8,0:3:0:0:
482,349,45801,1,0,0:0:0:0:
297,214,45970,2,0,L|226:210,1,71.9999978027344,8|0,0:0|0:0,0:0:0:0:
396,339,46309,5,8,2:3:0:0:
473,147,46479,1,8,2:3:0:0:
297,214,46648,1,0,1:1:0:0:
432,244,46818,1,10,0:3:0:0:
432,244,46902,1,2,0:3:0:0:
432,244,46987,1,2,0:3:0:0:
302,129,47157,1,2,0:2:0:0:
265,308,47326,1,2,0:2:0:0:
184,252,47496,1,2,0:2:0:0:
265,308,47665,6,0,B|254:372|254:372|213:337,1,111.999996582031,12|0,0:3|2:0,0:0:0:0:
43,284,48343,2,0,B|54:220|54:220|95:255,1,111.999996582031,2|0,0:3|2:0,0:0:0:0:
184,252,48852,6,0,P|197:200|163:136,1,111.999996582031,8|0,0:3|0:3,0:0:0:0:
94,105,49360,1,8,0:3:0:0:
338,14,49699,1,2,0:3:0:0:
94,105,50038,1,0,0:0:0:0:
421,24,50377,5,12,0:3:0:0:
421,24,50546,2,0,P|396:79|328:93,1,111.999996582031,8|0,0:3|0:0,0:0:0:0:
269,67,51055,1,2,0:3:0:0:
117,302,51563,2,0,P|169:276|233:294,2,111.999996582031,8|8|0,0:3|0:3|0:0,0:0:0:0:
179,356,52411,2,0,L|306:358,1,111.999996582031,2|0,0:3|0:0,0:0:0:0:
38,332,53089,6,0,L|90:389,1,55.9999982910157,12|8,0:3|0:3,0:0:0:0:
231,171,53767,2,0,P|186:140|132:149,1,111.999996582031,2|0,0:3|0:0,0:0:0:0:
229,305,54275,5,8,0:3:0:0:
229,305,54784,1,8,0:3:0:0:
440,262,55123,2,0,P|385:270|340:239,1,111.999996582031,2|0,0:3|0:0,0:0:0:0:
437,52,55801,5,12,0:3:0:0:
402,199,55970,1,8,0:3:0:0:
402,199,56479,2,0,B|385:233|385:233|388:328,1,111.999996582031,2|0,0:3|2:0,0:0:0:0:
304,179,56987,6,0,B|321:145|321:145|318:50,1,111.999996582031,0|0,0:3|2:0,0:0:0:0:
304,289,57496,2,0,P|269:247|215:239,1,111.999996582031,8|2,0:3|0:3,0:0:0:0:
232,314,58004,1,0,0:0:0:0:
403,199,58174,6,0,P|419:231|400:209,1,107.999996704102
391,203,58513,6,0,L|413:71,1,107.999996704102,4|0,0:1|0:0,0:0:0:0:
426,26,58852,1,2,0:3:0:0:
264,83,59021,2,0,B|217:99|217:99|120:63,1,143.999995605469,4|8,0:0|2:3,0:0:0:0:
26,160,59530,2,0,P|62:163|99:196,1,71.9999978027344,2|0,0:3|0:0,0:0:0:0:
64,350,59869,5,8,2:3:0:0:
189,261,60038,1,8,2:3:0:0:
34,237,60208,1,2,0:3:0:0:
210,338,60377,1,0,0:0:0:0:
210,338,60462,1,0,0:0:0:0:
210,338,60546,1,0,0:0:0:0:
254,217,60716,1,8,2:3:0:0:
210,338,60885,2,0,B|240:368|240:368|330:365,1,107.999996704102,2|0,0:3|0:0,0:0:0:0:
340,296,61224,6,0,B|358:194|358:194|337:154,1,143.999995605469,4|2,0:0|0:3,0:0:0:0:
432,13,61733,2,0,B|413:114|413:114|435:155,1,143.999995605469,4|8,0:0|2:3,0:0:0:0:
433,253,62241,2,0,P|473:248|507:218,1,71.9999978027344,2|0,0:3|0:0,0:0:0:0:
347,65,62580,5,12,2:3:0:0:
254,217,62750,1,8,2:3:0:0:
339,158,62919,1,2,0:3:0:0:
326,324,63089,1,0,0:0:0:0:
326,324,63174,1,0,0:0:0:0:
326,324,63258,1,0,0:0:0:0:
254,217,63428,1,8,2:3:0:0:
433,338,63597,2,0,L|320:323,1,107.999996704102,2|0,0:3|0:0,0:0:0:0:
239,303,63936,6,0,P|240:354|251:373,2,71.9999978027344,4|0|2,0:2|0:0|0:3,0:0:0:0:
339,158,64445,2,0,P|280:111|205:124,1,143.999995605469,8|0,2:3|0:0,0:0:0:0:
339,158,64953,1,2,0:3:0:0:
140,172,65123,1,8,0:3:0:0:
90,87,65292,6,0,L|106:157,1,71.9999978027344,4|0,1:2|0:0,0:0:0:0:
171,29,65631,1,2,0:3:0:0:
149,253,65801,2,0,P|80:261|21:194,1,143.999995605469,0|0,2:3|0:0,0:0:0:0:
149,253,66309,1,2,0:3:0:0:
22,133,66479,1,0,0:0:0:0:
94,347,66648,5,4,0:2:0:0:
140,172,66818,1,8,0:3:0:0:
52,278,66987,1,0,0:0:0:0:
263,302,67157,5,4,0:2:0:0:
217,95,67326,1,0,0:0:0:0:
149,253,67496,1,0,0:0:0:0:
315,235,67665,5,4,0:2:0:0:
140,172,67835,1,0,0:0:0:0:
258,337,68004,6,0,L|263:302,1,35.9999989013672,12|0,0:3|2:0,0:0:0:0:
302,201,68174,2,0,L|320:248,1,35.9999989013672,0|0,0:3|2:0,0:0:0:0:
158,366,68343,2,0,L|200:329,1,35.9999989013672,0|0,0:3|2:0,0:0:0:0:
400,274,68513,2,0,L|363:305,1,35.9999989013672,2|0,2:3|2:0,0:0:0:0:
258,337,69699,1,8,0:3:0:0:
388,72,70038,2,0,L|403:117,1,40,0|0,1:0|2:0,0:0:0:0:
360,203,70546,6,0,L|176:165,1,176.000005371094,4|0,0:0|0:0,0:0:0:0:
43,137,71055,2,0,P|38:185|69:247,1,88.000002685547,8|0,0:0|0:0,0:0:0:0:
191,248,71394,1,8,0:3:0:0:
43,137,71563,1,8,0:3:0:0:
159,39,71733,1,8,0:0:0:0:
124,298,71902,6,0,P|174:331|273:266,1,176.000005371094
466,332,72411,1,8,0:0:0:0:
342,359,72580,1,0,0:0:0:0:
342,359,72665,1,0,0:0:0:0:
342,359,72750,1,8,0:3:0:0:
472,207,72919,1,8,0:3:0:0:
260,106,73089,1,8,0:0:0:0:
267,282,73258,6,0,L|260:96,1,176.000005371094,4|0,0:0|0:0,0:0:0:0:
80,218,73767,1,8,0:2:0:0:
64,244,73851,1,0,0:2:0:0:
58,274,73936,1,0,0:2:0:0:
61,305,74021,1,0,0:2:0:0:
73,333,74106,1,10,0:3:0:0:
188,361,74275,1,8,0:3:0:0:
102,201,74445,1,8,0:0:0:0:
267,282,74614,6,0,P|339:218|339:132,1,176.000005371094
138,278,75123,1,8,0:0:0:0:
213,153,75292,1,0,0:0:0:0:
211,143,75377,1,0,0:0:0:0:
210,132,75462,1,8,0:3:0:0:
328,40,75631,1,8,0:3:0:0:
325,238,75801,2,0,L|304:380,1,132.00000402832,8|0,0:0|0:0,0:0:0:0:
305,368,76140,6,0,B|347:351|347:351|385:371,1,88.000002685547,4|0,0:0|0:0,0:0:0:0:
364,154,76479,1,8,0:0:0:0:
403,281,76648,2,0,B|441:301|441:301|483:284,1,88.000002685547,2|0,0:3|0:0,0:0:0:0:
305,368,76987,1,0,0:0:0:0:
483,284,77157,1,8,0:0:0:0:
235,324,77326,1,0,0:0:0:0:
235,324,77411,1,0,0:0:0:0:
235,324,77496,6,0,P|191:364|68:341,1,176.000005371094,4|8,0:0|0:0,0:0:0:0:
49,171,78004,2,0,P|93:131|216:154,1,176.000005371094
145,253,78513,1,8,0:0:0:0:
131,271,78852,5,12,0:0:0:0:
287,186,79021,1,0,0:3:0:0:
274,182,79106,1,0,0:0:0:0:
261,179,79191,1,8,0:0:0:0:
418,287,79360,1,0,0:3:0:0:
439,281,79445,1,0,0:0:0:0:
460,275,79530,1,8,0:0:0:0:
270,364,79699,1,0,0:0:0:0:
362,126,79869,1,0,0:0:0:0:
270,364,80038,6,0,P|253:309|240:365,1,143.999995605469,4|8,0:0|0:3,0:0:0:0:
360,358,80546,5,8,0:3:0:0:
201,240,80716,1,8,0:3:0:0:
446,179,80885,1,8,0:3:0:0:
172,59,81055,1,2,0:0:0:0:
251,130,81394,6,0,P|171:148|138:74,1,176.000005371094,4|0,0:0|0:0,0:0:0:0:
467,91,81902,2,0,L|362:73,1,88.000002685547,8|0,0:0|0:0,0:0:0:0:
321,249,82241,1,8,0:3:0:0:
273,59,82411,1,8,0:3:0:0:
446,179,82580,1,8,0:0:0:0:
270,364,82750,6,0,B|261:308|261:308|280:249|280:249|269:188,1,176.000005371094
174,341,83258,1,8,0:0:0:0:
321,249,83428,1,0,0:0:0:0:
321,249,83513,1,0,0:0:0:0:
321,249,83597,1,8,0:3:0:0:
174,341,83767,1,8,0:3:0:0:
414,318,83936,1,8,0:0:0:0:
265,131,84106,6,0,P|323:78|426:131,1,176.000005371094,4|0,0:0|0:0,0:0:0:0:
352,254,84614,1,8,0:0:0:0:
321,249,84698,1,0,0:0:0:0:
291,244,84783,1,0,0:0:0:0:
260,240,84868,1,0,0:0:0:0:
230,235,84952,1,8,0:3:0:0:
40,267,85123,1,8,0:3:0:0:
203,352,85292,1,8,0:0:0:0:
189,164,85462,6,0,P|154:201|200:310,1,176.000005371094
352,342,85970,1,8,0:0:0:0:
455,202,86140,1,0,0:0:0:0:
455,202,86224,1,0,0:0:0:0:
455,202,86309,1,8,0:3:0:0:
352,342,86479,1,8,0:3:0:0:
504,137,86648,2,0,P|444:119|386:156,1,132.00000402832,8|0,0:0|0:0,0:0:0:0:
388,153,86987,6,0,B|371:110|371:110|392:73,1,88.000002685547,4|0,0:0|0:0,0:0:0:0:
332,238,87326,1,8,0:0:0:0:
476,280,87496,2,0,B|492:322|492:322|472:360,1,88.000002685547
352,342,87835,1,0,0:0:0:0:
456,204,88004,1,8,0:0:0:0:
274,304,88174,1,0,0:0:0:0:
274,304,88258,1,0,0:0:0:0:
274,304,88343,6,0,B|211:268|145:303|145:303|180:261,1,176.000005371094,4|8,0:0|0:0,0:0:0:0:
242,137,88852,2,0,P|211:63|112:32,1,176.000005371094
112,162,89360,1,8,0:0:0:0:
112,162,89699,5,0,0:0:0:0:
100,314,89869,1,0,0:0:0:0:
89,305,89953,1,0,0:0:0:0:
78,296,90038,1,8,0:0:0:0:
242,137,90208,1,0,0:0:0:0:
238,158,90293,1,0,0:0:0:0:
236,179,90377,1,8,0:0:0:0:
206,349,90546,1,0,0:0:0:0:
112,162,90716,1,8,0:0:0:0:
322,356,90885,6,0,P|358:315|301:310,1,132.00000402832
206,349,91224,1,8,0:3:0:0:
432,366,91394,1,8,0:3:0:0:
393,143,91563,1,8,0:3:0:0:
322,356,91733,2,0,L|302:298,1,55.9999982910157
352,96,92241,6,0,B|374:163|374:163|369:237|369:237|391:301,1,207.999990478516,4|0,0:0|0:0,0:0:0:0:
206,349,92750,2,0,P|131:334|109:351,1,88.000002685547,8|0,0:0|0:0,0:0:0:0:
264,211,93089,1,8,0:3:0:0:
70,167,93258,1,8,0:3:0:0:
188,63,93428,1,8,0:0:0:0:
388,160,93597,6,0,P|428:87|377:21,1,176.000005371094
264,211,94106,2,0,L|295:298,1,88.000002685547,8|0,0:0|0:0,0:0:0:0:
310,131,94445,1,8,0:3:0:0:
293,293,94614,1,8,0:3:0:0:
464,233,94784,1,8,0:0:0:0:
264,211,94953,6,0,B|328:219|328:219|377:250|377:250|432:257,1,176.000005371094,4|0,0:0|0:0,0:0:0:0:
239,364,95462,2,0,L|142:350,1,88.000002685547,8|0,0:0|0:0,0:0:0:0:
323,376,95801,1,8,0:3:0:0:
76,336,95970,1,8,0:3:0:0:
239,364,96140,1,8,0:0:0:0:
19,289,96309,6,0,P|18:205|90:161,1,176.000005371094
288,193,96818,2,0,P|314:132|295:86,1,88.000002685547,8|0,0:0|0:0,0:0:0:0:
243,70,97157,1,8,0:3:0:0:
254,276,97326,1,8,0:3:0:0:
243,70,97496,1,8,0:0:0:0:
327,323,97665,6,0,B|385:327|385:327|449:295|449:295|514:296,1,176.000005371094,4|0,0:0|0:0,0:0:0:0:
288,193,98174,2,0,L|193:182,1,88.000002685547,8|0,0:0|0:0,0:0:0:0:
377,86,98513,2,0,L|472:97,2,88.000002685547,8|8|8,0:3|0:3|0:0,0:0:0:0:
243,70,99021,1,0,0:0:0:0:
288,193,99191,5,8,0:3:0:0:
118,235,99360,1,8,0:3:0:0:
340,260,99530,2,0,P|369:213|366:168,1,88.000002685547,8|0,0:0|0:0,0:0:0:0:
223,285,99869,2,0,L|235:376,1,88.000002685547,8|8,0:3|0:3,0:0:0:0:
288,193,100208,1,8,0:0:0:0:
234,372,100377,1,0,0:0:0:0:
288,193,100546,6,0,P|240:170|180:184,1,88.000002685547,8|0,0:3|0:0,0:0:0:0:
446,108,100885,2,0,P|405:135|347:139,1,88.000002685547,8|0,0:3|0:0,0:0:0:0:
512,226,101224,1,8,0:3:0:0:
288,193,101394,1,0,0:0:0:0:
274,7,101563,2,0,L|298:100,1,88.000002685547,8|0,0:3|0:0,0:0:0:0:
350,288,101902,5,0,0:0:0:0:
319,304,101986,1,0,0:0:0:0:
284,310,102071,1,0,0:0:0:0:
250,304,102156,1,0,0:0:0:0:
219,288,102240,1,0,0:0:0:0:
195,262,102325,1,0,0:0:0:0:
181,230,102410,1,0,0:0:0:0:
178,195,102495,1,0,0:0:0:0:
191,157,102580,6,0,L|241:131,1,44.0000013427735,2|0,0:3|0:0,0:0:0:0:
318,152,102750,2,0,L|323:87,1,44.0000013427735,2|0,0:3|0:0,0:0:0:0:
385,42,102919,2,0,L|334:12,1,44.0000013427735,2|0,0:3|0:0,0:0:0:0:
119,62,103089,1,4,0:0:0:0:
