osu file format v6

[General]
AudioFilename: Yume Miru Kokoro.mp3
AudioLeadIn: 0
PreviewTime: 108925
Countdown: 1
SampleSet: Normal
StackLeniency: 0.7
Mode: 0
LetterboxInBreaks: 1

[Editor]
Bookmarks: 22675,110800,144550,168925
DistanceSpacing: 1.5
BeatDivisor: 4
GridSize: 16

[Metadata]
Title:Yume Miru Kokoro
Artist:Ito Kanae
Creator:animask
Version:Hard
Source:Taisho Yakyu Musume. ED
Tags:

[Difficulty]
HPDrainRate:4
CircleSize:5
OverallDifficulty:7
SliderMultiplier:1.6
SliderTickRate:1

[Events]
//Background and Video events
0,0,"hinamori amu.jpg"
//Break Periods
2,105375,109900
//Storyboard Layer 0 (Background)
//Storyboard Layer 1 (Fail)
//Storyboard Layer 2 (Pass)
//Storyboard Layer 3 (Foreground)
//Storyboard Sound Samples
//Background Colour Transformations
3,100,163,162,255

[TimingPoints]
7675,468.75,4,1,1,79,1,0

[Colours]
Combo1 : 255,128,255
Combo2 : 255,255,0
Combo3 : 192,192,192
Combo4 : 255,0,0

[HitObjects]
128,80,7675,2,0,B|32:96|32:208,1,160,2|0
144,176,8378,2,0,B|144:272|32:304,1,160,2|0
176,336,9081,2,0,B|352:336,1,160,2|0
416,240,9784,2,0,B|448:160|416:80,1,160,2|0
304,112,10487,1,2
208,192,10721,1,0
304,112,10956,1,0
208,192,11190,1,2
112,112,11425,6,0,B|32:176|16:256,1,160,6|0
112,320,12128,2,0,B|192:368|288:336,1,160,2|0
320,240,12831,2,0,B|144:240,1,160,2|0
80,144,13534,2,0,B|80:32|192:32,1,160,2|0
288,32,14237,1,2
336,144,14471,1,2
288,32,14706,1,2
336,144,14940,1,2
288,256,15175,6,0,B|272:352|160:352,1,160,6|0
80,272,15878,2,0,B|96:176|208:176,1,160,2|0
240,64,16581,2,0,B|416:64,1,160,2|0
448,176,17284,2,0,B|448:288|384:352,1,160,2|0
288,272,17987,1,2
192,192,18221,1,2
288,272,18456,1,2
192,192,18690,1,2
80,144,18925,6,0,B|128:64|224:48,1,160,6|0
320,64,19628,2,0,B|320:144|432:192,1,160,2|0
320,272,20331,2,0,B|128:272,1,160,2|0
192,160,21034,1,2
304,160,21268,1,0
416,160,21503,1,0
304,160,21737,1,2
192,160,21971,1,0
80,160,22206,1,2
192,160,22440,1,4
304,192,22675,6,0,B|304:304,1,80,2|0
416,272,23143,2,8,B|368:192,1,80,8|8
352,96,23612,1,2
240,112,23846,1,2
128,96,24081,1,8
176,208,24315,1,8
304,208,24550,2,8,B|400:208,1,80,2|0
480,144,25018,1,10
384,80,25253,1,10
144,112,25721,5,2
144,112,25839,1,2
144,112,25956,1,10
144,224,26190,1,0
240,304,26425,2,0,B|288:336|336:288,1,80,2|0
416,240,26893,2,8,B|448:192|400:144,1,80,8|8
304,112,27362,1,2
272,224,27596,1,2
240,112,27831,1,8
208,224,28065,1,0
112,304,28300,6,4,B|240:304,1,120
232,304,28768,1,2
232,304,28885,1,2
232,304,29003,1,2
232,304,29120,1,2
232,304,29237,1,2
352,304,29471,1,0
432,224,29706,1,2
336,160,29940,1,4
240,96,30175,6,0,B|160:144,2,80,6|0|6
240,224,30878,1,2
192,336,31112,2,8,B|288:336,1,80,8|8
320,224,31581,1,2
368,336,31815,1,2
416,224,32050,6,8,B|448:176|416:128,1,80
336,80,32518,1,2
224,64,32753,1,2
112,80,32987,1,8
32,160,33221,1,8
32,160,33339,1,0
32,160,33456,1,10
48,272,33690,1,2
144,352,33925,6,0,B|192:368|240:352,2,80,2|10|8
208,256,34628,1,2
272,160,34862,1,2
336,64,35096,1,8
208,64,35331,2,4,B|96:64,1,80,4|4
352,160,36034,5,2
384,160,36151,1,2
416,160,36268,1,2
448,160,36385,1,2
352,320,36737,1,2
320,320,36854,1,2
288,320,36971,1,2
256,320,37089,1,2
224,320,37206,1,2
112,320,37440,1,4
112,192,37675,6,4,B|128:64|304:64|288:144|160:144|160:144|160:144,1,240
224,256,38612,2,4,B|272:288|320:240,1,80
400,192,39081,2,4,B|384:64|208:64|224:144|352:144|352:144|352:144,1,240
208,144,40018,5,2
144,256,40253,1,2
256,288,40487,1,2
368,256,40721,1,2
304,144,40956,1,2
105,271,41425,6,4,B|121:143|297:143|281:223|153:223|153:223|153:223,1,240
217,335,42362,2,4,B|265:367|313:319,1,80
393,271,42831,2,4,B|377:143|201:143|217:223|345:223|345:223|345:223,1,240
144,48,44003,5,2
256,112,44237,1,2
368,48,44471,1,2
416,160,44706,1,2
96,160,45175,5,4
256,336,45643,2,0,B|336:288,1,80,2|2
256,192,46112,2,8,B|160:192,1,80,8|8
64,176,46581,1,2
128,80,46815,1,2
240,48,47050,1,8
352,32,47284,1,8
464,16,47518,2,0,B|448:112,1,80,2|2
320,192,48222,5,0
320,192,48339,1,0
320,192,48456,1,2
208,192,48690,1,2
80,192,48925,2,8,B|80:288,1,80
192,320,49393,2,0,B|288:320,1,80,2|2
384,256,49862,1,8
480,192,50096,1,8
464,64,50331,1,2
352,16,50565,1,2
240,48,50800,6,2,B|112:48,1,120
120,48,51268,1,2
120,48,51385,1,2
120,48,51503,1,2
48,144,51737,1,0
96,256,51971,1,0
208,288,52206,1,4
320,256,52440,6,0,B|368:272|416:256,1,80,8|4
480,176,52909,1,0
448,64,53143,2,0,B|352:64,1,80,2|2
240,64,53612,1,8
128,80,53846,1,8
32,144,54081,1,2
32,256,54315,1,2
128,336,54550,2,8,B|160:368|208:352,1,80
288,272,55018,1,2
384,352,55253,1,4
480,272,55487,6,8,B|480:240|448:224,2,40,8|8|8
384,208,55956,1,4
288,144,56190,1,2
176,128,56425,2,0,B|80:128,1,80,2|2
192,48,56893,2,8,B|272:64,1,80
384,96,57362,1,2
464,176,57596,1,2
480,288,57831,1,8
368,336,58065,2,2,B|192:336,1,160,10|2
96,320,58768,1,8
32,224,59003,1,0
64,112,59237,1,8
160,48,59471,1,0
288,48,59706,5,2
288,48,59823,1,2
288,48,59940,1,2
288,48,60057,1,2
288,48,60175,2,8,B|352:48|416:96,2,120,8|8|8
224,112,61112,1,2
160,208,61346,1,0
256,272,61581,1,2
320,176,61815,1,0
384,272,62050,2,0,B|416:336|320:368,2,120,8|8|8
368,160,62987,5,2
256,128,63221,1,0
144,160,63456,1,2
256,192,63690,5,2
256,192,63807,1,2
256,192,63925,2,8,B|240:256|272:320,2,120
272,80,64862,1,2
384,32,65096,1,0
480,112,65331,1,2
368,160,65565,1,0
384,272,65800,6,8,B|320:368|256:320,2,120
464,176,66737,2,2,B|368:176|368:176,1,80
288,192,67206,1,2
288,192,67323,1,2
288,192,67440,1,2
192,112,67675,5,8
192,112,67909,1,2
64,96,68143,1,8
64,96,68378,1,2
128,192,68612,2,8,B|128:256,2,40,2|0|2
256,192,69081,1,4
256,304,69315,2,0,B|352:288|352:160,1,160,2|2
352,64,70018,1,0
352,192,70253,1,4
256,128,70487,5,0
128,144,70721,1,0
32,224,70956,1,0
0,336,71190,1,0
128,336,71425,2,2,B|256:336,1,120
248,336,71893,1,2
248,336,72010,1,2
248,336,72128,1,2
248,336,72245,1,2
248,336,72362,1,2
320,256,72596,1,2
384,160,72831,1,2
384,160,72948,1,2
384,160,73065,1,2
320,64,73300,6,0,B|240:112|144:64,1,160,8|8
144,192,74003,2,8,B|224:240|320:192,1,160
416,192,74706,1,2
416,192,74823,1,2
416,192,74940,1,2
416,192,75057,1,2
416,192,75175,2,2,B|400:272,1,80
288,272,75643,2,0,B|176:272,1,80,2|0
128,192,76112,1,0
128,80,76346,1,0
256,80,76581,1,2
256,192,76815,1,0
368,192,77050,6,8,B|400:288|336:352,2,160
272,112,78221,1,0
160,96,78456,1,0
48,128,78690,1,0
16,240,78925,2,2,B|32:288|96:304,1,80
192,304,79393,2,2,B|240:288|256:224,1,80
400,64,80096,5,8
464,176,80331,1,0
480,288,80565,2,2,B|464:336|320:336|336:256,1,160
256,368,81268,1,2
224,256,81503,1,0
256,144,81737,1,2
224,32,81971,1,0
352,32,82206,6,8,B|448:32,1,80
192,32,82909,1,2
192,32,83026,1,2
192,32,83143,2,8,B|96:32,1,80
256,224,83846,5,2
256,224,83964,1,2
256,224,84081,2,8,B|256:320|256:320|256:320,1,80,8|8
464,192,84784,1,0
352,144,85018,1,0
240,96,85253,1,2
128,144,85487,5,0
128,144,85604,1,0
128,144,85721,1,2
16,208,85956,5,0
96,304,86190,1,2
208,288,86425,2,0,B|256:272|272:208,1,80,2|0
272,112,86893,1,0
176,48,87128,1,0
288,16,87362,1,2
400,48,87596,1,2
496,112,87831,1,0
480,224,88065,2,0,B|448:304|352:336,1,160,2|2
240,320,88768,5,2
208,320,88885,1,2
176,320,89003,1,2
144,320,89120,1,2
96,256,89471,1,0
128,240,89589,1,2
160,224,89706,1,2
192,208,89823,1,2
224,192,89940,1,2
256,176,90057,1,0
288,160,90175,2,8,B|288:177|288:96|320:80,1,80,8|8
416,128,90643,5,0
432,240,90878,1,8
352,320,91112,2,0,B|256:336,1,80,2|2
160,272,91581,1,0
80,176,91815,1,0
128,64,92050,2,8,B|176:32|224:64,1,80
320,48,92518,1,8
432,80,92753,1,2
480,192,92987,1,2
448,304,93221,1,2
336,352,93456,1,2
224,368,93690,1,0
112,336,93925,6,8,B|32:272|80:176,1,160
176,128,94628,1,0
288,128,94862,2,8,B|256:224,1,80
256,320,95331,1,2
352,256,95565,2,0,B|384:80,1,160,2|2
272,64,96268,1,0
176,144,96503,1,0
80,64,96737,1,4
80,176,96971,6,8,B|64:224,2,40
80,176,97440,1,4
256,336,97909,2,8,B|272:384,2,40
256,336,98378,1,4
256,96,98846,5,8
256,224,99081,1,0
352,304,99315,2,2,B|400:256|400:224|384:192|336:176|320:256|320:256,1,160,0|0
256,144,100018,1,0
181,231,100253,2,2,B|192:256|176:176|128:192|112:224|112:256|160:304,1,160,0|0
256,224,100956,1,0
256,112,101190,1,0
144,48,101425,6,0,B|64:80,1,80,2|0
32,192,101893,2,0,B|112:240,1,80,2|0
176,288,102362,1,0
288,288,102596,1,0
400,272,102831,1,0
256,208,103065,12,6,105175
64,128,110800,5,2
160,192,111034,1,0
256,256,111268,2,8,B|304:288|336:288,1,80
416,208,111737,1,2
336,128,111971,1,0
240,48,112206,2,8,B|336:48,1,80
432,64,112675,1,2
480,176,112909,1,0
432,288,113143,1,8
320,352,113378,1,8
208,320,113612,2,0,B|176:352|112:352,1,80,2|0
64,256,114081,1,8
32,144,114315,1,8
112,48,114550,6,0,B|144:80|192:80,1,80,2|2
208,192,115018,1,8
304,272,115253,1,8
400,192,115487,2,0,B|448:240|448:288,1,80,2|2
368,352,115956,2,0,B|256:352,1,80,8|12
192,288,116659,5,2
160,288,116776,1,2
128,288,116893,1,2
48,192,117128,1,2
64,160,117245,1,2
80,128,117362,1,2
96,96,117479,1,2
112,64,117596,1,2
240,64,117831,6,4,B|352:64,1,80
432,112,118300,1,2
464,224,118534,1,2
384,304,118768,2,8,B|352:272|304:272,1,80
208,224,119237,2,0,B|272:160,1,80,2|2
176,80,119706,1,8
64,96,119940,1,8
32,208,120175,2,0,B|80:288,1,80,2|2
160,352,120643,2,0,B|208:384|256:336,1,80,8|8
336,304,121112,5,2
336,304,121229,1,2
336,304,121346,1,2
336,176,121581,1,8
256,80,121815,1,8
160,160,122050,2,0,B|272:160,1,80,2|2
240,272,122518,1,8
112,272,122753,1,8
112,160,122987,2,0,B|224:160,1,80,2|2
192,48,123456,1,8
304,96,123690,2,0,B|384:144|384:256,1,160,8|0
382,228,124276,1,2
382,228,124393,1,2
304,272,124628,1,2
208,240,124862,1,2
208,240,124979,1,2
208,240,125096,1,2
96,192,125331,6,4,B|64:96,1,80
192,80,125800,2,8,B|240:16|336:64,2,120
128,176,126737,1,2
240,192,126971,1,0
352,176,127206,1,2
304,288,127440,1,2
304,288,127557,1,2
304,288,127675,2,8,B|256:336|192:352,2,120
208,208,128612,1,2
96,160,128846,1,0
208,128,129081,1,2
320,160,129315,5,2
320,160,129432,1,2
320,160,129550,2,8,B|384:176|432:240,2,120
224,112,130487,1,2
112,160,130721,1,0
48,272,130956,1,2
160,336,131190,1,0
288,336,131425,2,8,B|432:336,2,120
240,224,132362,1,2
256,192,132479,1,2
288,176,132596,1,2
384,96,132831,1,2
352,96,132948,1,2
320,96,133065,1,2
288,96,133182,1,2
256,96,133300,1,2
144,80,133534,5,0
64,160,133768,1,8
144,240,134003,1,8
64,320,134237,1,2
176,352,134471,2,0,B|224:368|272:352,1,80,2|0
368,320,134940,2,8,B|448:288|464:192,1,160
432,80,135643,1,0
320,32,135878,1,4
256,144,136112,5,2
256,144,136229,1,2
256,144,136346,1,2
256,144,136464,1,2
256,144,136581,1,2
144,192,136815,1,0
144,192,137050,2,4,B|80:224|128:304,2,120
144,192,137987,2,4,B|112:128|32:144,2,120,0|0|0
224,288,138925,2,2,B|336:304|384:256,1,160
464,176,139628,1,2
256,64,140096,5,2
224,64,140214,1,2
192,64,140331,1,2
160,64,140448,1,2
128,64,140565,1,2
48,160,140800,6,0,B|96:240,1,80
208,240,141268,1,8
304,176,141503,1,8
368,80,141737,1,2
480,32,141971,2,0,B|464:112,1,80,2|8
448,224,142440,2,0,B|416:320|320:352,1,160,8|2
224,336,143143,1,2
128,272,143378,1,2
48,192,143612,2,8,B|112:112,1,80,8|8
192,48,144081,1,2
304,48,144315,1,2
416,64,144550,2,0,B|464:128|432:240,1,160,8|8
320,240,145253,1,2
80,240,145721,5,0
80,240,145839,1,0
80,240,145956,2,0,B|48:176|64:144,1,80,0|2
176,160,146425,1,8
288,192,146659,1,8
256,304,146893,1,2
144,272,147128,1,2
80,160,147362,1,8
144,64,147596,1,8
256,32,147831,1,2
368,32,148065,2,0,B|432:80|448:192,1,160,2|8
384,272,148768,1,8
272,320,149003,2,0,B|160:352|96:320,1,160,2|2
16,256,149706,1,8
64,144,149940,6,0,B|256:144,1,160,12|0
352,144,150643,1,2
448,64,150878,2,0,B|256:64,1,160,12|0
176,80,151581,1,2
80,160,151815,1,2
32,272,152050,2,8,B|16:352,1,80
128,320,152518,1,2
224,256,152753,1,0
304,160,152987,1,8
352,48,153221,1,8
400,160,153456,1,2
464,256,153690,2,4,B|432:352|320:368,1,160,6|4
240,320,154393,1,2
208,320,154510,1,2
176,320,154628,1,2
144,320,154745,1,2
112,320,154862,1,2
48,208,155096,1,2
80,208,155214,1,2
112,208,155331,1,2
176,112,155565,5,4
288,48,155800,2,8,B|384:32,1,80
480,80,156268,1,2
464,192,156503,1,2
416,304,156737,2,8,B|400:352|336:368,1,80
304,256,157206,1,0
368,160,157440,2,0,B|320:64|224:48,1,160,2|8
144,80,158143,1,2
96,192,158378,1,2
128,304,158612,1,8
240,224,158846,1,8
256,112,159081,1,2
368,160,159315,1,2
464,240,159550,2,8,B|480:320|368:368,2,160
416,128,160721,1,2
304,80,160956,1,2
192,48,161190,2,8,B|64:64|48:160,1,160
112,224,161893,1,8
208,288,162128,1,0
320,224,162362,1,8
416,288,162596,6,0,B|480:352,1,80,2|2
480,224,163065,1,4
400,64,163534,2,0,B|352:80,2,40,2|0|2
400,64,164003,1,4
256,256,164471,2,0,B|304:272,2,40,2|0|2
144,288,164940,2,0,B|80:224|96:128,1,160,2|2
176,48,165643,1,8
304,48,165878,1,8
256,144,166112,1,2
256,144,166229,1,0
256,144,166346,1,0
256,144,166464,1,0
256,144,166581,1,8
256,256,166815,1,0
256,256,166932,1,0
256,256,167050,1,4
160,176,167284,5,2
96,272,167518,1,8
192,352,167753,1,8
320,352,167987,1,2
416,272,168221,1,2
352,176,168456,1,0
256,112,168690,1,4
256,208,168807,12,4,172675
