osu file format v14

[General]
AudioFilename: Test.mp3
AudioLeadIn: 0
PreviewTime: 24596
Countdown: 0
SampleSet: Soft
StackLeniency: 0.7
Mode: 0
LetterboxInBreaks: 0
WidescreenStoryboard: 0

[Editor]
Bookmarks: 8232
DistanceSpacing: 1.1
BeatDivisor: 4
GridSize: 4
TimelineZoom: 1

[Metadata]
Title:Hetalian*Jet
TitleUnicode:ヘタリアン☆ジェット
Artist:Italy(CV:Namikawa Daisuke)
ArtistUnicode:イタリア(CV:浪川大輔)
Creator:ByBy13
Version:Normal
Source:ヘタリア The World Twinkle
Tags:hetalia studio deen funanimation kadokawa video ending ByBy_ChAn Taeyang
BeatmapID:736317
BeatmapSetID:332576

[Difficulty]
HPDrainRate:4
CircleSize:3.5
OverallDifficulty:4
ApproachRate:4
SliderMultiplier:1.2
SliderTickRate:1

[Events]
//Background and Video events
Video,0,"test20.avi"
0,0,"iTNv8.jpg",0,0
//Break Periods
//Storyboard Layer 0 (Background)
//Storyboard Layer 1 (Fail)
//Storyboard Layer 2 (Pass)
//Storyboard Layer 3 (Foreground)
//Storyboard Sound Samples

[TimingPoints]
960,454.545454545455,4,2,1,40,1,0
24596,-100,3,2,2,40,0,1
27778,-100,3,2,2,40,0,1
35505,-100,3,2,1,40,0,0
43005,-100,3,2,1,25,0,0
43232,-100,3,2,1,20,0,0
43687,-100,3,2,1,15,0,0
44141,-100,3,2,1,10,0,0
44596,-100,3,2,1,5,0,0

[Colours]
Combo1 : 0,92,185
Combo2 : 255,182,147
Combo3 : 0,128,128

[HitObjects]
51,285,8232,6,0,P|94:289|155:231,1,120,4|8,0:0|0:0,0:0:0:0:
205,205,8914,1,0,0:0:0:0:
254,248,9141,2,0,L|306:295,2,60,2|0|8,0:0|0:0|0:0,0:0:0:0:
259,115,10050,2,0,L|164:36,1,120,2|8,0:0|0:0,0:0:0:0:
72,130,10960,2,0,P|44:182|76:254,1,120,2|8,0:0|0:0,0:0:0:0:
172,305,11869,6,0,P|242:297|273:252,1,120,4|8,0:0|0:0,0:0:0:0:
294,199,12550,1,0,0:0:0:0:
275,135,12778,2,0,L|233:7,1,120,2|8,0:0|0:0,0:0:0:0:
171,20,13460,1,0,0:0:0:0:
124,67,13687,2,0,B|114:97|81:108|81:108|64:142|80:172,2,120,2|8|2,0:0|0:0|0:0,0:0:0:0:
250,28,15050,1,8,0:0:0:0:
299,158,15505,6,0,B|303:217|303:217|267:276,1,120,4|8,0:0|0:0,0:0:0:0:
228,319,16187,1,0,0:0:0:0:
162,317,16414,2,0,L|46:262,1,120,2|8,0:0|0:0,0:0:0:0:
58,133,17323,2,0,B|113:104|113:104|172:104,1,120,2|8,0:0|0:0,0:0:0:0:
269,192,18232,2,0,B|326:192|326:192|381:163,1,120,2|8,0:0|0:0,0:0:0:0:
347,35,19141,6,0,B|313:36|313:36|275:21|229:36,1,120,4|8,0:0|0:0,0:0:0:0:
187,87,19823,1,0,0:0:0:0:
146,139,20050,2,0,L|48:236,2,120,2|8|2,0:0|0:0|0:0,0:0:0:0:
238,50,21414,1,8,0:0:0:0:
304,163,21869,2,0,P|348:193|414:180,1,120,2|8,0:0|0:0,0:0:0:0:
424,50,22778,6,0,B|357:50|332:1|332:1|252:3|228:71,1,240,4|2,0:0|0:0,0:0:0:0:
199,193,24141,1,8,0:3:0:0:
327,160,24596,5,0,0:0:0:0:
452,198,25050,1,8,0:0:0:0:
376,306,25505,2,0,P|312:336|255:332,1,120,2|8,0:0|0:0,0:0:0:0:
203,306,26187,1,0,0:0:0:0:
233,247,26414,2,0,L|258:179,1,60,2|0,0:0|0:0,0:0:0:0:
267,125,26869,1,8,0:0:0:0:
365,32,27323,1,2,0:0:0:0:
435,143,27778,1,8,0:0:0:0:
374,260,28232,6,0,L|256:318,1,120,4|8,0:0|0:0,0:0:0:0:
201,326,28914,1,0,0:0:0:0:
135,326,29141,2,0,P|105:316|77:291,2,60,2|0|8,0:0|0:0|0:0,0:0:0:0:
229,234,30050,2,0,P|297:184|344:186,1,120,4|8,0:0|0:0,0:0:0:0:
394,196,30732,1,0,0:0:0:0:
383,261,30960,2,0,P|350:309|333:320,1,60,2|8,0:0|0:0,0:0:0:0:
291,341,31414,1,0,0:0:0:0:
183,264,31869,6,0,B|182:190|182:190|162:137,1,120,4|8,0:0|0:0,0:0:0:0:
256,50,32778,2,0,B|320:49|320:49|385:62,1,120,2|8,0:0|0:0,0:0:0:0:
387,191,33687,2,0,P|416:245|511:193,1,180,4|0,0:0|0:0,0:0:0:0:
493,143,34596,2,0,L|450:30,1,120,2|8,0:0|0:3,0:0:0:0:
318,42,35505,6,0,P|273:76|278:146,1,120,4|8,0:0|0:0,0:0:0:0:
285,200,36187,1,0,0:0:0:0:
254,258,36414,2,0,L|182:291,1,60,2|0,0:0|0:0,0:0:0:0:
138,308,36869,1,8,0:0:0:0:
92,184,37323,2,0,L|217:134,1,120,2|8,0:0|0:0,0:0:0:0:
335,139,38232,2,0,L|446:183,1,120,2|8,0:0|0:0,0:0:0:0:
386,300,39141,6,0,B|359:333|336:334|336:334|304:313|256:326,1,120,4|8,0:0|0:0,0:0:0:0:
214,318,39823,1,0,0:0:0:0:
162,276,40050,2,0,B|155:240|126:221|126:221|110:184|128:160,1,120,2|8,0:0|0:0,0:0:0:0:
233,98,40960,2,0,L|352:67,1,120,2|4,0:0|0:0,0:0:0:0:
414,58,41641,1,0,0:0:0:0:
414,124,41869,2,0,P|421:185|433:206,1,60,2|0,0:0|0:0,0:0:0:0:
438,246,42323,2,0,P|453:284|405:356,1,120,8|4,0:0|0:0,0:0:0:0:
256,192,43005,12,0,44596,0:0:0:0:
