osu file format v9

[General]
AudioFilename: Italobrothers Radio Hardcore.mp3
AudioLeadIn: 0
PreviewTime: 27929
Countdown: 1
SampleSet: Normal
StackLeniency: 0.3
Mode: 0
LetterboxInBreaks: 1

[Editor]
DistanceSpacing: 0.8
BeatDivisor: 4
GridSize: 8

[Metadata]
Title:Radio Hardcore
Artist:Italobrothers
Creator:jericho2442
Version:Softcore Rave
Source:
Tags:Hikato ztrot Jumpstyle STAMP!

[Difficulty]
HPDrainRate:2
CircleSize:3
OverallDifficulty:2
ApproachRate:2
SliderMultiplier:0.999999999999999
SliderTickRate:1

[Events]
//Background and Video events
0,0,"Radio Hardcore.jpg"
Video,899,"ItaloBrothers - Radio Hardcore.AVI"
//Break Periods
2,94929,105969
//Storyboard Layer 0 (Background)
//Storyboard Layer 1 (Fail)
//Storyboard Layer 2 (Pass)
//Storyboard Layer 3 (Foreground)
//Storyboard Sound Samples
//Background Colour Transformations
3,100,0,0,0

[TimingPoints]
3529,400,4,1,1,100,1,0
16729,-100,4,2,1,100,0,0
27429,-100,4,2,0,100,0,0
28229,-100,4,1,1,100,0,0
54729,-100,4,1,1,100,0,1
67529,-100,4,1,1,100,0,0
94529,-100,4,1,0,100,0,0
94929,-100,4,1,1,100,0,0
120329,-100,4,1,1,100,0,1
131529,-100,4,1,1,100,0,0
145729,-100,4,2,1,100,0,0
146629,-100,4,2,2,100,0,0
146829,-100,4,2,1,100,0,0
148229,-100,4,2,2,100,0,0
148429,-100,4,2,1,100,0,0
149829,-100,4,2,2,100,0,0
150029,-100,4,2,1,100,0,0
151429,-100,4,2,2,100,0,0
151629,-100,4,2,1,100,0,0
153029,-100,4,2,2,100,0,0
153229,-100,4,2,1,100,0,0
154629,-100,4,2,2,100,0,0
154829,-100,4,2,1,100,0,0
158329,-100,4,1,1,100,0,0
171529,-100,4,1,1,100,0,1
184529,-100,4,1,0,50,0,0

[Colours]
Combo1 : 0,128,255
Combo2 : 255,128,192
Combo3 : 0,255,0

[HitObjects]
256,40,3529,2,0,B|392:40|392:176|392:176,1,200,0|4
392,240,4729,1,8
312,240,5129,6,0,B|296:368|160:344|160:344,1,200,0|4
88,344,6329,1,8
136,280,6729,6,0,B|240:216|192:104|192:104,1,200,0|4
192,24,7929,1,8
256,72,8329,6,0,B|368:72|392:208|392:208,2,200,0|4|0
256,152,10329,5,8
288,312,11129,1,8
448,312,11929,1,8
480,152,12729,1,8
368,40,13529,1,8
368,200,14329,5,8
256,192,14729,12,4,16329
96,40,17129,5,2
256,40,17929,2,0,B|328:40|336:112|336:112,1,99.9999999999999,0|0
408,96,18729,2,0,B|408:208|408:208,1,99.9999999999999,2|0
408,272,19529,5,2
248,272,20329,1,2
88,272,21129,2,0,B|88:200|128:176|128:176,1,99.9999999999999
200,176,21929,2,0,B|248:128|224:72|224:72,1,99.9999999999999,2|0
304,88,22729,6,8,B|304:192|304:192|352:208|352:272|352:272,1,200
288,320,23929,1,8
208,320,24329,2,8,B|165:277|187:231|187:231|114:158,1,200,8|8
48,112,25529,1,8
16,40,25929,6,8,B|64:16|126:46|130:118|130:118|167:118|167:118,1,200
248,120,27129,1,8
328,120,27529,1,4
256,360,29129,6,0,B|256:224|392:224|392:224,1,200,4|8
448,192,30329,1,2
376,160,30729,2,8,B|375:159|253:151|255:25,1,200,4|8
255,26,32329,6,0,B|255:162|119:162|119:162,1,200,4|8
63,194,33529,1,2
135,226,33929,2,0,B|257:234|255:360,1,200,4|8
255,357,35529,6,0,B|359:357|359:357,1,99.9999999999999,4|2
431,358,36329,1,8
391,206,37129,1,4
432,56,37929,1,8
272,56,38729,6,0,B|168:56|168:56,1,99.9999999999999,4|2
96,55,39529,1,8
136,207,40329,1,4
96,359,41129,1,8
256,360,41929,6,0,B|318:358|336:304|336:304|440:304|440:304|440:208|440:208,1,300,4|8
443,132,43529,2,0,B|381:137|363:188|363:188|259:188|259:188|259:284|259:284,1,300,4|8
176,280,45129,6,0,B|176:216|168:184|88:184|88:184|88:216|88:216|24:224|0:192|0:144|0:144,1,300,4|8
8,80,46729,2,0,B|224:48|280:200|280:200,1,300,4|8
352,184,48329,6,0,B|360:56|496:56|496:56,1,200,4|8
480,216,49929,2,0,B|472:344|336:344|336:344,1,200,4|8
256,192,51529,12,4,53129
32,32,54729,5,4
112,32,55129,1,2
184,64,55529,1,8
208,144,55929,1,2
208,224,56329,6,0,B|208:296|272:312|272:312,1,99.9999999999999,4|2
288,232,57129,2,0,B|352:256|336:328|336:328,1,99.9999999999999,8|2
416,312,57929,5,4
456,240,58329,1,2
456,160,58729,1,8
416,88,59129,1,2
336,88,59529,6,0,B|272:88|264:24|264:24,1,99.9999999999999,4|2
184,32,60329,2,0,B|80:32|80:32,1,99.9999999999999,8|2
40,96,61129,5,4
40,176,61529,1,2
104,232,61929,1,8
104,312,62329,1,2
176,272,62729,6,0,B|264:192|264:192,1,99.9999999999999,4|2
330,206,63529,2,0,B|416:280|416:280,1,99.9999999999999,8|2
472,224,64329,5,4
472,144,64729,1,2
424,80,65129,1,8
352,48,65529,1,2
256,192,65929,12,4,67529
256,40,69129,6,0,B|384:40|384:168|384:168,2,200,4|8|4
304,192,71529,1,8
256,344,72329,6,0,B|128:344|128:216|128:216,2,200,4|8|4
256,264,74329,1,2
328,312,74729,5,10
400,264,75129,1,0
328,120,75929,1,2
168,120,76729,1,8
168,280,77529,1,2
200,352,77929,5,8
280,352,78329,1,2
440,352,79129,1,2
352,216,79929,1,8
272,216,80329,6,0,B|200:224|184:152|184:152,2,99.9999999999999,4|2|8
264,136,81529,2,0,B|272:64|336:64|336:64,2,99.9999999999999,2|4|2
344,144,82729,1,8
472,176,83529,6,0,B|472:280|472:280,2,99.9999999999999,4|2|8
472,96,84729,2,0,B|400:96|392:165|392:165,2,99.9999999999999,2|4|2
472,16,85929,1,8
312,16,86729,6,0,B|240:16|240:80|240:80,2,99.9999999999999,4|2|8
320,96,87929,2,0,B|296:168|224:160|224:160,1,99.9999999999999,2|4
168,160,88729,1,2
88,160,89129,1,8
88,320,89929,6,0,B|200:368|200:368,2,99.9999999999999,4|2|8
88,240,91129,2,0,B|192:176|192:176,2,99.9999999999999,2|4|2
158,277,92329,1,8
256,192,92729,12,4,94729
256,40,107529,6,0,B|192:40|176:104|176:104,1,99.9999999999999,4|0
256,120,108329,2,0,B|224:176|256:224|256:224,1,99.9999999999999,8|0
288,288,109129,2,0,B|304:352|360:352|360:352,1,99.9999999999999,4|0
368,272,109929,2,0,B|432:184|432:184,1,99.9999999999999,8|0
504,184,110729,6,0,B|503:133|446:96|390:120|390:120|336:80|336:80,1,200,4|8
291,40,111929,1,0
231,93,112329,2,0,B|230:92|193:120|193:120|137:96|80:133|79:184,1,200,4|8
158,193,113529,1,0
160,272,113929,6,0,B|224:280|224:344|224:344,1,99.9999999999999,4|0
304,336,114729,2,0,B|408:336|408:336,1,99.9999999999999,8|0
400,256,115529,2,0,B|296:256|296:256,1,99.9999999999999,4|0
296,176,116329,2,0,B|408:176|408:176,1,99.9999999999999,8|0
472,176,117129,6,0,B|464:112|416:96|373:100|373:100|308:100|308:100,1,200,4|8
232,100,118329,1,0
152,100,118729,2,0,B|160:164|211:182|252:182|252:182|318:182|318:182,1,200,4|8
256,336,120329,6,0,B|192:336|184:280|184:280,2,99.9999999999999,4|2|8
336,336,121529,1,2
416,336,121929,2,0,B|480:336|488:280|488:280,2,99.9999999999999,4|2|8
416,176,123529,6,0,B|480:176|488:232|488:232,2,99.9999999999999,4|2|8
336,176,124729,1,2
256,176,125129,2,0,B|192:176|184:232|184:232,2,99.9999999999999,4|2|8
176,40,126729,6,0,B|56:40|40:168|40:168,1,200,4|8
40,240,127929,1,2
40,320,128329,2,0,B|104:320|120:256|120:256,2,99.9999999999999,4|2|8
190,265,129929,6,0,B|209:318|266:319,2,99.9999999999999,4|2|8
266,239,131129,1,2
256,192,131529,12,4,133129
248,40,133929,5,8
408,40,134729,2,0,B|480:40|488:104|488:104,1,99.9999999999999,4|0
411,123,135529,1,8
472,272,136329,5,4
336,352,137129,1,8
176,352,137929,2,0,B|112:352|96:296|96:296,1,99.9999999999999,4|0
172,272,138729,1,8
256,136,139529,6,0,B|256:80|256:80|208:80|208:80|136:80|136:152|136:152,1,200,4|8
256,240,141129,2,0,B|328:240|344:184|344:184,1,99.9999999999999,4|0
416,192,141929,1,8
416,32,142729,6,0,B|312:32|312:32|304:88|240:80|240:80,1,200,4|8
80,80,144329,2,0,B|192:80|192:80,2,99.9999999999999,4|0|8
32,232,145929,6,0,B|152:232|160:368|160:368,1,200,4|4
320,360,147529,1,4
320,280,147929,1,4
320,200,148329,1,4
256,56,149129,6,4,B|136:56|128:192|128:192,1,200
128,344,150729,1,4
208,344,151129,1,4
288,344,151529,1,4
448,344,152329,6,4,B|448:288|448:288|416:256|416:256|448:224|448:224|448:168|448:168,1,200
368,32,153929,1,4
368,112,154329,1,4
368,192,154729,1,4
256,192,155529,12,4,157129
256,40,158729,6,0,B|248:168|376:184|376:184,1,200,4|8
368,264,159929,1,2
368,344,160329,2,0,B|320:344|282:309|288:240|288:240|224:240|224:240,1,200,4|8
160,240,161529,1,2
80,240,161929,6,0,B|80:184|136:160|136:160|136:56|136:56,1,200,4|8
208,32,163129,1,2
280,64,163529,2,0,B|280:160|280:160|336:184|336:240,1,200,4|8
256,240,164729,1,2
256,320,165129,6,0,B|192:320|152:264|157:201|214:171|214:171,1,200,4|8
144,128,166329,1,2
64,128,166729,2,0,B|64:64|115:36|177:15|216:88|216:88,1,200,4|8
280,40,167929,1,2
350,77,168329,6,0,B|393:22|442:36|493:64|493:128,1,200,4|8
413,130,169529,1,2
416,208,169929,2,0,B|408:344|280:336|280:336,1,200,4|8
208,336,171129,1,2
128,336,171529,5,4
48,320,171929,1,2
40,240,172329,1,8
120,256,172729,1,2
200,256,173129,6,0,B|328:256|320:120|320:120,1,200,4|8
400,128,174329,1,2
360,56,174729,5,4
280,32,175129,1,2
200,56,175529,1,8
120,32,175929,1,2
136,112,176329,6,0,B|184:160|245:128|245:128|280:216|280:216,1,200,4|8
276,283,177529,1,2
344,240,177929,5,4
424,240,178329,1,2
480,184,178729,1,8
480,104,179129,1,2
400,104,179529,6,0,B|264:136|216:24|216:24,1,200,4|8
144,40,180729,1,2
64,40,181129,6,0,B|64:144|64:144,1,99.9999999999999,4|2
64,219,181929,2,0,B|64:283|120:307|120:307,1,99.9999999999999,8|2
192,304,182729,1,4
256,192,182929,12,4,184529
