osu file format v9

[General]
AudioFilename: Italobrothers Radio Hardcore.mp3
AudioLeadIn: 0
PreviewTime: 27929
Countdown: 1
SampleSet: Normal
StackLeniency: 0.3
Mode: 0
LetterboxInBreaks: 1

[Editor]
DistanceSpacing: 1.1
BeatDivisor: 4
GridSize: 8

[Metadata]
Title:Radio Hardcore
Artist:Italobrothers
Creator:jericho2442
Version:Hardcore Rave!!!
Source:
Tags:Hikato ztrot Jumpstyle STAMP!

[Difficulty]
HPDrainRate:6
CircleSize:4
OverallDifficulty:8
ApproachRate:8
SliderMultiplier:2
SliderTickRate:1

[Events]
//Background and Video events
0,0,"Radio Hardcore.jpg"
Video,899,"ItaloBrothers - Radio Hardcore.AVI"
//Break Periods
2,94929,106779
//Storyboard Layer 0 (Background)
//Storyboard Layer 1 (Fail)
//Storyboard Layer 2 (Pass)
//Storyboard Layer 3 (Foreground)
//Storyboard Sound Samples
//Background Colour Transformations
3,100,0,0,0

[TimingPoints]
3529,400,4,1,1,100,1,0
15530,-100,4,2,1,100,0,0
27429,-100,4,2,0,100,0,0
28229,-100,4,1,1,100,0,0
54729,-100,4,1,1,100,0,1
67529,-100,4,1,1,100,0,0
94529,-100,4,1,0,50,0,0
94929,-100,4,1,1,100,0,0
120329,-100,4,1,1,100,0,1
131529,-100,4,1,1,100,0,0
145729,-100,4,2,1,100,0,0
146629,-100,4,2,2,100,0,0
146829,-100,4,2,1,100,0,0
148229,-100,4,2,2,100,0,0
148429,-100,4,2,1,100,0,0
149829,-100,4,2,2,100,0,0
150029,-100,4,2,1,100,0,0
151429,-100,4,2,2,100,0,0
151629,-100,4,2,1,100,0,0
153029,-100,4,2,2,100,0,0
153229,-100,4,2,1,100,0,0
154629,-100,4,2,2,100,0,0
154829,-100,4,2,1,100,0,0
158329,-100,4,1,1,100,0,0
171029,-100,4,1,0,100,0,0
171529,-200,4,1,0,100,0,1
172229,-100,4,1,1,100,0,1
173029,-200,4,1,0,100,0,1
173829,-100,4,1,1,100,0,1
174629,-200,4,1,0,100,0,1
175429,-100,4,1,1,100,0,1
176229,-200,4,1,0,100,0,1
177029,-100,4,1,1,100,0,1
177829,-200,4,1,0,100,0,1
178629,-100,4,1,1,100,0,1
179429,-200,4,1,0,100,0,1
180229,-100,4,1,1,100,0,1
181029,-200,4,1,0,100,0,1
181829,-100,4,1,1,100,0,1
184529,-100,4,1,0,50,0,0

[Colours]
Combo1 : 0,128,255
Combo2 : 255,128,192
Combo3 : 0,255,0

[HitObjects]
32,192,3729,1,0
120,192,3929,1,8
192,136,4129,1,0
256,200,4329,1,4
192,256,4529,1,0
256,200,4729,2,0,B|303:145|260:69|260:69|352:8|416:96|416:96,1,300,8|0
400,176,5529,5,8
488,176,5729,1,0
448,256,5929,1,4
360,256,6129,1,0
360,344,6329,2,0,B|288:344|270:264|270:264|224:296|224:296|160:264|184:192|184:192,1,300,8|0
88,200,7129,5,8
144,128,7329,1,0
232,128,7529,1,4
136,280,7929,1,8
224,280,8129,5,0
272,200,8329,1,4
232,128,8529,1,0
232,40,8729,1,8
312,88,8929,2,0,B|440:96|432:232|432:232,1,200,0|4
312,88,9729,1,0
85,235,10329,6,0,B|37:187|93:139|93:139,2,100,8|0|4
427,149,11129,6,0,B|475:197|419:245|419:245,2,100,8|0|4
212,334,11929,6,0,B|260:382|308:326|308:326,2,100,8|0|4
120,336,12529,2,0,B|-8:320|32:184|32:184,1,200,0|4
208,192,13329,5,0
296,192,13529,1,8
336,112,13729,1,0
376,192,13929,1,4
336,368,14329,1,8
336,280,14529,1,4
256,344,16329,5,0
168,336,16529,1,0
104,272,16729,1,2
104,184,16929,1,0
192,248,17129,5,0
280,240,17329,1,0
344,176,17529,1,2
344,88,17729,1,2
264,152,17929,5,0
184,112,18129,1,0
104,72,18329,1,2
24,112,18529,1,0
184,32,18729,5,0
264,72,18929,1,0
344,32,19129,1,2
424,72,19329,1,2
264,152,19529,6,0,B|264:216|336:232|336:232,1,100
232,240,19929,2,0,B|144:304|144:304,1,100,2|0
264,152,20329,6,0,B|264:88|336:72|336:72,1,100
232,64,20729,2,2,B|144:0|144:0,1,100
32,192,21129,6,0,B|32:88|32:88|32:80,1,100
104,192,21529,2,0,B|104:296|104:296,1,100,2|0
256,192,21929,6,0,B|256:80|256:80,1,100
184,192,22329,2,2,B|184:296|184:296,1,100
376,344,22729,5,8
456,344,22929,1,0
328,280,23129,1,8
504,280,23329,1,0
376,136,23529,5,8
456,136,23729,1,0
328,200,23929,1,8
504,200,24129,1,2
232,280,24329,5,8
232,200,24529,1,0
168,328,24729,1,8
168,152,24929,1,0
24,280,25129,5,8
24,200,25329,1,0
88,328,25529,1,8
88,152,25729,1,2
256,32,25929,6,0,B|144:32|144:32,1,100,8|0
320,88,26329,2,0,B|320:16|248:32|248:32,1,100,8|0
419,88,26729,6,0,B|315:88|315:88,1,100,8|0
419,188,27129,2,0,B|419:68|419:68,1,100,8|2
256,192,27529,1,4
256,48,29129,6,0,B|256:160|256:160,1,100,4|2
256,336,29529,2,0,B|256:224|256:224,1,100,8|2
173,74,29929,2,0,B|237:165|237:165,1,100,4|2
338,309,30329,2,8,B|274:218|274:218,1,100,10|8
120,142,30729,6,0,B|225:181|225:181,1,100,4|2
391,241,31129,2,0,B|286:202|286:202,1,100,8|2
116,229,31529,2,0,B|225:200|225:200,1,100,4|2
395,154,31929,2,8,B|286:183|286:183,1,100,10|8
480,32,32329,6,0,B|480:96|416:104|416:104,1,100,4|2
304,24,32729,2,0,B|424:24|424:24,1,100,8|2
264,24,33129,2,0,B|152:24|152:24,1,100,4|2
24,24,33529,2,8,B|16:88|72:120|72:120,1,100,10|8
200,112,33929,6,0,B|208:176|152:208|152:208,1,100,4|2
272,112,34329,2,0,B|272:224|272:224,1,100,8|2
344,112,34729,2,0,B|336:176|392:208|392:208,1,100,4|2
408,344,35129,2,8,B|408:240|408:240,1,100,10|8
272,240,35529,5,4
160,320,35729,1,2
24,328,35929,2,0,B|26:257|61:232|61:232,1,100,8|2
64,96,36329,1,4
58,235,36529,1,2
184,168,36729,2,8,B|248:168|256:96|256:96,1,100,10|8
392,96,37129,5,4
480,200,37329,1,2
392,320,37529,1,8
312,200,37729,1,2
224,96,37929,1,4
136,200,38129,1,2
224,320,38329,1,10
312,200,38529,1,8
224,96,38729,6,0,B|160:96|160:32|160:32,3,100,4|2|8|2
104,160,39529,2,0,B|104:264|104:264,3,100,4|2|10|8
200,160,40329,6,0,B|336:152|336:24|336:24|448:24|448:24|448:104|448:104,1,400,4|0
256,296,41529,5,0
256,16,41929,1,4
256,16,42329,1,2
24,24,43129,5,2
56,160,43329,1,0
192,192,43529,1,4
472,192,43929,1,2
472,32,44729,5,2
472,312,45129,1,4
88,168,45729,1,2
256,96,46329,5,2
152,192,46529,1,0
256,288,46729,1,4
360,192,46929,1,0
256,96,47129,1,0
256,360,47929,5,2
120,360,48129,1,0
56,232,48329,1,4
336,232,48729,1,2
256,24,49529,5,2
120,24,49729,1,0
56,152,49929,1,4
336,152,50329,1,2
256,352,51129,5,2
256,352,51329,1,0
176,352,51529,1,4
144,352,51629,1,0
112,352,51729,1,0
80,344,51829,1,0
72,312,51929,5,8
72,280,52029,1,2
48,256,52129,1,2
24,232,52229,1,2
24,200,52329,1,4
24,168,52429,1,0
24,136,52529,1,0
24,104,52629,1,0
48,80,52729,5,8
72,56,52829,1,2
104,56,52929,1,2
136,72,53029,1,2
144,104,53129,1,4
480,352,54729,5,4
344,352,54929,2,0,B|344:304|344:304,2,50,2|0|8
208,352,55329,1,2
72,352,55529,2,0,B|72:288|120:264|120:264,1,100,4|2
120,128,55929,2,8,B|120:232|120:232,1,100,10|8
216,128,56329,5,4
352,128,56529,2,0,B|352:80|352:80,2,50,2|0|8
488,128,56929,1,2
424,248,57129,2,0,B|488:248|488:312|488:312,1,100,4|2
323,248,57529,2,8,B|427:248|427:248,1,100,10|8
224,248,57929,5,4
80,248,58129,1,2
80,248,58229,1,0
80,248,58329,1,8
152,128,58529,1,2
288,128,58729,2,0,B|352:128|352:56|352:56,1,100,4|2
448,168,59129,2,8,B|448:272|448:272,1,100,10|8
336,352,59529,5,4
200,352,59729,1,2
200,352,59829,1,0
200,352,59929,1,8
264,232,60129,1,2
128,232,60329,1,4
128,232,60429,1,0
128,232,60529,1,2
128,96,60729,2,8,B|184:88|216:144|216:144,1,100,10|8
352,144,61129,5,4
488,144,61329,1,2
368,216,61529,1,8
416,88,61729,1,2
464,216,61929,1,4
416,344,62129,1,2
416,208,62329,1,10
416,344,62529,1,8
280,352,62729,5,4
144,352,62929,1,2
216,232,63129,1,8
336,304,63329,1,2
216,376,63529,1,4
280,256,63729,1,2
216,376,63929,1,10
96,296,64129,1,8
96,160,64329,5,4
104,24,64529,1,2
160,152,64729,1,8
96,280,64929,1,2
40,152,65129,1,4
104,24,65329,1,2
96,160,65529,1,10
168,40,65729,1,8
304,40,65929,6,0,B|408:40|408:40,1,100,4|2
304,136,66329,2,0,B|192:136|192:136,1,100,8|2
304,232,66729,2,0,B|416:232|416:232,1,100,4|2
304,328,67129,2,0,B|192:328|192:328,1,100,10|8
64,328,67529,1,4
256,32,69129,6,0,B|256:160|392:160|392:160,1,200,4|8
456,232,69729,1,2
384,304,69929,2,0,B|328:264|280:312|280:312,1,100,4|0
336,216,70329,2,0,B|208:184|194:72|194:72,1,200,8|4
112,32,70929,1,2
16,32,71129,6,0,B|16:96|80:128|80:128,1,100,8|0
104,208,71529,2,0,B|248:208|248:360|248:360,1,200,4|8
336,352,72129,1,2
432,352,72329,2,0,B|432:288|382:266|382:266,2,100,4|0|8
480,264,72929,5,4
480,64,73329,1,8
296,152,73729,1,4
32,152,74329,6,0,B|24:216|80:240|80:240|80:240,1,100,8|2
192,328,74729,2,0,B|200:264|144:240|144:240|144:240,1,100,4|0
272,328,75129,6,0,B|264:264|320:240|320:240|320:240,1,100,8|2
432,152,75529,2,0,B|440:216|384:240|384:240|384:240,1,100,4|0
232,216,75929,6,0,B|232:112|232:112,2,100,8|2|4
232,368,76529,2,0,B|232:288|232:288|319:282|303:193|303:193,1,200,0|8
480,192,77329,6,0,B|400:200|392:144|392:144,1,100,0|8
248,192,77729,2,0,B|328:200|336:144|336:144,1,100,2|4
480,48,78129,6,0,B|400:40|392:96|392:96,1,100,0|8
248,48,78529,2,0,B|328:40|336:96|336:96,1,100,2|4
368,232,78929,2,0,B|344:296|344:296|280:264|280:264|256:336|256:336|168:280|168:280,1,300,0|4
32,192,80195,5,0
96,192,80329,2,0,B|224:184|192:24|192:24,1,200,4|8
480,192,80995,5,0
416,192,81129,2,0,B|288:184|328:64|328:64,1,133.333333333333,4|0
312,48,81529,1,8
256,168,81795,5,0
256,232,81929,2,0,B|256:328|176:328|176:328,1,133.333333333333,4|0
112,328,82329,2,0,B|112:280|168:256|168:256|168:216|168:216,1,133.333333333333,8|0
168,152,82729,1,4
216,32,82995,1,0
216,96,83129,1,8
336,32,83395,5,0
400,32,83529,2,0,B|496:32|496:136|496:136,1,133.333333333333,4|0
432,128,83929,2,0,B|344:128|344:224|344:224,1,133.333333333333,8|0
278,212,84329,2,0,B|278:211|279:128|191:128,1,133.333333333333,4|0
128,112,84729,2,0,B|127:112|124:33|220:33,1,133.333333333333,8|0
280,32,85129,5,4
336,152,85395,1,8
280,344,85795,1,4
80,344,86195,1,0
144,344,86329,1,8
80,232,86595,5,0
144,232,86729,2,0,B|224:224|216:136|216:136,1,133.333333333333,4|0
218,70,87129,2,0,B|303:81|279:172|279:172,1,133.333333333333,8|0
480,168,87795,1,8
400,352,88195,5,0
336,352,88329,2,0,B|256:352|256:264|256:264,1,133.333333333333,4|0
192,264,88729,2,0,B|192:176|104:176|104:176,1,133.333333333333,8|0
40,176,89129,1,4
80,48,89395,1,0
144,48,89529,1,8
280,48,89795,5,0
344,48,89929,2,0,B|432:48|432:136|432:136,1,133.333333333333,4|0
432,200,90329,2,0,B|352:168|320:248|320:248,1,133.333333333333,8|0
320,312,90729,2,0,B|176:312|176:312,1,133.333333333333,4|0
120,312,91129,2,0,B|126:243|182:235|235:252|235:252,1,133.333333333333,8|0
216,184,91529,5,4
16,184,91929,1,8
216,184,92329,1,4
256,192,92729,12,4,94729
256,32,107529,6,0,B|120:32|128:160|128:160,1,200,4|8
56,224,108129,2,0,B|0:312|0:312,1,100,2|0
128,256,108529,2,0,B|128:368|128:368,1,100,0|8
200,224,108929,2,0,B|256:312|256:312,1,100,2|4
240,160,109329,2,0,B|344:160|344:160,1,100,0|8
200,96,109729,2,0,B|256:8|256:8,1,100,2|0
240,160,110129,6,0,B|344:160|344:160,1,100,0|8
200,224,110529,2,0,B|256:312|256:312,1,100,2|4
128,256,110929,2,0,B|128:368|128:368,1,100,0|8
56,224,111329,2,0,B|0:312|0:312,1,100,2|0
128,160,111729,1,0
128,64,111929,5,8
208,120,112129,1,2
288,64,112329,1,4
384,64,112529,1,0
480,64,112729,2,0,B|480:144|413:161|413:161|413:237|413:237,1,200,8|0
416,336,113329,1,2
328,280,113529,6,0,B|328:279|252:279|252:279|235:346|155:346,1,200,8|4
168,248,114129,2,0,B|104:160|104:160,1,100,2|8
232,176,114529,2,0,B|141:115|141:115,1,100
272,88,114929,2,0,B|166:61|166:61,1,100,2|8
320,168,115329,6,0,B|311:165|417:192,1,100,0|4
294,224,115730,2,0,B|286:219|376:279,1,100,2|8
254,271,116129,2,0,B|248:263|312:351,1,100
192,288,116529,2,0,B|189:279|219:384,1,100,2|8
128,272,116929,1,0
192,192,117129,6,0,B|184:144|184:144,7,50,4|0|2|0|8|0|0|0
200,96,117929,2,0,B|240:48|240:48,7,50,4|0|2|0|8|0|0|0
280,56,118729,1,4
176,120,120329,6,0,B|96:48|96:48,1,100,4|2
336,264,120729,2,0,B|416:336|416:336,1,100,8|2
256,192,121129,1,4
336,120,121329,1,2
256,192,121529,1,10
176,264,121729,1,8
336,264,121929,6,0,B|416:336|416:336,1,100,4|2
176,120,122329,2,0,B|96:48|96:48,1,100,8|2
256,192,122729,1,4
176,264,122929,1,2
256,192,123129,1,10
336,120,123329,1,8
480,128,123529,6,0,B|480:16|480:16,1,100,4|2
480,256,123929,2,0,B|480:368|480:368,1,100,8|2
392,200,124329,1,4
304,200,124529,1,2
224,152,124729,1,10
200,64,124929,1,8
32,128,125129,6,0,B|32:16|32:16,1,100,4|2
32,256,125529,2,0,B|32:368|32:368,1,100,8|2
120,184,125929,1,4
208,184,126129,1,2
288,232,126329,1,10
312,320,126529,1,8
400,320,126729,6,0,B|384:192|480:136|480:136,1,200,4|8
472,56,127329,1,2
384,56,127529,2,0,B|264:56|264:56,1,100,4|2
64,56,127929,2,8,B|184:56|184:56,1,100,10|8
224,136,128329,6,0,B|272:192|232:232|160:304|256:352|256:352,1,200,4|8
312,352,128929,1,2
400,352,129129,2,0,B|400:240|400:240,1,100,4|2
400,40,129529,2,8,B|400:152|400:152,1,100,10|8
296,200,129929,6,0,B|408:200|408:200,1,100,4|2
184,200,130329,2,0,B|72:200|72:200,1,100,8|2
240,120,130729,1,4
240,120,130929,1,2
296,48,131129,1,10
296,48,131329,1,8
384,48,131529,1,4
256,184,133129,5,4
256,48,133395,1,0
256,112,133529,1,8
112,192,133795,1,0
176,192,133929,1,0
256,336,134195,1,0
256,272,134329,1,8
400,192,134595,5,0
336,192,134729,1,4
256,48,134995,1,0
256,112,135129,1,8
256,272,135395,1,0
72,352,135795,5,0
136,352,135929,1,8
72,240,136195,1,0
64,176,136329,6,0,B|72:88|152:88|152:88,1,133.333333333333,4|0
216,256,136729,2,0,B|136:214|178:135|178:135,1,133.333333333333,8|0
336,192,137129,2,0,B|247:208|231:119|231:119,1,133.333333333333
312,8,137529,2,0,B|223:-8|207:80|207:80,1,133.333333333333,8|0
144,72,137929,5,4
32,144,138195,1,0
24,344,138595,1,0
224,352,138995,1,0
288,352,139129,1,8
424,352,139395,5,0
424,352,139529,1,4
416,216,139795,1,0
416,216,139929,1,8
312,128,140195,1,0
112,128,140595,1,8
312,128,140995,5,0
312,128,141129,1,4
216,40,141395,1,0
216,40,141529,1,8
112,128,141795,1,0
216,376,142329,1,8
216,240,142595,5,0
280,240,142729,2,0,B|280:376|280:376,1,133.333333333333,4|0
344,240,143129,2,0,B|344:376|344:376,1,133.333333333333,8|0
400,240,143529,2,0,B|400:96|400:96,1,133.333333333333
464,240,143929,2,0,B|464:104|464:104,1,133.333333333333,8|0
256,192,144329,12,4,145529
140,104,145929,5,4
212,48,146129,1,0
300,48,146329,1,8
372,104,146529,1,0
372,280,146729,5,4
300,336,146929,1,0
212,336,147129,1,8
140,280,147329,1,0
139,104,147529,5,4
105,189,147729,1,0
140,280,147929,1,12
212,336,148129,1,0
372,279,148329,5,4
406,194,148529,1,0
372,104,148729,1,8
300,48,148929,1,0
256,240,149129,5,4
256,112,149329,1,0
320,224,149529,1,8
192,216,149729,1,0
192,88,149929,1,4
320,88,150129,1,0
256,200,150329,1,8
256,72,150529,1,0
128,72,150729,5,4
56,176,150929,1,0
128,280,151129,1,12
128,152,151329,1,0
56,256,151529,1,4
128,152,151729,1,0
200,256,151929,1,8
328,256,152129,1,0
456,256,152329,6,0,B|456:144|456:144,1,100,4|0
456,156,152729,2,0,B|456:88|400:80|400:80,1,100,8|0
402,80,153129,2,0,B|336:64|320:120|320:120,1,100,4|0
320,118,153529,2,0,B|208:120|208:120,1,100,8|0
220,119,153929,6,0,B|160:128|144:64|144:64,1,100,4|0
145,68,154329,2,0,B|72:64|72:136|72:136,1,100,12|0
73,122,154729,2,0,B|72:224|72:224,1,100,4|0
72,222,155129,2,0,B|136:224|136:288|136:288,1,100,8|0
256,192,155529,12,4,157129
32,192,158729,5,4
32,200,158829,1,0
32,208,158929,1,2
32,216,159029,1,0
32,224,159129,1,10
128,192,159329,1,0
128,184,159429,1,2
128,176,159529,1,4
224,192,159729,1,0
224,200,159829,1,2
224,208,159929,1,8
320,192,160129,1,8
416,192,160329,5,4
416,200,160429,1,0
416,208,160529,1,0
416,216,160629,1,2
416,224,160729,1,10
320,192,160929,1,0
320,184,161029,1,2
320,176,161129,1,4
224,192,161329,1,0
224,200,161429,1,2
224,208,161529,1,8
128,192,161729,1,8
224,32,161929,5,4
216,32,162029,1,0
208,32,162129,1,0
200,32,162229,1,2
192,32,162329,1,10
288,32,162529,1,0
296,32,162629,1,2
304,32,162729,1,4
256,128,162929,1,0
256,136,163029,1,2
256,144,163129,1,8
256,240,163329,1,8
224,336,163529,5,4
216,336,163629,1,0
208,336,163729,1,0
200,336,163829,1,2
192,336,163929,1,10
288,336,164129,1,0
296,336,164229,1,2
304,336,164329,1,4
256,240,164529,1,0
256,232,164629,1,2
256,224,164729,1,8
256,128,164929,1,8
160,128,165129,5,4
64,128,165329,1,0
64,136,165429,1,2
64,144,165529,1,10
160,128,165729,1,0
160,136,165829,1,2
160,144,165929,1,4
256,128,166129,1,0
256,120,166229,1,2
256,112,166329,1,10
256,16,166529,1,8
352,16,166729,5,4
432,72,166929,1,0
440,80,167029,1,2
448,88,167129,1,10
384,160,167329,1,0
376,152,167429,1,2
368,144,167529,1,4
288,208,167729,1,0
296,216,167829,1,2
304,224,167929,1,10
400,256,168129,1,0
328,320,168329,6,0,B|216:320|216:320,1,100,4|0
218,320,168629,1,2
208,320,168729,2,0,B|120:272|120:272,1,100,10|0
120,264,169029,1,2
120,256,169129,2,0,B|64:160|64:160,1,100,4|0
70,161,169429,1,2
70,152,169529,2,0,B|186:153|186:153,1,100,10|0
256,192,169929,12,4,171129
256,104,171529,6,0,B|256:264|256:264,1,150,4|0
136,136,172329,6,0,B|96:184|136:232|136:232,1,100,4|2
376,232,172729,2,0,B|416:184|376:136|376:136,1,100,8|2
256,256,173129,6,0,B|256:104|256:104,1,150,4|0
208,320,173929,6,0,B|264:352|304:320|304:320,1,100,4|2
304,40,174329,2,0,B|248:8|208:40|208:40,1,100,8|2
136,192,174729,6,0,B|40:192|40:192|8:144|8:144,1,150,4|0
208,192,175529,6,0,B|272:192|272:256|272:256,1,100,4|2
112,120,175929,2,0,B|48:120|48:56|48:56,1,100,8|2
280,192,176329,6,0,B|376:192|376:192|408:240|408:240,1,150,4|0
208,192,177129,6,0,B|144:192|144:128|144:128,1,100,4|2
304,264,177529,2,0,B|368:264|368:328|368:328,1,100,8|2
200,352,177929,6,0,B|112:352|112:352|72:296|72:296,1,150,4|0
72,200,178729,5,4
168,200,178929,1,2
264,200,179129,2,0,B|264:136|216:112|216:112,1,100,8|2
216,16,179529,6,0,B|304:16|304:16|336:72|336:72,1,150,4|0
432,72,180329,5,4
384,160,180529,1,2
384,256,180729,1,8
312,328,180929,1,2
216,328,181129,6,0,B|128:328|128:328|80:376|80:376,1,150,4|0
40,280,181929,5,4
136,248,182129,1,2
64,176,182329,1,8
160,152,182529,1,2
256,192,182729,12,4,184529
