osu file format v12

[General]
AudioFilename: rainbow.mp3
AudioLeadIn: 0
PreviewTime: 31273
Countdown: 0
SampleSet: Soft
StackLeniency: 0.5
Mode: 0
LetterboxInBreaks: 0
WidescreenStoryboard: 0

[Editor]
Bookmarks: 3845,17559,17666,31273,44880,44987,58702,74130,74237,87845,101559,115273,128987,142380,142702,149559,163273,176987,178702,192416,206130
DistanceSpacing: 0.8
BeatDivisor: 4
GridSize: 4

[Metadata]
Title:Colours Of The Rainbow
TitleUnicode:Colours Of The Rainbow
Artist:ItaloBrothers vs. Tune Up!
ArtistUnicode:ItaloBrothers vs. Tune Up!
Creator:Lally
Version:Normal
Source:
Tags:Stamp! colors techno
BeatmapID:245967
BeatmapSetID:90719

[Difficulty]
HPDrainRate:4
CircleSize:3
OverallDifficulty:4
ApproachRate:5
SliderMultiplier:1.4
SliderTickRate:1

[Events]
//Background and Video events
0,0,"colors.jpg",0,0
//Break Periods
2,60416,69502
2,101759,110645
2,142902,145787
//Storyboard Layer 0 (Background)
//Storyboard Layer 1 (Fail)
//Storyboard Layer 2 (Pass)
//Storyboard Layer 3 (Foreground)
//Storyboard Sound Samples
//Background Colour Transformations
3,100,163,162,255

[TimingPoints]
3845,428.571428571429,4,2,1,40,1,0
17559,-100,4,2,1,50,0,0
31273,-100,4,1,1,60,0,1
44559,-100,4,1,1,50,0,0
44987,-100,4,1,1,60,0,1
58702,-100,4,1,1,40,0,0
74130,-100,4,2,1,60,0,0
101559,-100,4,2,1,5,0,0
115273,-100,4,2,1,40,0,0
128987,-100,4,2,1,50,0,0
142702,-100,4,2,1,35,0,0
149559,-100,4,1,1,60,0,1
162844,-100,4,1,1,60,0,0
163273,-100,4,1,1,60,0,1
176987,-100,4,1,1,60,0,0
178702,-100,4,2,1,60,0,0
204416,-100,4,2,1,40,0,0
206130,-100,4,2,1,30,0,0
207844,-100,4,2,1,5,0,0

[Colours]
Combo1 : 224,37,245
Combo2 : 255,49,26
Combo3 : 251,169,79
Combo4 : 210,216,7
Combo5 : 141,248,35
Combo6 : 31,245,165
Combo7 : 104,249,249
Combo8 : 115,43,236

[HitObjects]
76,152,3845,2,0,P|104:112|192:80,1,140,0|0,1:0|3:0,0:0:0:0:
300,68,4702,2,0,P|360:48|376:20,2,70,2|2|2,0:0|3:0|3:0,0:0:0:0:
240,164,5559,2,0,P|204:208|196:248,1,70,2|0,0:0|0:0,0:0:0:0:
184,272,5987,2,0,P|136:308|32:288,2,140,0|2|2,3:0|0:0|3:0,0:0:0:0:
296,280,7273,6,0,P|360:244|376:184,1,140,2|0,0:0|3:0,0:0:0:0:
384,68,8130,1,2,0:0:0:0:
336,40,8345,1,2,3:0:0:0:
280,28,8559,1,2,3:0:0:0:
204,112,8987,2,0,P|164:160|88:168,2,140,2|0|2,0:0|3:0|0:0,0:0:0:0:
104,56,10273,1,2,3:0:0:0:
91,168,10702,6,0,P|67:200|35:216,2,70,2|0|0,0:0|0:0|3:0,0:0:0:0:
196,124,11559,2,0,P|264:96|348:124,1,140,2|2,0:0|3:0,0:0:0:0:
416,176,12416,2,0,P|460:140|448:52,2,140,2|0|2,0:0|3:0|0:0,0:0:0:0:
372,208,13487,2,0,P|336:228|288:232,1,70,2|2,3:0|3:0,0:0:0:0:
212,176,14130,6,0,P|172:124|72:120,1,140,0|0,1:0|3:0,0:0:0:0:
32,196,14987,2,0,P|8:252|-16:280,2,70,2|2|2,0:0|3:0|3:0,0:0:0:0:
20,84,15845,2,0,P|56:44|156:40,1,140,2|0,0:0|3:0,0:0:0:0:
216,112,16702,2,0,P|308:168|360:144,1,140,2|2,0:0|3:0,0:0:0:0:
420,92,17559,6,0,L|480:44,2,70,0|0|8,1:0|0:0|0:0,0:0:0:0:
436,204,18416,2,0,P|464:284|408:332,1,140,2|8,0:0|0:1,0:0:0:0:
336,268,19273,2,0,P|300:232|208:224,1,140,2|8,0:0|0:0,0:0:0:0:
132,296,20130,2,0,P|84:344|56:352,2,70,2|8|8,0:0|0:1|0:1,0:0:0:0:
120,184,20987,6,0,P|116:112|168:56,1,140,2|8,0:0|0:0,0:0:0:0:
224,148,21845,2,0,P|272:132|300:104,2,70,2|8|8,0:0|0:1|0:1,0:0:0:0:
212,260,22702,2,0,P|252:308|352:308,1,140,2|8,0:0|0:0,0:0:0:0:
436,308,23559,2,0,P|496:292|516:268,2,70,2|8|8,0:0|0:1|0:1,0:0:0:0:
356,228,24416,6,0,P|308:176|304:92,1,140,0|8,1:0|0:0,0:0:0:0:
188,128,25273,2,0,P|196:194|244:246,1,140,2|8,0:0|0:1,0:0:0:0:
332,316,26130,2,0,P|272:352|184:336,1,140,2|8,0:0|0:0,0:0:0:0:
116,280,26987,2,0,P|76:276|36:280,2,70,2|8|8,0:0|0:1|0:1,0:0:0:0:
256,192,27845,12,8,30845,0:1:0:0:
196,308,31273,6,0,P|164:264|160:180,1,140,4|8,2:1|0:0,0:0:0:0:
128,72,32130,2,0,P|84:44|48:40,2,70,0|0|8,0:0|0:0|0:0,0:0:0:0:
236,104,32987,2,0,P|296:96|372:44,1,140,0|8,0:0|0:0,0:0:0:0:
412,156,33845,2,0,P|352:164|276:216,1,140,0|8,0:0|0:0,0:0:0:0:
228,300,34702,6,0,P|264:348|288:360,2,70,4|0|8,2:1|0:0|0:0,0:0:0:0:
184,196,35559,2,0,P|148:160|44:168,1,140,0|8,0:0|0:0,0:0:0:0:
96,264,36416,2,0,P|92:324|20:360,2,140,0|8|0,0:0|0:0|0:0,0:0:0:0:
64,156,37702,1,8,0:0:0:0:
92,108,37916,1,0,0:0:0:0:
132,72,38130,6,0,P|188:48|260:88,1,140,4|8,2:1|0:0,0:0:0:0:
348,144,38987,2,0,P|388:136|424:96,2,70,0|0|8,0:0|0:0|0:0,0:0:0:0:
248,192,39845,2,0,P|184:224|180:308,2,140,0|8|0,0:0|0:0|0:0,0:0:0:0:
300,208,40916,2,0,P|340:224|376:216,1,70,0|8,0:0|0:0,0:0:0:0:
416,120,41559,6,0,L|436:32,2,70,4|0|8,2:1|0:0|0:0,0:0:0:0:
480,212,42416,2,0,L|460:300,2,70,0|0|8,0:0|0:0|0:0,0:0:0:0:
256,192,43273,12,0,44559,0:0:0:0:
216,336,44987,6,0,P|164:336|112:260,1,140,4|8,2:1|0:0,0:0:0:0:
92,160,45845,1,0,0:0:0:0:
124,112,46059,1,0,0:0:0:0:
176,88,46273,1,8,0:0:0:0:
284,64,46702,6,0,L|328:128,1,70,0|0,0:0|0:0,0:0:0:0:
376,100,47130,2,0,L|420:164,1,70,8|0,0:0|0:0,0:0:0:0:
472,164,47559,2,0,P|496:256|448:288,1,140,0|8,0:0|0:0,0:0:0:0:
376,336,48416,5,4,2:1:0:0:
320,324,48630,1,0,0:0:0:0:
268,300,48845,2,0,P|216:272|196:188,1,140,8|0,0:0|0:0,0:0:0:0:
196,88,49702,2,0,P|256:48|324:68,2,140,8|0|8,0:0|0:0|0:0,0:0:0:0:
96,136,50987,1,0,0:0:0:0:
56,240,51416,1,8,0:0:0:0:
76,292,51630,1,0,0:0:0:0:
112,336,51845,6,0,P|180:364|252:340,1,140,4|8,2:1|0:0,0:0:0:0:
184,252,52702,2,0,P|245:235|313:263,1,140,0|8,0:0|0:0,0:0:0:0:
340,372,53559,2,0,P|408:324|424:248,1,140,0|8,0:0|0:0,0:0:0:0:
432,160,54416,2,0,P|468:120|500:108,2,70,0|0|8,0:0|0:0|0:0,0:0:0:0:
256,192,55273,12,4,58702,0:0:0:0:
256,192,70702,12,0,73273,0:0:0:0:
164,192,74130,6,0,L|76:192,2,70,4|0|8,0:1|0:0|0:0,0:0:0:0:
256,132,74987,1,0,1:0:0:0:
256,244,75416,2,0,L|256:336,2,70,8|0|0,0:0|0:0|1:0,0:0:0:0:
352,184,76273,2,0,P|392:164|408:52,1,140,8|0,0:0|1:0,0:0:0:0:
324,20,77130,1,8,0:0:0:0:
268,36,77345,1,0,0:0:0:0:
224,72,77559,6,0,P|176:96|84:64,2,140,0|8|0,1:0|0:0|1:0,0:0:0:0:
320,128,78845,1,8,0:0:0:0:
400,204,79273,2,0,P|436:176|464:144,2,70,0|0|8,1:0|0:0|0:0,0:0:0:0:
292,240,80130,1,0,1:0:0:0:
200,300,80559,2,0,P|168:312|120:308,1,70,8|0,0:0|0:0,0:0:0:0:
76,308,80987,6,0,P|28:276|24:200,1,140,0|8,1:0|0:0,0:0:0:0:
88,104,81845,2,0,P|136:80|240:72,1,140,0|8,1:0|0:0,0:0:0:0:
332,100,82702,2,0,P|364:64|360:12,2,70,0|0|8,1:0|0:0|0:0,0:0:0:0:
268,192,83559,2,0,P|248:236|304:316,1,140,0|8,1:0|0:0,0:0:0:0:
336,340,84202,1,0,0:0:0:0:
380,304,84416,6,0,P|412:256|504:256,2,140,0|8|0,1:0|0:0|1:0,0:0:0:0:
292,372,85702,1,8,0:0:0:0:
196,316,86130,1,0,1:0:0:0:
128,228,86559,6,0,L|92:220|44:216,4,70,8|0|0|0|8,0:0|0:0|1:0|0:0|0:0,0:0:0:0:
240,216,87845,6,0,P|300:180|324:116,1,140,4|8,0:1|0:0,0:0:0:0:
216,112,88702,2,0,P|244:44|312:12,2,140,0|8|0,1:0|0:0|1:0,0:0:0:0:
124,176,89987,2,0,P|84:164|48:124,2,70,8|0|0,0:0|0:0|1:0,0:0:0:0:
172,280,90845,1,8,0:0:0:0:
212,320,91059,1,0,0:0:0:0:
260,344,91273,6,0,P|320:356|400:320,1,140,0|8,1:0|0:0,0:0:0:0:
436,224,92130,2,0,P|476:204|520:204,2,70,0|0|8,1:0|0:0|0:0,0:0:0:0:
324,240,92987,2,0,P|276:172|288:104,1,140,0|8,1:0|0:0,0:0:0:0:
352,32,93845,1,0,1:0:0:0:
436,104,94273,2,0,P|464:140|472:172,1,70,8|0,0:0|0:0,0:0:0:0:
476,220,94702,6,0,P|468:272|388:336,1,140,0|8,1:0|0:0,0:0:0:0:
336,240,95559,2,0,P|312:192|216:172,1,140,0|8,1:0|0:0,0:0:0:0:
120,172,96416,2,0,P|92:140|88:88,2,70,0|0|8,1:0|0:0|0:0,0:0:0:0:
184,264,97273,2,0,P|192:312|288:352,1,140,0|8,1:0|0:0,0:0:0:0:
256,192,98130,12,4,101559,0:0:0:0:
256,192,111845,12,0,114845,0:0:0:0:
236,348,115273,6,0,P|172:320|156:252,1,140,0|8,1:0|0:1,0:0:0:0:
108,156,116130,2,0,P|84:124|36:104,2,70,2|8|8,0:0|1:2|1:2,0:0:0:0:
220,172,116987,2,0,P|292:148|332:88,1,140,0|8,1:0|0:1,0:0:0:0:
224,60,117845,1,2,0:0:0:0:
172,84,118059,1,8,1:2:0:0:
128,116,118273,1,8,1:2:0:0:
40,184,118702,6,0,P|53:229|44:268,1,70,0|0,1:0|0:0,0:0:0:0:
60,308,119130,2,0,P|96:356|192:364,2,140,8|2|8,0:1|0:0|1:2,0:0:0:0:
160,260,120416,2,0,P|204:200|276:200,1,140,0|8,1:0|0:1,0:0:0:0:
376,204,121273,2,0,P|428:188|452:164,2,70,2|8|8,0:0|1:2|1:2,0:0:0:0:
316,108,122130,6,0,P|288:52|204:36,1,140,0|8,1:0|0:1,0:0:0:0:
116,76,122987,1,2,0:0:0:0:
76,116,123202,1,8,1:2:0:0:
64,172,123416,1,8,1:2:0:0:
104,276,123845,6,0,P|56:316|20:328,2,70,0|0|8,1:0|0:0|0:1,0:0:0:0:
172,184,124702,1,2,0:0:0:0:
264,120,125130,1,8,1:2:0:0:
324,224,125559,6,0,P|368:272|444:268,2,140,0|8|2,1:0|0:1|0:0,0:0:0:0:
296,180,126630,2,0,P|272:148|264:108,1,70,8|8,1:2|1:2,0:0:0:0:
256,192,127273,12,8,128559,0:1:0:0:
196,272,128987,6,0,P|156:292|104:280,2,70,0|0|8,1:0|0:0|0:0,0:0:0:0:
256,176,129845,2,0,P|304:120|380:124,1,140,2|8,0:0|0:1,0:0:0:0:
452,192,130702,2,0,P|484:120|456:56,2,140,0|8|2,1:0|0:0|0:0,0:0:0:0:
416,232,131773,2,0,P|380:264|344:280,1,70,8|8,0:1|0:1,0:0:0:0:
256,316,132416,5,0,1:0:0:0:
152,272,132845,1,8,0:0:0:0:
72,196,133273,2,0,P|32:164|0:156,2,70,2|8|8,0:0|0:1|0:1,0:0:0:0:
180,168,134130,2,0,P|236:108|308:108,1,140,0|8,1:0|0:0,0:0:0:0:
404,104,134987,2,0,P|464:64|472:48,2,70,2|8|8,0:0|0:1|0:1,0:0:0:0:
336,196,135845,6,0,P|312:268|248:292,1,140,0|8,1:0|0:0,0:0:0:0:
172,220,136702,2,0,P|124:176|36:176,2,140,2|8|0,0:0|0:1|1:0,0:0:0:0:
144,328,137987,1,8,0:0:0:0:
52,264,138416,2,0,P|20:320|16:356,2,70,2|8|8,0:0|0:1|0:1,0:0:0:0:
116,172,139273,6,0,P|148:104|216:92,1,140,0|8,1:0|0:0,0:0:0:0:
320,92,140130,2,0,P|380:80|408:56,2,70,2|8|8,0:0|0:1|0:1,0:0:0:0:
256,192,140987,12,4,142702,0:0:0:0:
256,192,146987,12,0,149130,0:0:0:0:
264,192,149559,6,0,P|244:148|216:128,1,70,4|0,2:1|0:0,0:0:0:0:
184,100,149987,2,0,P|140:80|48:100,2,140,8|0|8,0:0|0:0|0:0,0:0:0:0:
116,188,151273,2,0,P|92:264|108:328,1,140,0|8,0:0|0:0,0:0:0:0:
212,356,152130,1,0,0:0:0:0:
316,312,152559,1,8,0:0:0:0:
364,284,152773,1,0,0:0:0:0:
408,248,152987,6,0,P|460:196|464:120,1,140,4|8,2:1|0:0,0:0:0:0:
360,92,153845,2,0,P|420:32|488:28,2,140,0|8|0,0:0|0:0|0:0,0:0:0:0:
296,184,155130,2,0,P|248:212|208:220,1,70,8|0,0:0|0:0,0:0:0:0:
180,228,155559,2,0,P|116:216|48:168,1,140,0|8,0:0|0:0,0:0:0:0:
20,280,156416,6,0,P|84:292|152:340,1,140,4|8,2:1|0:0,0:0:0:0:
252,372,157273,1,0,0:0:0:0:
320,284,157702,2,0,P|364:240|396:236,1,70,8|0,0:0|0:0,0:0:0:0:
420,216,158130,2,0,P|472:184|480:104,2,140,0|8|0,0:0|0:0|0:0,0:0:0:0:
336,144,159416,1,8,0:0:0:0:
312,36,159845,6,0,L|392:36,2,70,4|0|8,2:1|0:0|0:0,0:0:0:0:
200,36,160702,2,0,L|120:36,2,70,0|0|8,0:0|0:0|0:0,0:0:0:0:
256,192,161559,12,0,162845,0:0:0:0:
176,276,163273,6,0,P|120:264|92:236,2,70,4|0|8,2:1|0:0|0:0,0:0:0:0:
256,196,164130,2,0,P|312:164|408:184,1,140,0|8,0:0|0:0,0:0:0:0:
476,236,164987,1,0,0:0:0:0:
428,336,165416,2,0,P|376:352|308:296,1,140,8|0,0:0|0:0,0:0:0:0:
252,208,166273,2,0,P|224:176|188:152,1,70,8|0,0:0|0:0,0:0:0:0:
156,128,166702,6,0,P|120:104|16:112,2,140,4|8|0,2:1|0:0|0:0,0:0:0:0:
176,236,167987,1,8,0:0:0:0:
256,312,168416,1,0,0:0:0:0:
296,272,168630,1,0,0:0:0:0:
336,236,168845,1,8,0:0:0:0:
420,164,169273,2,0,P|360:128|288:136,1,140,0|8,0:0|0:0,0:0:0:0:
244,164,169916,1,0,0:0:0:0:
204,200,170130,6,0,P|136:206|76:170,2,140,4|8|0,2:1|0:0|0:0,0:0:0:0:
296,132,171416,1,8,0:0:0:0:
372,52,171845,2,0,P|336:28|296:24,2,70,0|0|8,0:0|0:0|0:0,0:0:0:0:
408,156,172702,2,0,P|412:232|368:272,1,140,0|8,0:0|0:0,0:0:0:0:
268,320,173559,6,0,P|288:356|336:376,2,70,4|0|8,2:1|0:0|0:0,0:0:0:0:
280,208,174416,2,0,P|260:172|212:152,2,70,0|0|8,0:0|0:0|0:0,0:0:0:0:
256,192,175273,12,0,176987,0:0:0:0:
260,64,178273,6,0,P|232:84|188:88,1,70,0|0,0:0|0:0,0:0:0:0:
144,104,178702,2,0,P|96:132|72:224,1,140,4|8,0:1|0:0,0:0:0:0:
136,300,179559,2,0,P|92:324|48:316,2,70,0|0|8,1:0|0:0|0:0,0:0:0:0:
228,240,180416,2,0,P|276:216|364:260,1,140,0|8,1:0|0:0,0:0:0:0:
436,320,181273,1,0,1:0:0:0:
452,208,181702,6,0,P|440:160|428:144,1,70,8|0,0:0|0:0,0:0:0:0:
396,96,182130,2,0,P|348:56|256:60,1,140,0|8,1:0|0:0,0:0:0:0:
164,76,182987,2,0,P|108:56|88:32,2,70,0|0|8,1:0|0:0|0:0,0:0:0:0:
256,144,183845,2,0,P|284:176|292:212,1,70,0|0,1:0|0:0,0:0:0:0:
296,256,184273,2,0,P|284:308|208:344,1,140,8|0,0:0|1:0,0:0:0:0:
100,340,185130,5,8,0:0:0:0:
56,308,185345,1,0,0:0:0:0:
28,260,185559,2,0,P|12:208|56:136,1,140,0|8,1:0|0:0,0:0:0:0:
156,96,186416,2,0,P|160:56|136:16,2,70,0|0|8,1:0|0:0|0:0,0:0:0:0:
148,208,187273,2,0,P|192:256|276:248,1,140,0|8,1:0|0:0,0:0:0:0:
372,224,188130,1,0,1:0:0:0:
440,132,188559,6,0,P|400:92|360:84,1,70,8|0,0:0|0:0,0:0:0:0:
340,64,188987,2,0,P|284:44|200:72,1,140,0|8,1:0|0:0,0:0:0:0:
128,144,189845,1,0,1:0:0:0:
200,228,190273,1,8,0:0:0:0:
236,124,190702,1,0,1:0:0:0:
128,144,191130,6,0,L|92:136|44:132,4,70,8|0|0|0|8,0:0|0:0|1:0|0:0|0:0,0:0:0:0:
240,168,192416,6,0,P|300:204|324:268,1,140,4|8,0:1|0:0,0:0:0:0:
216,272,193273,2,0,P|244:340|312:372,2,140,0|8|0,1:0|0:0|1:0,0:0:0:0:
124,208,194558,2,0,P|84:220|48:260,2,70,8|0|0,0:0|0:0|1:0,0:0:0:0:
172,104,195416,1,8,0:0:0:0:
212,64,195630,1,0,0:0:0:0:
260,40,195844,6,0,P|320:28|400:64,1,140,0|8,1:0|0:0,0:0:0:0:
436,160,196701,2,0,P|476:180|520:180,2,70,0|0|8,1:0|0:0|0:0,0:0:0:0:
324,144,197558,2,0,P|276:212|288:280,1,140,0|8,1:0|0:0,0:0:0:0:
352,352,198416,1,0,1:0:0:0:
436,280,198844,6,0,P|464:244|472:212,1,70,8|0,0:0|0:0,0:0:0:0:
476,164,199273,2,0,P|468:112|388:48,1,140,0|8,1:0|0:0,0:0:0:0:
336,144,200130,2,0,P|312:192|216:212,1,140,0|8,1:0|0:0,0:0:0:0:
120,212,200987,2,0,P|92:244|88:296,2,70,0|0|8,1:0|0:0|0:0,0:0:0:0:
184,120,201844,2,0,P|192:72|288:32,1,140,0|8,1:0|0:0,0:0:0:0:
372,68,202702,6,0,P|408:68|464:44,2,70,0|0|8,1:0|0:0|0:0,0:0:0:0:
324,172,203559,2,0,P|288:172|232:196,2,70,0|0|8,1:0|0:0|0:0,0:0:0:0:
256,192,204416,12,0,207845,0:0:0:0:
