osu file format v12

[General]
AudioFilename: rainbow.mp3
AudioLeadIn: 0
PreviewTime: 31273
Countdown: 0
SampleSet: Soft
StackLeniency: 0.4
Mode: 0
LetterboxInBreaks: 0
WidescreenStoryboard: 0

[Editor]
Bookmarks: 37595
DistanceSpacing: 1
BeatDivisor: 4
GridSize: 4

[Metadata]
Title:Colours Of The Rainbow
TitleUnicode:Colours Of The Rainbow
Artist:ItaloBrothers vs. Tune Up!
ArtistUnicode:ItaloBrothers vs. Tune Up!
Creator:Lally
Version:Hard
Source:
Tags:Stamp! colors techno
BeatmapID:245966
BeatmapSetID:90719

[Difficulty]
HPDrainRate:7
CircleSize:4
OverallDifficulty:7
ApproachRate:8
SliderMultiplier:1.6
SliderTickRate:1

[Events]
//Background and Video events
0,0,"colors.jpg",0,0
//Break Periods
2,60416,69952
2,101759,111095
2,142902,146237
//Storyboard Layer 0 (Background)
//Storyboard Layer 1 (Fail)
//Storyboard Layer 2 (Pass)
//Storyboard Layer 3 (Foreground)
//Storyboard Sound Samples
//Background Colour Transformations
3,100,163,162,255

[TimingPoints]
3845,428.571428571429,4,2,1,40,1,0
17559,-100,4,2,1,50,0,0
31273,-83.3333333333333,4,1,1,60,0,1
44559,-83.3333333333333,4,1,1,50,0,0
44987,-83.3333333333333,4,1,1,60,0,1
58702,-100,4,1,1,40,0,0
74130,-100,4,2,1,60,0,0
101559,-100,4,2,1,5,0,0
115273,-100,4,2,1,40,0,0
128987,-100,4,2,1,50,0,0
142702,-100,4,2,1,35,0,0
149559,-83.3333333333333,4,1,1,60,0,1
162844,-83.3333333333333,4,1,1,60,0,0
163273,-83.3333333333333,4,1,1,60,0,1
176987,-83.3333333333333,4,1,1,60,0,0
178273,-100,4,2,1,60,0,0
204416,-100,4,2,1,40,0,0
206130,-100,4,2,1,30,0,0
207844,-100,4,2,1,5,0,0

[Colours]
Combo1 : 224,37,245
Combo2 : 255,49,26
Combo3 : 251,169,79
Combo4 : 210,216,7
Combo5 : 141,248,35
Combo6 : 31,245,165
Combo7 : 104,249,249
Combo8 : 115,43,236

[HitObjects]
84,308,3845,2,0,P|136:332|228:256,1,160,0|0,1:0|3:0,0:0:0:0:
216,204,4487,2,0,P|176:212|148:241,1,80,0|2,0:0|0:0,0:0:0:0:
120,312,4916,1,2,3:0:0:0:
116,320,5130,1,2,3:0:0:0:
408,360,5559,6,0,P|444:308|440:264,1,80,2|0,0:0|0:0,0:0:0:0:
432,216,5987,2,0,P|412:176|424:112,2,80,0|0|2,3:0|0:0|0:0,0:0:0:0:
476,284,6630,1,2,3:0:0:0:
484,293,6845,1,2,3:0:0:0:
418,142,7273,6,0,P|378:106|334:98,1,80,2|0,0:0|0:0,0:0:0:0:
346,178,7702,2,0,P|292:176|253:198,1,80,0|0,3:0|0:0,0:0:0:0:
314,254,8130,2,0,P|271:287|256:329,1,80,2|2,0:0|3:0,0:0:0:0:
256,324,8559,1,2,3:0:0:0:
136,220,8987,6,0,P|88:184|48:88,1,160,2|0,0:0|3:0,0:0:0:0:
128,92,9630,2,0,P|152:132|184:156,1,80,0|2,0:0|0:0,0:0:0:0:
220,220,10059,1,2,3:0:0:0:
228,232,10273,1,2,3:0:0:0:
424,216,10702,6,0,P|396:280|356:292,1,80,2|0,0:0|0:0,0:0:0:0:
316,307,11130,2,0,P|272:292|224:312,2,80,0|0|2,3:0|0:0|0:0,0:0:0:0:
380,356,11773,1,2,3:0:0:0:
389,361,11987,1,2,3:0:0:0:
88,212,12416,6,0,P|108:160|136:140,1,80,2|0,0:0|0:0,0:0:0:0:
204,164,12845,2,0,P|196:108|104:72,1,160,0|2,3:0|0:0,0:0:0:0:
44,116,13487,1,2,3:0:0:0:
40,128,13702,1,2,3:0:0:0:
304,188,14130,6,0,P|290:225|259:248,1,80,0|0,1:0|0:0,0:0:0:0:
181,245,14559,2,0,P|150:268|137:306,1,80,0|0,3:0|0:0,0:0:0:0:
216,318,14987,1,2,0:0:0:0:
260,250,15202,1,2,3:0:0:0:
268,246,15416,1,2,3:0:0:0:
432,156,15845,6,0,P|448:88|368:48,1,160,2|0,0:0|3:0,0:0:0:0:
308,80,16487,2,0,P|260:104|224:108,1,80,0|2,0:0|0:0,0:0:0:0:
156,116,16916,1,2,3:0:0:0:
144,116,17130,1,2,3:0:0:0:
144,276,17559,6,0,B|184:236|184:236|280:184,1,160,0|8,1:0|0:0,0:0:0:0:
242,299,18202,2,0,L|312:260,1,80,0|2,0:0|0:0,0:0:0:0:
356,192,18630,1,8,0:1:0:0:
364,192,18845,1,8,0:1:0:0:
480,80,19273,6,0,P|456:56|388:48,1,80,2|0,0:0|0:0,0:0:0:0:
344,84,19702,2,0,P|308:112|256:124,2,80,8|0|2,0:0|0:0|0:0,0:0:0:0:
412,128,20345,1,8,0:1:0:0:
416,137,20559,1,8,0:1:0:0:
328,268,20987,6,0,P|380:240|444:280,1,120,2|0,0:0|0:0,0:0:0:0:
432,262,21416,2,0,P|464:212|488:200,2,80,8|0|2,0:0|0:0|0:0,0:0:0:0:
444,340,22059,1,8,0:1:0:0:
440,350,22273,1,8,0:1:0:0:
372,204,22702,6,0,P|344:136|300:120,1,120,2|0,0:0|0:0,0:0:0:0:
264,128,23130,2,0,P|192:156|128:92,2,160,8|2|8,0:0|0:0|0:1,0:0:0:0:
204,76,24202,1,0,0:0:0:0:
280,48,24416,6,0,P|320:32|368:32,1,80,0|0,1:0|0:0,0:0:0:0:
336,108,24845,2,0,P|376:121|413:152,1,80,8|0,0:0|0:0,0:0:0:0:
356,208,25273,2,0,P|432:216|488:152,2,160,2|8|2,0:0|0:1|0:0,0:0:0:0:
284,176,26345,6,0,P|244:160|200:164,1,80,0|8,0:0|0:0,0:0:0:0:
132,184,26773,1,0,0:0:0:0:
88,248,26987,2,0,P|56:192|104:108,1,160,2|8,0:0|0:1,0:0:0:0:
256,192,27845,12,8,30845,0:1:0:0:
160,160,31273,6,0,P|180:104|208:80,1,95.9999970703126,4|0,2:1|0:0,0:0:0:0:
304,84,31702,2,0,P|284:140|256:164,1,95.9999970703126,8|0,0:0|0:0,0:0:0:0:
204,244,32130,1,0,0:0:0:0:
116,276,32345,2,0,P|76:280|32:240,1,95.9999970703126,0|8,0:0|0:0,0:0:0:0:
64,156,32773,1,0,0:0:0:0:
124,80,32987,6,0,P|92:36|40:32,2,95.9999970703126,0|0|8,0:0|0:0|0:0,0:0:0:0:
160,168,33630,1,0,0:0:0:0:
190,260,33845,2,0,P|104:244|64:156,1,191.999994140625,0|8,0:0|0:0,0:0:0:0:
220,48,34702,6,0,P|272:36|328:56,1,95.9999970703126,4|0,2:1|0:0,0:0:0:0:
372,120,35130,2,0,P|428:108|460:72,2,95.9999970703126,8|0|0,0:0|0:0|0:0,0:0:0:0:
332,308,35987,1,8,0:0:0:0:
140,324,36416,5,0,0:0:0:0:
88,140,36845,1,8,0:0:0:0:
156,72,37059,1,0,0:0:0:0:
248,48,37273,2,0,P|296:40|348:56,1,95.9999970703126
384,140,37702,2,0,P|428:100|440:52,1,95.9999970703126,8|0,0:0|0:0,0:0:0:0:
341,52,38130,6,0,P|297:92|285:140,1,95.9999970703126,4|0,2:1|0:0,0:0:0:0:
248,216,38559,2,0,P|216:268|164:292,1,95.9999970703126,8|0,0:0|0:0,0:0:0:0:
108,340,38987,2,0,P|60:360|8:352,2,95.9999970703126,0|0|8,0:0|0:0|0:0,0:0:0:0:
48,264,39630,1,0,0:0:0:0:
48,264,39845,6,0,P|60:208|100:180,1,95.9999970703126
164,128,40273,2,0,B|208:96|208:96|232:48,1,95.9999970703126,8|0,0:0|0:0,0:0:0:0:
324,40,40702,2,0,L|236:240,1,191.999994140625,0|8,0:0|0:0,0:0:0:0:
88,324,41559,6,0,P|32:336|-12:300,2,95.9999970703126,4|0|8,2:1|0:0|0:0,0:0:0:0:
156,255,42202,1,0,0:0:0:0:
223,187,42416,2,0,P|279:175|323:211,2,95.9999970703126,0|0|8,0:0|0:0|0:0,0:0:0:0:
128,164,43059,1,0,0:0:0:0:
140,68,43273,6,0,P|188:24|224:24,1,95.9999970703126
372,68,43702,2,0,P|324:24|288:24,1,95.9999970703126,8|0,0:0|0:0,0:0:0:0:
256,204,44130,2,0,L|256:108,2,95.9999970703126,0|0|8,0:0|0:0|0:0,0:0:0:0:
40,344,44987,6,0,L|96:260,1,95.9999970703126,4|0,2:1|0:0,0:0:0:0:
242,184,45416,2,8,L|189:264,1,95.9999970703126,8|0,0:0|0:0,0:0:0:0:
174,116,45845,2,0,L|227:36,1,95.9999970703126,0|0,0:0|0:0,0:0:0:0:
78,116,46273,2,8,L|25:196,1,95.9999970703126,8|0,0:0|0:0,0:0:0:0:
28,292,46702,5,0,0:0:0:0:
256,352,47130,1,8,0:0:0:0:
484,292,47559,1,0,0:0:0:0:
360,148,47987,1,8,0:0:0:0:
308,228,48202,1,0,0:0:0:0:
308,228,48416,6,0,P|268:176|264:128,1,95.9999970703126,4|0,2:1|0:0,0:0:0:0:
442,99,48845,2,0,L|360:148,1,95.9999970703126,8|0,0:0|0:0,0:0:0:0:
181,196,49273,2,0,L|264:148,1,95.9999970703126
316,68,49702,1,8,0:0:0:0:
224,40,49916,1,0,0:0:0:0:
132,64,50130,6,0,P|80:88|64:216,2,191.999994140625,0|8|0,0:0|0:0|0:0,0:0:0:0:
216,236,51416,2,0,P|256:268|320:264,1,95.9999970703126,8|0,0:0|0:0,0:0:0:0:
288,176,51845,6,0,P|339:174|385:130,1,95.9999970703126,4|0,2:1|0:0,0:0:0:0:
304,84,52273,2,0,P|342:50|349:-13,2,95.9999970703126,8|0|0,0:0|0:0|0:0,0:0:0:0:
212,120,52916,1,0,0:0:0:0:
140,184,53130,2,0,L|68:252,1,95.9999970703126,8|0,0:0|0:0,0:0:0:0:
36,140,53559,6,0,L|108:72,1,95.9999970703126,0|0,0:0|0:0,0:0:0:0:
200,36,53987,2,0,P|280:64|292:92,1,95.9999970703126,8|0,0:0|0:0,0:0:0:0:
288,164,54416,2,0,P|336:208|376:216,2,95.9999970703126,0|0|8,0:0|0:0|0:0,0:0:0:0:
196,332,55273,6,0,P|144:304|120:268,1,95.9999970703126,4|0,2:1|0:0,0:0:0:0:
104,88,55702,2,0,P|156:116|180:152,1,95.9999970703126,8|0,0:0|0:0,0:0:0:0:
124,276,56130,2,0,P|104:306|52:334,1,95.9999970703126
31,145,56559,2,0,P|52:116|104:88,1,95.9999970703126,8|0,0:0|0:0,0:0:0:0:
256,192,56987,12,4,58702,0:0:0:0:
256,192,70702,12,0,73702,1:0:0:0:
296,308,74130,6,0,P|348:280|352:172,1,160,4|8,0:1|0:0,0:0:0:0:
316,120,74773,1,0,0:0:0:0:
308,112,74880,1,0,0:0:0:0:
300,104,74987,1,0,1:0:0:0:
224,76,75202,2,0,P|252:40|312:28,1,80,0|8,0:0|0:0,0:0:0:0:
444,40,75845,6,0,P|480:64|488:112,1,80
486,181,76273,2,0,P|440:204|432:308,1,160,8|0,0:0|1:0,0:0:0:0:
500,264,76916,1,0,0:0:0:0:
500,264,77130,2,0,P|448:240|392:232,1,80,8|0,0:0|0:0,0:0:0:0:
348,216,77559,6,0,P|300:208|240:112,1,160,0|8,1:0|0:0,0:0:0:0:
300,68,78202,1,0,0:0:0:0:
308,76,78309,1,0,0:0:0:0:
316,84,78416,1,0,1:0:0:0:
376,140,78630,1,0,0:0:0:0:
348,216,78845,2,0,P|336:284|264:316,1,120,8|0,0:0|0:0,0:0:0:0:
297,312,79273,2,0,P|248:240|168:240,2,160,0|8|0,1:0|0:0|1:0,0:0:0:0:
140,336,80559,5,8,0:0:0:0:
76,288,80773,1,0,0:0:0:0:
32,220,80987,2,0,P|28:160|52:120,1,80,0|0,1:0|0:0,0:0:0:0:
96,88,81416,2,0,P|152:88|184:64,1,80,8|0,0:0|0:0,0:0:0:0:
319,96,81845,2,0,P|263:96|244:108,1,80,0|0,1:0|0:0,0:0:0:0:
143,224,82273,2,0,P|159:180|184:160,1,80,8|0,0:0|0:0,0:0:0:0:
248,207,82702,6,0,P|232:251|208:272,1,80,0|0,1:0|0:0,0:0:0:0:
140,320,83130,1,8,0:0:0:0:
132,328,83237,1,0,0:0:0:0:
124,336,83345,1,0,0:0:0:0:
48,364,83559,2,0,P|16:312|56:224,1,160,0|8,1:0|0:0,0:0:0:0:
124,192,84202,1,0,0:0:0:0:
200,168,84416,6,0,B|252:168|280:184|280:184|308:156|360:140,2,160,0|8|0,1:0|0:0|1:0,0:0:0:0:
140,116,85487,1,0,0:0:0:0:
64,96,85702,2,0,P|96:52|144:40,1,80,8|0,0:0|0:0,0:0:0:0:
196,64,86130,2,0,P|268:64|300:48,1,80,0|0,1:0|0:0,0:0:0:0:
336,112,86559,5,8,0:0:0:0:
340,120,86773,1,0,0:0:0:0:
344,128,86987,1,0,1:0:0:0:
348,136,87202,1,0,0:0:0:0:
380,208,87416,2,0,P|408:236|472:240,1,80,8|0,0:0|0:0,0:0:0:0:
452,324,87845,6,0,P|413:333|385:361,1,80,4|0,0:1|0:0,0:0:0:0:
312,328,88273,2,0,P|321:289|292:232,1,80,8|0,0:0|0:0,0:0:0:0:
292,168,88702,2,0,P|256:144|168:212,1,160,0|8,1:0|0:0,0:0:0:0:
148,276,89345,1,0,0:0:0:0:
124,352,89559,6,0,P|72:352|40:328,1,80,0|0,1:0|0:0,0:0:0:0:
16,264,89987,1,8,0:0:0:0:
32,184,90202,1,0,0:0:0:0:
108,164,90416,1,0,1:0:0:0:
124,80,90630,2,0,P|92:80|52:104,1,80,0|8,0:0|0:0,0:0:0:0:
108,164,91059,6,0,P|140:164|180:140,1,80,0|0,0:0|1:0,0:0:0:0:
240,88,91487,1,0,0:0:0:0:
306,46,91702,2,0,P|320:108|248:168,2,160,8|0|8,0:0|1:0|0:0,0:0:0:0:
240,88,92773,1,0,0:0:0:0:
180,140,92987,5,0,1:0:0:0:
172,148,93095,1,0,0:0:0:0:
164,156,93202,1,0,0:0:0:0:
160,236,93416,2,0,P|116:224|96:188,1,80,8|0,0:0|0:0,0:0:0:0:
72,120,93845,2,0,P|44:88|-4:88,1,80,0|0,1:0|0:0,0:0:0:0:
12,164,94273,2,0,P|16:228|32:248,1,80,8|0,0:0|0:0,0:0:0:0:
88,288,94702,6,0,P|144:316|176:312,1,80,0|0,1:0|0:0,0:0:0:0:
224,360,95130,2,0,P|239:360|295:332,1,80,8|0,0:0|0:0,0:0:0:0:
304,252,95559,2,0,P|272:216|220:204,1,80,0|0,1:0|0:0,0:0:0:0:
164,208,95987,2,0,P|176:164|208:136,1,80,8|0,0:0|0:0,0:0:0:0:
280,136,96416,6,0,P|264:88|224:68,1,80,0|0,1:0|0:0,0:0:0:0:
160,68,96845,1,8,0:0:0:0:
152,76,96952,1,0,0:0:0:0:
144,84,97059,1,0,0:0:0:0:
64,88,97273,2,0,P|88:140|188:152,1,160,0|8,1:0|0:0,0:0:0:0:
256,192,98130,12,4,101559,0:0:0:0:
256,192,111845,12,0,114845,0:0:0:0:
328,276,115273,6,0,P|304:212|220:196,1,160,0|8,1:0|0:1,0:0:0:0:
252,268,115916,2,0,P|212:304|184:308,1,80,0|2,0:0|0:0,0:0:0:0:
108,296,116345,1,8,1:2:0:0:
96,292,116559,1,8,1:2:0:0:
112,132,116987,6,0,P|132:76|196:56,1,120,0|0,1:0|0:0,0:0:0:0:
224,68,117416,2,0,P|264:84|312:76,2,80,8|0|2,0:1|0:0|0:0,0:0:0:0:
188,140,118059,1,8,1:2:0:0:
188,152,118273,1,8,1:2:0:0:
260,296,118702,6,0,L|352:232,1,80,0|0,1:0|0:0,0:0:0:0:
368,320,119130,2,0,P|404:280|408:244,1,80,8|0,0:1|0:0,0:0:0:0:
372,184,119559,1,2,0:0:0:0:
452,188,119773,1,8,1:2:0:0:
464,192,119987,1,8,1:2:0:0:
400,44,120416,6,0,P|320:48|288:92,1,120,0|0,1:0|0:0,0:0:0:0:
276,108,120845,2,0,P|256:148|144:160,1,160,8|2,0:1|0:0,0:0:0:0:
196,100,121487,1,8,1:2:0:0:
188,92,121702,1,8,1:2:0:0:
76,208,122130,6,0,P|136:216|160:248,1,80,0|0,1:0|0:0,0:0:0:0:
148,308,122559,2,0,P|196:292|216:260,1,80,8|0,0:1|0:0,0:0:0:0:
220,188,122987,2,0,P|256:168|308:176,1,80,2|8,0:0|1:2,0:0:0:0:
308,176,123416,1,8,1:2:0:0:
368,228,123630,5,0,0:0:0:0:
320,292,123845,2,0,P|380:304|448:216,2,160,0|8|2,1:0|0:1|0:0,0:0:0:0:
256,336,124916,1,8,1:2:0:0:
248,344,125130,1,8,1:2:0:0:
92,312,125559,6,0,L|32:256,1,80,0|0,1:0|0:0,0:0:0:0:
90,200,125987,2,0,L|148:254,1,80,8|0,0:1|0:0,0:0:0:0:
205,197,126416,2,0,L|145:141,1,80,2|8,0:0|1:2,0:0:0:0:
137,133,126845,1,8,1:2:0:0:
256,192,127273,12,8,128559,0:1:0:0:
148,76,128987,6,0,L|184:152,1,80,0|0,1:0|0:0,0:0:0:0:
364,76,129416,2,0,L|329:148,1,80,8|0,0:0|0:0,0:0:0:0:
256,263,129845,2,0,L|256:183,1,80,2|8,0:0|0:1,0:0:0:0:
257,170,130273,1,8,0:1:0:0:
64,340,130702,6,0,P|20:308|24:232,1,120,0|0,1:0|0:0,0:0:0:0:
15,246,131130,2,0,P|76:192|56:120,1,160,8|2,0:0|0:0,0:0:0:0:
0,172,131773,1,8,0:1:0:0:
8,176,131987,1,8,0:1:0:0:
148,252,132416,6,0,P|212:268|272:200,1,160,0|8,1:0|0:0,0:0:0:0:
244,128,133059,2,0,P|215:142|191:182,1,80,0|2,0:0|0:0,0:0:0:0:
176,260,133487,1,8,0:1:0:0:
172,268,133702,1,8,0:1:0:0:
188,92,134130,6,0,L|88:92,1,80,0|0,1:0|0:0,0:0:0:0:
324,92,134559,2,0,L|424:92,1,80,8|0,0:0|0:0,0:0:0:0:
256,152,134987,2,0,L|256:244,1,80,2|8,0:0|0:1,0:0:0:0:
256,244,135416,1,8,0:1:0:0:
316,300,135630,5,0,0:0:0:0:
372,356,135845,2,0,P|420:312|440:216,1,160,0|8,1:0|0:0,0:0:0:0:
316,300,136487,2,0,P|356:268|368:236,1,80,0|2,0:0|0:0,0:0:0:0:
392,164,136916,1,8,0:1:0:0:
388,156,137130,1,8,0:1:0:0:
248,76,137559,6,0,P|180:48|112:104,2,160,0|8|2,1:0|0:0|0:0,0:0:0:0:
186,126,138630,1,8,0:1:0:0:
188,136,138845,1,8,0:1:0:0:
256,280,139273,6,0,L|328:316,1,80,0|0,1:0|0:0,0:0:0:0:
289,206,139702,2,0,B|360:244|360:244|444:256,2,160,8|2|8,0:0|0:0|0:1,0:0:0:0:
256,192,140987,12,4,142702,0:0:0:0:
256,192,146987,12,0,149130,0:0:0:0:
208,92,149559,6,0,P|156:120|135:149,1,95.9999970703126,4|0,2:1|0:0,0:0:0:0:
304,292,149987,2,0,P|356:264|377:235,1,95.9999970703126,8|0,0:0|0:0,0:0:0:0:
377,149,150416,2,0,P|347:112|304:92,1,95.9999970703126,0|0,0:0|0:0,0:0:0:0:
134,234,150845,2,0,P|164:271|207:291,1,95.9999970703126,8|0,0:0|0:0,0:0:0:0:
256,208,151273,6,0,P|288:172|352:164,1,95.9999970703126
388,240,151702,2,0,P|419:275|465:287,1,95.9999970703126,8|0,0:0|0:0,0:0:0:0:
512,208,152130,2,0,P|480:172|416:164,2,95.9999970703126,0|0|8,0:0|0:0|0:0,0:0:0:0:
108,200,152987,6,0,P|160:228|180:280,1,95.9999970703126,4|0,2:1|0:0,0:0:0:0:
88,292,153416,2,0,P|36:264|16:212,1,95.9999970703126,8|0,0:0|0:0,0:0:0:0:
40,140,153845,2,0,P|24:92|-12:64,2,95.9999970703126,0|0|8,0:0|0:0|0:0,0:0:0:0:
108,200,154487,1,0,0:0:0:0:
180,264,154702,6,0,P|208:316|196:364,1,95.9999970703126
332,264,155130,2,0,P|304:316|316:364,1,95.9999970703126,8|0,0:0|0:0,0:0:0:0:
404,332,155559,2,0,P|432:280|420:232,1,95.9999970703126
364,172,155987,1,8,0:0:0:0:
420,96,156202,1,0,0:0:0:0:
332,52,156416,6,0,P|280:44|200:112,1,143.999995605469,4|0,2:1|0:0,0:0:0:0:
184,136,156845,2,0,P|156:180|100:192,2,95.9999970703126,8|0|0,0:0|0:0|0:0,0:0:0:0:
148,48,157487,2,0,P|92:36|52:60,2,95.9999970703126,0|8|0,0:0|0:0|0:0,0:0:0:0:
183,137,158130,6,0,P|209:213|204:248,1,95.9999970703126
296,184,158559,2,0,P|280:262|258:290,1,95.9999970703126,8|0,0:0|0:0,0:0:0:0:
368,288,158987,2,0,P|315:348|282:361,2,95.9999970703126,0|0|8,0:0|0:0|0:0,0:0:0:0:
392,196,159630,1,0,0:0:0:0:
444,117,159845,6,0,P|493:58|520:52,2,95.9999970703126,4|0|8,2:1|0:0|0:0,0:0:0:0:
392,196,160487,1,0,0:0:0:0:
369,288,160702,2,0,P|341:337|306:353,2,95.9999970703126,0|0|8,0:0|0:0|0:0,0:0:0:0:
392,196,161345,5,0,0:0:0:0:
444,116,161559,2,0,P|424:56|316:52,1,143.999995605469
312,60,161987,2,0,P|264:108|176:72,1,143.999995605469,8|0,0:0|0:0,0:0:0:0:
164,56,162416,2,0,P|116:20|52:52,2,95.9999970703126,0|0|8,0:0|0:0|0:0,0:0:0:0:
164,272,163273,6,0,P|128:200|100:184,1,95.9999970703126,4|0,2:1|0:0,0:0:0:0:
348,272,163702,2,0,P|384:200|412:184,1,95.9999970703126,8|0,0:0|0:0,0:0:0:0:
488,172,164130,2,0,P|464:124|424:100,1,95.9999970703126
332,108,164559,2,0,P|348:52|392:12,2,95.9999970703126,8|0|0,0:0|0:0|0:0,0:0:0:0:
276,188,165202,5,0,0:0:0:0:
268,200,165309,1,0,0:0:0:0:
260,212,165416,1,8,0:0:0:0:
176,256,165630,2,0,P|212:296|276:304,1,95.9999970703126
336,260,166059,1,0,0:0:0:0:
356,168,166273,2,0,L|428:92,1,95.9999970703126,8|0,0:0|0:0,0:0:0:0:
353,30,166702,6,0,L|281:106,1,95.9999970703126,4|0,2:1|0:0,0:0:0:0:
268,192,167130,2,0,P|224:172|196:124,1,95.9999970703126,8|0,0:0|0:0,0:0:0:0:
148,52,167559,2,0,P|104:32|44:44,1,95.9999970703126
88,128,167987,2,0,P|39:132|-8:169,1,95.9999970703126,8|0,0:0|0:0,0:0:0:0:
72,224,168416,5,0,0:0:0:0:
76,232,168523,1,0,0:0:0:0:
80,240,168630,1,0,0:0:0:0:
164,288,168845,2,0,P|96:332|0:292,2,191.999994140625,8|0|8,0:0|0:0|0:0,0:0:0:0:
252,248,169916,1,0,0:0:0:0:
296,164,170130,6,0,P|332:108|372:96,1,95.9999970703126,4|0,2:1|0:0,0:0:0:0:
216,164,170559,2,0,P|180:108|140:96,1,95.9999970703126,8|0,0:0|0:0,0:0:0:0:
64,128,170987,2,0,P|60:72|92:28,1,95.9999970703126
155,98,171416,2,0,P|187:52|240:39,1,95.9999970703126,8|0,0:0|0:0,0:0:0:0:
313,75,171845,6,0,P|280:120|227:133,1,95.9999970703126
163,185,172273,1,8,0:0:0:0:
156,192,172380,1,0,0:0:0:0:
148,200,172487,1,0,0:0:0:0:
56,224,172702,2,0,P|84:272|132:292,2,95.9999970703126,0|0|8,0:0|0:0|0:0,0:0:0:0:
152,60,173559,6,0,P|208:48|264:120,1,143.999995605469,4|0,2:1|0:0,0:0:0:0:
284,148,173987,2,0,P|308:196|408:208,1,143.999995605469,8|0,0:0|0:0,0:0:0:0:
424,180,174416,2,0,P|456:144|504:144,2,95.9999970703126,0|0|8,0:0|0:0|0:0,0:0:0:0:
256,192,175059,12,4,176987,2:1:0:0:
132,188,178273,6,0,P|103:160|65:151,1,80,0|0,1:0|1:0,0:0:0:0:
60,60,178702,2,0,P|99:51|127:23,1,80,4|0,0:1|0:0,0:0:0:0:
200,56,179130,2,0,P|191:95|220:152,1,80,8|0,0:0|0:0,0:0:0:0:
220,216,179559,2,0,P|256:240|344:172,1,160,0|8,1:0|0:0,0:0:0:0:
364,108,180202,1,0,0:0:0:0:
388,32,180416,6,0,P|440:32|472:56,1,80,0|0,1:0|0:0,0:0:0:0:
496,120,180844,1,8,0:0:0:0:
480,200,181059,1,0,0:0:0:0:
404,220,181273,1,0,1:0:0:0:
388,304,181487,2,0,P|420:304|460:280,1,80,0|8,0:0|0:0,0:0:0:0:
404,220,181916,6,0,P|372:220|332:244,1,80,0|0,0:0|1:0,0:0:0:0:
272,296,182344,1,0,0:0:0:0:
206,338,182559,2,0,P|192:276|264:216,2,160,8|0|8,0:0|1:0|0:0,0:0:0:0:
272,296,183630,1,0,0:0:0:0:
332,244,183844,5,0,1:0:0:0:
340,236,183952,1,0,0:0:0:0:
348,228,184059,1,0,0:0:0:0:
352,148,184273,2,0,P|396:160|416:196,1,80,8|0,0:0|0:0,0:0:0:0:
440,264,184702,2,0,P|468:296|516:296,1,80,0|0,1:0|0:0,0:0:0:0:
500,220,185130,2,0,P|496:156|480:136,1,80,8|0,0:0|0:0,0:0:0:0:
424,96,185559,6,0,P|368:68|336:72,1,80,0|0,1:0|0:0,0:0:0:0:
284,24,185987,2,0,P|268:23|212:51,1,80,8|0,0:0|0:0,0:0:0:0:
208,132,186416,2,0,P|240:168|292:180,1,80,0|0,1:0|0:0,0:0:0:0:
348,176,186844,2,0,P|336:220|304:248,1,80,8|0,0:0|0:0,0:0:0:0:
232,248,187273,6,0,P|248:296|288:316,1,80,0|0,1:0|0:0,0:0:0:0:
352,316,187702,1,8,0:0:0:0:
360,308,187809,1,0,0:0:0:0:
368,300,187916,1,0,0:0:0:0:
448,296,188130,2,0,P|424:244|324:232,1,160,0|8,1:0|0:0,0:0:0:0:
264,276,188773,1,0,0:0:0:0:
212,336,188987,6,0,P|156:328|132:292,1,80,0|0,1:0|0:0,0:0:0:0:
64,296,189416,2,0,P|88:252|128:232,1,80,8|0,0:0|0:0,0:0:0:0:
192,220,189845,2,0,P|168:176|128:156,1,80,0|0,1:0|0:0,0:0:0:0:
64,148,190273,2,0,P|88:104|128:84,1,80,8|0,0:0|0:0,0:0:0:0:
192,96,190702,5,0,1:0:0:0:
196,104,190916,1,0,0:0:0:0:
200,112,191130,1,8,0:0:0:0:
204,120,191345,1,0,0:0:0:0:
208,128,191559,1,0,1:0:0:0:
248,196,191773,2,0,P|300:176|320:128,1,80,0|8,0:0|0:0,0:0:0:0:
296,80,192202,1,0,0:0:0:0:
216,76,192416,6,0,P|164:104|160:212,1,160,4|8,0:1|0:0,0:0:0:0:
196,264,193059,1,0,0:0:0:0:
204,272,193166,1,0,0:0:0:0:
212,280,193273,1,0,1:0:0:0:
288,308,193488,2,0,P|260:344|200:356,1,80,0|8,0:0|0:0,0:0:0:0:
80,300,194131,6,0,P|28:240|28:188,1,120,0|0,1:0|0:0,0:0:0:0:
26,203,194559,2,0,P|72:180|80:76,1,160,8|0,0:0|1:0,0:0:0:0:
12,120,195202,1,0,0:0:0:0:
12,120,195416,2,0,P|64:144|120:152,1,80,8|0,0:0|0:0,0:0:0:0:
164,168,195845,6,0,P|212:176|272:272,1,160,0|8,1:0|0:0,0:0:0:0:
224,328,196488,1,0,0:0:0:0:
176,264,196702,1,0,1:0:0:0:
168,256,196809,1,0,0:0:0:0:
160,248,196916,1,0,0:0:0:0:
164,168,197131,6,0,P|176:100|248:68,1,120,8|0,0:0|0:0,0:0:0:0:
215,72,197559,2,0,P|264:144|344:144,2,160,0|8|0,1:0|0:0|1:0,0:0:0:0:
372,48,198845,5,8,0:0:0:0:
436,96,199059,1,0,0:0:0:0:
480,164,199273,2,0,P|484:224|460:264,1,80,0|0,1:0|0:0,0:0:0:0:
404,272,199702,2,0,P|344:296|320:320,1,80,8|0,0:0|0:0,0:0:0:0:
108,272,200131,2,0,P|168:296|192:320,1,80,0|0,1:0|0:0,0:0:0:0:
256,328,200559,2,0,L|256:244,1,80,8|0,0:0|0:0,0:0:0:0:
264,168,200988,6,0,P|280:124|328:96,1,80,0|0,1:0|0:0,0:0:0:0:
372,64,201416,1,8,0:0:0:0:
380,56,201523,1,0,0:0:0:0:
388,48,201631,1,0,0:0:0:0:
464,20,201845,2,0,P|496:72|456:160,1,160,0|8,1:0|0:0,0:0:0:0:
388,192,202488,1,0,0:0:0:0:
312,216,202702,6,0,B|260:216|232:200|232:200|204:228|152:244,2,160,0|8|0,1:0|0:0|1:0,0:0:0:0:
372,268,203773,1,0,0:0:0:0:
448,288,203988,2,0,P|416:332|368:344,2,80,8|0|0,0:0|0:0|1:0,0:0:0:0:
256,192,204630,12,0,207845,0:0:0:0:
