osu file format v12

[General]
AudioFilename: rainbow.mp3
AudioLeadIn: 0
PreviewTime: 31273
Countdown: 0
SampleSet: Soft
StackLeniency: 0.7
Mode: 0
LetterboxInBreaks: 0
WidescreenStoryboard: 0

[Editor]
Bookmarks: 3845,17559,17666,27845,30416,31273,44880,44987,55273,58702,70702,73273,74130,74237,87845,98130,101559,111845,114416,115273,128987,139273,140987,142380,142702,149559,163273,173559,176987,178702,192416,206130
DistanceSpacing: 0.8
BeatDivisor: 4
GridSize: 4

[Metadata]
Title:Colours Of The Rainbow
TitleUnicode:Colours Of The Rainbow
Artist:ItaloBrothers vs. Tune Up!
ArtistUnicode:ItaloBrothers vs. Tune Up!
Creator:Lally
Version:Easy
Source:
Tags:Stamp! colors techno
BeatmapID:245965
BeatmapSetID:90719

[Difficulty]
HPDrainRate:2
CircleSize:3
OverallDifficulty:2
ApproachRate:3
SliderMultiplier:1.2
SliderTickRate:1

[Events]
//Background and Video events
0,0,"colors.jpg",0,0
//Break Periods
2,60416,69262
2,101759,110405
2,142902,144690
//Storyboard Layer 0 (Background)
//Storyboard Layer 1 (Fail)
//Storyboard Layer 2 (Pass)
//Storyboard Layer 3 (Foreground)
//Storyboard Sound Samples
//Background Colour Transformations
3,100,163,162,255

[TimingPoints]
3845,428.571428571429,4,2,1,40,1,0
17559,-100,4,2,1,50,0,0
31273,-100,4,1,1,60,0,1
44559,-100,4,1,1,50,0,0
44987,-100,4,1,1,60,0,1
58702,-100,4,1,1,40,0,0
74130,-100,4,2,1,60,0,0
101559,-100,4,2,1,5,0,0
115273,-100,4,2,1,40,0,0
128987,-100,4,2,1,50,0,0
142702,-100,4,2,1,35,0,0
149559,-100,4,1,1,60,0,1
162844,-100,4,1,1,60,0,0
163273,-100,4,1,1,60,0,1
176987,-100,4,1,1,60,0,0
178702,-100,4,2,1,50,0,0
204416,-100,4,2,1,40,0,0
206130,-100,4,2,1,30,0,0
207844,-100,4,2,1,5,0,0

[Colours]
Combo1 : 224,37,245
Combo2 : 255,49,26
Combo3 : 251,169,79
Combo4 : 210,216,7
Combo5 : 141,248,35
Combo6 : 31,245,165
Combo7 : 104,249,249
Combo8 : 115,43,236

[HitObjects]
72,260,3845,6,0,P|104:164|136:148,1,120,0|0,1:0|3:0,0:0:0:0:
200,112,4702,1,2,0:0:0:0:
256,192,5130,1,2,3:0:0:0:
312,112,5559,2,0,P|356:152|368:216,1,120,2|0,0:0|3:0,0:0:0:0:
348,304,6416,2,0,P|412:296|460:248,1,120,2|2,0:0|3:0,0:0:0:0:
492,168,7273,6,0,P|484:96|428:68,1,120,2|0,0:0|3:0,0:0:0:0:
356,100,8130,2,0,L|300:40,2,60,2|2|2,0:0|3:0|3:0,0:0:0:0:
400,184,8987,2,0,P|424:240|492:264,2,120,2|0|2,0:0|3:0|0:0,0:0:0:0:
356,100,10273,1,2,3:0:0:0:
312,184,10702,6,0,L|296:256,2,60,2|0|0,0:0|0:0|3:0,0:0:0:0:
260,104,11559,2,0,P|216:72|136:84,1,120,2|2,0:0|3:0,0:0:0:0:
84,144,12416,1,2,0:0:0:0:
148,220,12845,2,0,P|196:240|216:320,2,120,0|2|2,3:0|0:0|3:0,0:0:0:0:
52,220,14130,6,0,L|8:272,2,60,0|0|0,1:0|0:0|3:0,0:0:0:0:
101,136,14987,2,0,P|125:88|205:76,1,120,2|2,0:0|3:0,0:0:0:0:
256,136,15845,1,2,0:0:0:0:
326,70,16273,2,0,P|387:88|411:136,2,120,0|2|2,3:0|0:0|3:0,0:0:0:0:
256,136,17559,5,0,1:0:0:0:
196,212,17987,2,0,P|164:264|96:272,1,120,8|2,0:0|0:0,0:0:0:0:
36,216,18845,2,0,L|8:160,2,60,8|0|2,0:1|0:0|0:0,0:0:0:0:
20,312,19702,1,8,0:0:0:0:
100,364,20130,2,0,P|164:332|232:344,1,120,2|8,0:0|0:1,0:0:0:0:
256,252,20987,6,0,L|206:180,2,60,2|0|8,0:0|0:0|0:0,0:0:0:0:
301,335,21845,2,0,P|344:288|336:212,1,120,2|8,0:0|0:1,0:0:0:0:
332,140,22702,2,0,P|400:84|452:76,2,120,2|8|2,0:0|0:0|0:0,0:0:0:0:
256,196,23987,1,8,0:1:0:0:
180,140,24416,6,0,P|112:84|60:76,2,120,0|8|2,1:0|0:0|0:0,0:0:0:0:
176,236,25702,1,8,0:1:0:0:
256,292,26130,1,2,0:0:0:0:
336,236,26559,1,8,0:1:0:0:
332,140,26987,2,0,P|400:84|452:76,1,120,2|8,0:0|0:1,0:0:0:0:
256,192,27845,12,0,30416,0:0:0:0:
48,196,31273,6,0,P|88:120|140:116,1,120,4|8,2:1|0:0,0:0:0:0:
200,156,32130,1,0,0:0:0:0:
256,76,32559,1,8,0:0:0:0:
312,156,32987,1,0,0:0:0:0:
397,113,33416,2,0,P|424:120|464:196,1,120,8|0,0:0|1:0,0:0:0:0:
276,332,34702,6,0,P|228:360|208:360,2,60,4|0|8,2:1|0:0|0:0,0:0:0:0:
332,256,35559,2,0,P|316:184|260:160,1,120,0|8,0:0|0:0,0:0:0:0:
184,152,36416,1,0,0:0:0:0:
92,124,36845,1,8,0:0:0:0:
52,36,37273,1,0,0:0:0:0:
148,44,37702,2,0,P|196:36|212:40,1,60,8|0,0:0|0:0,0:0:0:0:
252,44,38130,6,0,P|308:64|348:124,2,120,4|8|0,2:1|0:0|0:0,0:0:0:0:
204,128,39416,1,8,0:0:0:0:
116,172,39845,2,0,P|64:180|44:172,2,60,0|0|8,0:0|0:0|0:0,0:0:0:0:
200,216,40702,2,0,P|252:264|312:268,1,120,0|8,0:0|0:0,0:0:0:0:
256,192,41559,12,0,44130,0:0:0:0:
300,108,44987,6,0,P|356:176|352:216,1,120,4|8,2:1|0:0,0:0:0:0:
328,296,45845,1,0,0:0:0:0:
256,232,46273,1,8,0:0:0:0:
184,296,46702,1,0,0:0:0:0:
156,203,47130,2,0,P|156:176|212:108,1,120,8|0,0:0|1:0,0:0:0:0:
296,60,47987,1,8,0:0:0:0:
396,56,48416,6,0,P|436:44|468:16,2,60,4|0|8,2:1|0:0|0:0,0:0:0:0:
344,136,49273,2,0,P|312:160|292:248,1,120,0|8,0:0|0:0,0:0:0:0:
288,332,50130,2,0,P|208:348|168:308,2,120,0|8|0,0:0|0:0|0:0,0:0:0:0:
372,284,51416,2,0,P|412:256|424:236,1,60,8|0,0:0|0:0,0:0:0:0:
444,208,51845,6,0,P|464:148|424:88,1,120,4|8,2:1|0:0,0:0:0:0:
348,80,52702,1,0,0:0:0:0:
256,104,53130,1,8,0:0:0:0:
164,80,53559,1,0,0:0:0:0:
71,99,53987,2,0,P|48:148|68:208,1,120,8|0,0:0|0:0,0:0:0:0:
132,280,54845,1,8,0:0:0:0:
256,192,55273,12,4,58702,0:0:0:0:
256,192,70702,12,0,73273,0:0:0:0:
200,244,74130,6,0,P|178:157|139:129,1,120,4|8,0:1|0:0,0:0:0:0:
85,75,74987,2,0,L|36:31,2,60,0|0|8,1:0|0:0|0:0,0:0:0:0:
64,168,75845,1,0,1:0:0:0:
96,260,76273,1,8,0:0:0:0:
168,324,76702,1,0,1:0:0:0:
256,284,77130,6,0,L|256:204,2,60,8|0|0,0:0|0:0|1:0,0:0:0:0:
344,324,77987,2,0,P|384:304|404:224,1,120,8|0,0:0|1:0,0:0:0:0:
384,144,78845,1,8,0:0:0:0:
312,80,79273,2,0,P|368:48|428:56,2,120,0|8|0,1:0|0:0|1:0,0:0:0:0:
256,156,80559,6,0,L|256:240,2,60,8|0|0,0:0|0:0|1:0,0:0:0:0:
200,80,81416,2,0,P|144:48|84:56,1,120,8|0,0:0|1:0,0:0:0:0:
32,128,82273,1,8,0:0:0:0:
128,144,82702,2,0,P|180:176|256:156,1,120,0|8,1:0|0:0,0:0:0:0:
320,124,83559,1,0,1:0:0:0:
416,112,83987,6,0,P|388:52|316:24,2,120,8|0|8,0:0|1:0|0:0,0:0:0:0:
368,196,85273,1,0,1:0:0:0:
304,268,85702,1,8,0:0:0:0:
256,184,86130,1,0,1:0:0:0:
320,112,86559,2,0,P|272:56|216:48,2,120,8|0|8,0:0|1:0|0:0,0:0:0:0:
256,184,87845,6,0,B|224:236|288:256|256:312,1,120,4|8,0:1|0:0,0:0:0:0:
180,344,88702,2,0,P|116:356|60:328,1,120,0|8,1:0|0:0,0:0:0:0:
28,248,89559,1,0,1:0:0:0:
44,152,89987,1,8,0:0:0:0:
88,68,90416,2,0,P|152:76|184:144,1,120,0|8,1:0|0:0,0:0:0:0:
256,180,91273,6,0,L|256:260,2,60,0|0|8,1:0|0:0|0:0,0:0:0:0:
329,118,92130,2,0,P|360:76|424:68,1,120,0|8,1:0|0:0,0:0:0:0:
468,152,92987,1,0,1:0:0:0:
484,248,93416,1,8,0:0:0:0:
396,288,93845,1,0,1:0:0:0:
304,260,94273,6,0,P|332:216|360:204,2,60,8|0|0,0:0|0:0|1:0,0:0:0:0:
324,352,95130,2,0,P|240:328|212:280,2,120,8|0|8,0:0|1:0|0:0,0:0:0:0:
420,336,96416,1,0,1:0:0:0:
472,256,96845,1,8,0:0:0:0:
408,184,97273,2,0,P|356:140|288:140,1,120,0|8,1:0|0:0,0:0:0:0:
256,192,98130,12,4,101559,0:0:0:0:
256,192,111845,12,0,114416,0:0:0:0:
192,144,115273,6,0,P|160:112|64:120,2,120,0|8|2,1:0|0:1|0:0,0:0:0:0:
256,216,116559,1,8,1:2:0:0:
320,144,116987,2,0,P|352:112|448:120,2,120,0|8|2,1:0|0:1|0:0,0:0:0:0:
256,216,118273,1,8,1:2:0:0:
188,284,118702,6,0,P|140:312|60:300,1,120,0|8,1:0|0:1,0:0:0:0:
8,240,119559,2,0,P|-4:188|56:132,1,120,2|8,0:0|1:2,0:0:0:0:
128,128,120416,2,0,P|112:84|48:44,2,120,0|8|2,1:0|0:1|0:0,0:0:0:0:
172,212,121702,1,8,1:2:0:0:
256,260,122130,6,0,L|256:336,2,60,0|0|8,1:0|0:0|0:1,0:0:0:0:
340,212,122987,1,2,0:0:0:0:
384,128,123416,2,0,P|400:84|464:44,2,120,8|0|8,1:2|1:0|0:1,0:0:0:0:
436,208,124702,2,0,L|496:256,2,60,2|8|8,0:0|1:2|1:2,0:0:0:0:
384,128,125559,6,0,P|316:80|264:100,1,120,0|8,1:0|0:1,0:0:0:0:
200,128,126416,2,0,P|128:136|80:88,2,120,2|8|2,0:0|1:2|0:0,0:0:0:0:
285,86,127702,1,8,0:1:0:0:
212,32,128130,1,2,0:0:0:0:
376,132,128987,6,0,P|440:156|476:212,1,120,0|8,1:0|0:0,0:0:0:0:
464,296,129845,2,0,P|384:296|348:332,1,120,2|8,0:0|0:1,0:0:0:0:
280,368,130702,1,0,1:0:0:0:
204,308,131130,2,0,P|204:253|172:197,2,120,8|2|8,0:0|0:0|0:1,0:0:0:0:
104,336,132416,6,0,P|72:280|80:204,1,120,0|8,1:0|0:0,0:0:0:0:
88,132,133273,2,0,P|64:96|32:76,2,60,2|8|8,0:0|0:1|0:1,0:0:0:0:
160,196,134130,2,0,P|196:220|292:196,1,120,0|8,1:0|0:0,0:0:0:0:
352,164,134987,1,2,0:0:0:0:
420,96,135416,2,0,P|456:128|460:156,1,60,8|0,0:1|0:0,0:0:0:0:
468,184,135845,6,0,P|480:244|440:312,1,120,0|8,1:0|0:0,0:0:0:0:
364,312,136702,2,0,P|320:288|248:296,1,120,2|8,0:0|0:1,0:0:0:0:
168,248,137559,2,0,L|96:200,2,60,0|0|8,1:0|0:0|0:0,0:0:0:0:
172,344,138416,1,2,0:0:0:0:
256,192,139273,12,4,142702,0:0:0:0:
256,192,146130,12,0,148702,0:0:0:0:
122,182,149559,6,0,P|92:188|36:252,1,120,4|8,2:1|0:0,0:0:0:0:
128,280,150416,2,0,P|192:252|220:192,1,120,0|8,0:0|0:0,0:0:0:0:
196,116,151273,2,0,P|212:80|308:56,1,120,0|8,0:0|0:0,0:0:0:0:
376,72,152130,1,0,0:0:0:0:
424,156,152559,1,8,0:0:0:0:
408,252,152987,6,0,P|428:288|460:312,2,60,4|0|8,2:1|0:0|0:0,0:0:0:0:
336,184,153845,2,0,P|300:120|236:108,1,120,0|8,0:0|0:0,0:0:0:0:
164,96,154702,2,0,P|108:84|76:20,2,120,0|8|0,0:0|0:0|0:0,0:0:0:0:
204,184,155987,2,0,P|204:232|212:260,1,60,8|0,0:0|0:0,0:0:0:0:
216,292,156416,6,0,P|256:340|312:344,1,120,4|8,2:1|0:0,0:0:0:0:
404,316,157273,2,0,P|460:280|472:216,1,120,0|8,0:0|0:0,0:0:0:0:
440,140,158130,2,0,P|460:100|480:80,2,60,0|0|8,0:0|0:0|0:0,0:0:0:0:
376,212,158987,2,0,P|312:224|264:180,1,120,0|8,0:0|0:0,0:0:0:0:
256,192,159845,12,0,162416,0:0:0:0:
464,188,163273,6,0,P|424:264|372:268,1,120,4|8,2:1|0:0,0:0:0:0:
312,228,164130,1,0,0:0:0:0:
256,308,164559,1,8,0:0:0:0:
200,228,164987,1,0,0:0:0:0:
140,304,165416,2,0,P|108:260|116:184,1,120,8|0,0:0|0:0,0:0:0:0:
180,128,166273,1,8,0:0:0:0:
236,52,166702,6,0,P|284:24|304:24,2,60,4|0|8,2:1|0:0|0:0,0:0:0:0:
180,128,167559,2,0,P|196:200|252:224,1,120,0|8,0:0|0:0,0:0:0:0:
328,232,168416,1,0,0:0:0:0:
420,260,168845,1,8,0:0:0:0:
460,348,169273,1,0,0:0:0:0:
364,340,169702,2,0,P|316:348|300:344,1,60,8|0,0:0|0:0,0:0:0:0:
260,340,170130,6,0,P|204:320|164:260,2,120,4|8|0,2:1|0:0|0:0,0:0:0:0:
308,256,171416,1,8,0:0:0:0:
396,212,171845,2,0,P|448:204|468:212,2,60,0|0|8,0:0|0:0|0:0,0:0:0:0:
312,168,172702,2,0,P|260:120|200:116,1,120,0|8,0:0|0:0,0:0:0:0:
256,192,173559,12,0,176987,0:0:0:0:
192,176,178273,6,0,P|220:144|256:136,1,60,0|0,0:0|0:0,0:0:0:0:
280,120,178702,2,0,P|324:112|404:144,1,120,4|8,0:1|0:0,0:0:0:0:
456,208,179559,1,0,1:0:0:0:
408,292,179987,2,0,P|368:324|296:328,1,120,8|0,0:0|1:0,0:0:0:0:
224,272,180845,2,0,P|184:244|112:248,1,120,8|0,0:0|1:0,0:0:0:0:
40,308,181702,6,0,P|16:264|40:176,2,120,8|0|8,0:0|1:0|0:0,0:0:0:0:
132,340,182987,1,0,1:0:0:0:
204,276,183416,2,0,P|260:224|316:224,1,120,8|0,0:0|1:0,0:0:0:0:
392,244,184273,2,0,P|432:204|420:132,1,120,8|0,0:0|1:0,0:0:0:0:
400,52,185130,6,0,P|444:32|476:28,2,60,8|0|0,0:0|0:0|1:0,0:0:0:0:
332,120,185987,2,0,P|296:164|224:192,1,120,8|0,0:0|1:0,0:0:0:0:
176,260,186845,1,8,0:0:0:0:
144,168,187273,2,0,P|108:116|48:96,2,120,0|8|0,1:0|0:0|1:0,0:0:0:0:
176,260,188559,1,8,0:0:0:0:
252,320,188987,6,0,P|308:352|368:336,1,120,0|8,1:0|0:0,0:0:0:0:
432,276,189845,2,0,P|448:224|404:160,1,120,0|8,1:0|0:0,0:0:0:0:
360,92,190702,2,0,P|392:52|480:40,2,120,0|8|0,1:0|0:0|1:0,0:0:0:0:
324,180,191987,2,0,P|296:216|284:240,1,60,8|0,0:0|0:0,0:0:0:0:
268,272,192416,6,0,P|228:316|152:316,1,120,4|8,0:1|0:0,0:0:0:0:
80,288,193273,1,0,1:0:0:0:
48,196,193702,2,0,P|88:116|124:104,1,120,8|0,0:0|1:0,0:0:0:0:
200,80,194559,1,8,0:0:0:0:
296,68,194987,1,0,1:0:0:0:
256,156,195416,6,0,L|256:240,2,60,8|0|0,0:0|0:0|1:0,0:0:0:0:
200,80,196273,2,0,P|144:48|84:56,1,120,8|0,0:0|1:0,0:0:0:0:
36,132,197130,1,8,0:0:0:0:
128,144,197559,2,0,P|180:176|256:156,1,120,0|8,1:0|0:0,0:0:0:0:
320,124,198416,1,0,1:0:0:0:
416,112,198845,6,0,P|388:52|316:24,2,120,8|0|8,0:0|1:0|0:0,0:0:0:0:
368,196,200130,1,0,1:0:0:0:
304,268,200559,1,8,0:0:0:0:
256,184,200987,2,0,P|212:136|144:136,2,120,0|8|0,1:0|0:0|1:0,0:0:0:0:
204,264,202273,1,8,0:0:0:0:
256,192,202702,12,0,207845,0:0:0:0:
