osu file format v9

[General]
AudioFilename: Ai Yori Aoshi Opening - CD1 01 - Eternal Flower (TV size).mp3
AudioLeadIn: 0
PreviewTime: 54915
Countdown: 0
SampleSet: Soft
StackLeniency: 0.7
Mode: 0
LetterboxInBreaks: 1

[Editor]
Bookmarks: 52452,52727,54190,70288,70837,78337,83453,84185
DistanceSpacing: 1
BeatDivisor: 8
GridSize: 8

[Metadata]
Title:Towa no Hana (TV Size)
Artist:Ishida Youko
Creator:nante
Version:Normal
Source:Ai Yori Aoshi
Tags:dksslqj

[Difficulty]
HPDrainRate:4
CircleSize:3
OverallDifficulty:4
ApproachRate:4
SliderMultiplier:1
SliderTickRate:1

[Events]
//Background and Video events
0,0,"background.png"
Video,576,"Towa no Hana.avi"
//Break Periods
//Storyboard Layer 0 (Background)
//Storyboard Layer 1 (Fail)
//Storyboard Layer 2 (Pass)
//Storyboard Layer 3 (Foreground)
//Storyboard Sound Samples
//Background Colour Transformations
3,100,163,162,255

[TimingPoints]
5898,731.707317073171,4,2,1,70,1,0
55647,-50,4,2,1,70,0,1
85196,-50,4,2,1,0,0,1
87117,-50,4,2,1,70,0,1
87291,-50,4,2,1,70,0,0

[Colours]
Combo1 : 244,181,181
Combo2 : 205,219,149
Combo3 : 222,222,254
Combo4 : 208,171,233

[HitObjects]
64,88,8824,1,2
216,88,9922,2,0,B|256:88|248:120,1,50,0|2
216,264,11385,6,0,B|216:304|248:296,1,50,0|2
312,296,12300,1,0
384,296,12849,2,0,B|424:296|416:264,1,50,0|2
416,168,13946,1,0
312,168,14678,5,2
160,160,15776,2,0,B|120:160|120:128,1,50,0|2
48,136,16690,1,0
48,208,17239,5,0
48,256,17605,2,0,B|152:256,1,100,2|0
200,256,18702,2,0,B|240:256|232:224,1,50,0|2
320,184,19800,1,0
424,184,20532,5,2
424,288,21263,1,0
336,336,21995,1,2
248,288,22727,1,0
176,216,23458,6,0,B|176:168|224:168,1,75,2|0
296,168,24556,2,0,B|368:168,1,50,0|2
432,216,25654,1,0
376,296,26385,5,2
224,296,27483,2,0,B|168:296,1,50
120,248,28397,1,0
176,200,28946,6,0,B|216:200|248:200,1,50,0|2
320,168,30044,1,0
424,168,30776,1,2
320,168,31507,1,0
376,256,32239,6,0,B|376:360,1,100,2|0
272,352,33702,2,0,B|184:328,1,75,2|0
128,328,34800,6,0,B|88:328|96:296,1,50,0|2
96,224,35715,1,0
168,224,36263,2,0,B|208:224|208:256,1,50,0|2
304,248,37361,1,0
304,144,38093,6,0,B|136:144,1,150,2|0
104,144,39556,2,0,B|64:144|72:176,1,50,2|0
72,224,40288,1,0
72,272,40654,1,0
120,272,41019,6,0,B|232:272,1,100,2|0
224,168,42483,1,2
224,168,43215,1,0
120,168,43946,6,0,B|120:48|256:48,1,200,2|2
352,48,46141,1,0
352,152,46873,2,0,B|352:200|400:200,2,75
304,152,48337,2,0,B|272:232|168:224|152:144,1,200,2|2
88,184,50349,5,0
80,256,50898,2,0,B|80:320|144:320,1,100,0|2
192,320,51995,2,0,B|248:320,1,50
296,320,52727,2,0,B|312:200|384:136,1,200
176,120,54922,5,4
128,208,55288,1,0
232,208,55654,1,2
376,72,56385,5,0
424,160,56751,1,0
328,160,57117,2,0,B|240:160|232:200|240:264|360:240,1,200,2|0
328,344,58215,5,0
224,344,58580,1,2
72,344,59129,1,0
144,216,59678,1,0
144,112,60044,1,2
344,112,60776,6,0,B|456:112,2,100,0|0|2
344,312,62239,1,0
248,312,62605,1,0
152,312,62971,2,0,B|72:296|104:168|208:216,1,200,2|0
368,104,64434,5,2
368,304,65166,1,0
200,200,65898,1,2
368,304,66629,6,0,B|448:368,2,100,0|0|4
200,192,68093,2,0,B|120:120,2,100,0|0|4
384,112,69556,5,0
328,200,69922,1,0
432,200,70288,2,0,B|496:136|464:56,1,150
320,64,71385,1,0
264,152,71751,2,0,B|376:152,1,100,2|0
360,256,72483,6,0,B|312:168|240:344|176:224,1,200,0|6
48,96,73946,1,0
248,96,74678,1,2
248,296,75410,2,0,B|288:208|360:376|432:264,1,200,0|6
424,80,76873,1,0
320,80,77239,1,0
216,80,77605,2,0,B|296:168|240:288,1,200
96,144,79068,6,0,B|104:40|208:64,2,150,2|0|0
192,152,80532,2,0,B|184:256|80:232,2,150,2|0|0
296,152,81995,5,4
152,344,83458,2,0,B|24:344|24:168,1,225,0|4
256,192,85288,8,4,87117
