osu file format v10

[General]
AudioFilename: [HD 1080p] Shakugan no Shana I Creditless ED2.mp3
AudioLeadIn: 2000
PreviewTime: 53648
Countdown: 0
SampleSet: Soft
StackLeniency: 0.7
Mode: 0
LetterboxInBreaks: 0

[Editor]
DistanceSpacing: 1
BeatDivisor: 4
GridSize: 4

[Metadata]
Title:Aka no Seijaku (TV Size)
TitleUnicode:Aka no Seijaku (TV Size)
Artist:Ishida Youko
ArtistUnicode:Ishida Youko
Creator:kurohana
Version:Normal
Source:Shakugan no Shana
Tags:Ending 2
BeatmapID:157920
BeatmapSetID:50119

[Difficulty]
HPDrainRate:3
CircleSize:3
OverallDifficulty:3
ApproachRate:4
SliderMultiplier:1.6
SliderTickRate:1

[Events]
//Background and Video events
0,0,"bg.jpg"
Video,0,"ed2 (creditless).avi"
//Break Periods
//Storyboard Layer 0 (Background)
//Storyboard Layer 1 (Fail)
//Storyboard Layer 2 (Pass)
//Storyboard Layer 3 (Foreground)
//Storyboard Sound Samples
//Background Colour Transformations
3,100,163,162,255

[TimingPoints]
776,750,4,2,1,60,1,0
1526,-100,4,2,1,35,0,0
3776,-100,4,2,1,60,0,0
4526,-100,4,2,1,35,0,0
6776,-100,4,2,1,60,0,0
7526,-100,4,2,1,35,0,0
9776,-100,4,2,1,60,0,0
10526,-100,4,2,1,35,0,0
11276,-100,4,2,1,30,0,0
11651,-100,4,2,1,20,0,0
12026,-100,4,2,1,10,0,0
12401,-100,4,2,1,5,0,0
12776,-100,4,2,1,60,0,0
13526,-100,4,2,1,35,0,0
15026,-100,4,2,1,60,0,0
16526,-100,4,2,1,35,0,0
18026,-100,4,2,1,60,0,0
19526,-100,4,2,1,35,0,0
21026,-100,4,2,1,60,0,0
22526,-100,4,2,1,35,0,0
24026,-100,4,2,1,50,0,0
24776,-100,4,2,1,60,0,0
25526,-100,4,2,1,35,0,0
26276,-100,4,2,1,30,0,0
27026,-100,4,2,1,50,0,0
27776,-100,4,2,1,60,0,0
28526,-100,4,2,1,35,0,0
29276,-100,4,2,1,60,0,0
31526,-100,4,2,1,35,0,0
32276,-100,4,2,1,60,0,0
33026,-100,4,2,1,35,0,0
33776,-100,4,2,1,60,0,0
34526,-100,4,2,1,45,0,0
35276,-100,4,2,1,50,0,0
35651,-100,4,2,1,60,0,0
36026,-100,4,2,1,60,0,0
36776,-100,4,2,1,60,0,1
36963,-100,4,2,1,60,0,0
45776,-100,4,2,1,45,0,0
46526,-100,4,2,1,60,0,0
48963,-100,4,2,1,40,0,0
53276,-100,4,2,1,60,0,0
54776,-100,4,2,1,60,0,1
78588,-100,4,2,1,60,0,0
78776,-100,4,2,1,60,0,1
78963,-100,4,2,1,5,0,0

[Colours]
Combo1 : 211,1,90
Combo2 : 64,128,128
Combo3 : 202,252,3
SliderBorder : 255,128,64

[HitObjects]
192,304,776,2,0,B|216:348|256:356|296:348|320:304,1,160,2|8,0:0|0:0,0:0:0
256,256,1901,2,0,B|256:176,1,80,2|0,0:0|0:0,0:0:0
384,256,3776,6,0,B|428:232|436:192|428:152|384:128,1,160,2|8,0:0|0:0,0:0:0
336,192,4901,2,0,B|256:192,1,80,2|0,0:0|0:0,0:0:0
320,60,6776,6,0,B|296:16|256:8|216:16|192:60,1,160,2|8,0:0|0:0,0:0:0
256,108,7901,2,0,B|256:188,1,80,2|0,0:0|0:0,0:0:0
132,128,9776,6,0,B|88:152|80:191|88:232|132:256,1,160,2|8,0:0|0:0,0:0:0
256,192,10901,12,2,12776,0:0:0
40,40,13526,6,0,B|83:111|196:84|196:84|274:66|319:142,1,320,8|0,0:0|0:0,0:0:0
316,300,15776,5,2,0:0:0
472,344,16526,2,0,B|429:273|316:300|316:300|238:318|193:242,1,320,8|0,0:0|0:0,0:0:0
256,96,18776,5,2,0:0:0
412,124,19526,2,0,B|400:232|264:300|160:224,1,320,8|0,0:0|0:0,0:0:0
256,96,21776,5,2,0:0:0
100,124,22526,2,0,B|112:232|248:300|352:224,1,320,8|2,0:0|0:0,0:0:0
256,96,24776,5,2,0:0:0
100,64,25526,2,0,B|112:144|100:224,1,160,8|2,0:0|0:0,0:0:0
176,360,27026,2,0,B|256:348|336:360,1,160,2|2,0:0|0:0,0:0:0
412,224,28526,6,0,B|400:144|412:64,1,160,8|2,0:0|0:0,0:0:0
256,36,30026,2,0,B|220:56|220:56|200:92,1,80
224,168,30776,6,0,B|260:148|260:148|280:112,1,80,2|0,0:0|0:0,0:0:0
360,112,31526,2,0,B|388:268,1,160,8|0,0:0|0:0,0:0:0
356,344,32651,2,0,B|316:340|276:344,1,80,0|8,0:0|0:0,0:0:0
124,300,33776,6,0,B|100:140,1,160,2|8,0:0|0:0,0:0:0
160,88,34901,2,0,B|200:84|240:88,1,80,0|2,0:0|0:0,0:0:0
320,100,35651,1,2,0:0:0
364,168,36026,2,0,B|368:248,1,80,8|0,0:0|0:0,0:0:0
444,220,36776,6,0,B|440:60,1,160,4|8,0:0|0:0,0:0:0
360,60,37901,1,0,0:0:0
280,68,38276,1,0,0:0:0
200,76,38651,1,0,0:0:0
248,140,39026,2,0,B|216:228|116:216,1,160,8|0,0:0|0:0,0:0:0
96,140,40151,6,0,B|88:60,1,80,0|8,0:0|0:0,0:0:0
168,56,40901,2,0,B|176:112,2,40,0|8|0,0:0|0:0|0:0,0:0:0
248,64,41651,1,8,0:0:0
324,88,42026,2,0,B|336:132|368:156,1,80,4|0,0:0|0:0,0:0:0
364,232,42776,5,4,0:0:0
284,232,43151,1,0,0:0:0
228,288,43526,2,0,B|156:332|76:288,1,160,8|0,0:0|0:0,0:0:0
8,248,44651,1,0,0:0:0
72,204,45026,2,0,B|144:160|224:204,1,160,8|4,0:0|0:0,0:0:0
384,208,46526,5,8,0:0:0
316,168,46901,2,0,B|288:140,2,40,0|0|0,0:0|0:0|0:0,0:0:0
316,248,47651,1,0,0:0:0
316,328,48026,2,0,B|268:328|244:288,2,80,8|0|4,0:0|0:0|0:0,0:0:0
256,192,48963,12,2,51776,0:0:0
140,88,53276,5,0,0:0:0
216,112,53651,2,0,B|256:104|296:112,2,80,2|0|2,0:0|0:0|0:0,0:0:0
156,164,54776,6,0,B|156:256|88:300,1,160,4|8,0:0|0:0,0:0:0
48,232,55901,2,0,B|28:240|16:260,2,40,0|0|0,0:0|0:0|0:0,0:0:0
76,156,56651,1,0,0:0:0
120,88,57026,2,0,B|172:64|236:100|236:156,1,160,8|4,0:0|0:0,0:0:0
236,236,58151,5,0,0:0:0
304,276,58526,1,8,0:0:0
372,236,58901,2,0,B|400:264,2,40,0|0|0,0:0|0:0|0:0,0:0:0
256,124,60026,2,0,B|180:144,1,80,8|0,0:0|0:0,0:0:0
184,224,60776,6,0,B|340:184,1,160,4|8,0:0|0:0,0:0:0
420,184,61901,2,0,B|460:184,2,40,0|0|0,0:0|0:0|0:0,0:0:0
380,252,62651,1,0,0:0:0
316,300,63026,2,0,B|240:320,1,80,8|0,0:0|0:0,0:0:0
236,240,63776,6,0,B|312:220,2,80,4|0|8,0:0|0:0|0:0,0:0:0
160,268,64901,2,0,B|140:304,2,40,4|0|0,0:0|0:0|0:0,0:0:0
104,212,65651,1,0,0:0:0
164,160,66026,2,0,B|244:152|324:160,1,160,8|4,0:0|0:0,0:0:0
400,184,67151,5,0,0:0:0
440,256,67526,1,8,0:0:0
400,324,67901,2,0,B|320:332,1,80
240,336,68651,1,0,0:0:0
236,256,69026,2,0,B|396:244,1,160,8|4,0:0|0:0,0:0:0
420,168,70151,5,0,0:0:0
372,104,70526,1,8,0:0:0
292,88,70901,2,0,B|296:40,2,40,0|0|0,0:0|0:0|0:0,0:0:0
212,96,71651,1,0,0:0:0
144,140,72026,2,0,B|112:228|184:288,1,160,8|4,0:0|0:0,0:0:0
260,268,73151,5,0,0:0:0
332,236,73526,2,0,B|364:148|296:92,1,160,8|0,0:0|0:0,0:0:0
220,112,74651,2,0,B|240:192,1,80,0|8,0:0|0:0,0:0:0
260,268,75401,1,0,0:0:0
220,336,75776,6,0,B|260:356|300:336|300:336|340:316|376:336,1,160,4|8,0:0|0:0,0:0:0
432,280,76901,1,0,0:0:0
432,200,77276,2,0,B|392:176|388:136,1,80,8|8,0:0|0:0,0:0:0
468,128,78026,1,8,0:0:0
420,64,78401,2,0,B|400:56|372:56,2,40,8|0|4,0:0|0:0|0:0,0:0:0
256,192,78963,12,0,84776,0:0:0
