osu file format v10

[General]
AudioFilename: [HD 1080p] Shakugan no Shana I Creditless ED2.mp3
AudioLeadIn: 2000
PreviewTime: 53648
Countdown: 0
SampleSet: Soft
StackLeniency: 0.7
Mode: 0
LetterboxInBreaks: 0

[Editor]
Bookmarks: 23095,36595
DistanceSpacing: 1
BeatDivisor: 4
GridSize: 4

[Metadata]
Title:Aka no Seijaku (TV Size)
TitleUnicode:Aka no Seijaku (TV Size)
Artist:Ishida Youko
ArtistUnicode:Ishida Youko
Creator:kurohana
Version:Hard
Source:Shakugan no Shana
Tags:Ending 2
BeatmapID:157914
BeatmapSetID:50119

[Difficulty]
HPDrainRate:5
CircleSize:3
OverallDifficulty:6
ApproachRate:7
SliderMultiplier:2
SliderTickRate:1

[Events]
//Background and Video events
0,0,"bg.jpg"
Video,0,"ed2 (creditless).avi"
//Break Periods
//Storyboard Layer 0 (Background)
//Storyboard Layer 1 (Fail)
//Storyboard Layer 2 (Pass)
//Storyboard Layer 3 (Foreground)
//Storyboard Sound Samples
//Background Colour Transformations
3,100,163,162,255

[TimingPoints]
776,750,4,2,1,60,1,0
1526,-100,4,2,1,35,0,0
2088,-100,4,2,1,60,0,0
4526,-100,4,2,1,35,0,0
5088,-100,4,2,1,60,0,0
7526,-100,4,2,1,35,0,0
8088,-100,4,2,1,60,0,0
10151,-100,4,2,1,50,0,0
10526,-100,4,2,1,40,0,0
10901,-100,4,2,1,30,0,0
11276,-100,4,2,1,20,0,0
11651,-100,4,2,1,10,0,0
12026,-100,4,2,1,5,0,0
12776,-100,4,2,1,60,0,0
13526,-100,4,2,1,35,0,0
13901,-100,4,2,1,60,0,0
16526,-100,4,2,1,35,0,0
17088,-100,4,2,1,60,0,0
19526,-100,4,2,1,35,0,0
20088,-100,4,2,1,60,0,0
22526,-100,4,2,1,35,0,0
22901,-100,4,2,1,60,0,0
23276,-100,4,2,1,20,0,0
23651,-100,4,2,1,30,0,0
24026,-100,4,2,1,40,0,0
24401,-100,4,2,1,50,0,0
24776,-100,4,2,1,60,0,0
25526,-100,4,2,1,35,0,0
25901,-100,4,2,1,60,0,0
26276,-100,4,2,1,30,0,0
26651,-100,4,2,1,40,0,0
27026,-100,4,2,1,50,0,0
27401,-100,4,2,1,60,0,0
27776,-100,4,2,1,60,0,0
28526,-100,4,2,1,35,0,0
28901,-100,4,2,1,60,0,0
31526,-100,4,2,1,35,0,0
31901,-100,4,2,1,60,0,0
33026,-100,4,2,1,35,0,0
33401,-100,4,2,1,60,0,0
34526,-100,4,2,1,35,0,0
35276,-100,4,2,1,50,0,0
35651,-100,4,2,1,60,0,0
36026,-100,4,2,1,60,0,0
36776,-100,4,2,1,60,0,1
36963,-100,4,2,1,60,0,0
48963,-100,4,2,1,40,0,0
52526,-100,4,2,1,20,0,0
52713,-100,4,2,1,30,0,0
52901,-100,4,2,1,40,0,0
53088,-100,4,2,1,50,0,0
53276,-100,4,2,1,60,0,0
54776,-100,4,2,1,60,0,1
78588,-100,4,2,1,60,0,0
78776,-100,4,2,1,60,0,1
78963,-100,4,2,1,5,0,0

[Colours]
Combo1 : 211,1,90
Combo2 : 64,128,128
Combo3 : 202,252,3
SliderBorder : 255,128,64

[HitObjects]
160,252,776,2,0,B|256:300|352:252,1,200,2|8,0:0|0:0,0:0:0
352,152,1901,1,0,0:0:0
304,136,2088,2,0,B|256:116|204:136,2,100,2|0|2,0:0|0:0|0:0,0:0:0
60,96,3776,6,0,B|12:192|60:288,1,200,2|8,0:0|0:0,0:0:0
156,272,4901,1,0,0:0:0
196,240,5088,2,0,B|176:192|196:140,1,100,2|0,0:0|0:0,0:0:0
284,192,5838,1,2,0:0:0
428,52,6588,1,0,0:0:0
392,88,6776,6,0,B|408:192,1,100,2|0,0:0|0:0,0:0:0
372,220,7338,1,0,0:0:0
336,252,7526,2,0,B|320:152,1,100,8|0,0:0|0:0,0:0:0
312,104,8088,1,2,0:0:0
216,76,8463,2,0,B|232:176,1,100,0|2,0:0|0:0,0:0:0
140,212,9213,2,0,B|116:64,1,150,0|2,0:0|0:0,0:0:0
256,192,9963,12,0,12026,0:0:0
160,108,12776,6,0,B|256:60|352:108,1,200,2|8,0:0|0:0,0:0:0
332,208,13901,1,0,0:0:0
308,252,14088,2,0,B|256:256|208:252,2,100,2|0|2,0:0|0:0|0:0,0:0:0
160,96,15776,6,0,B|208:192|160:288,1,200,2|8,0:0|0:0,0:0:0
76,236,16901,1,0,0:0:0
48,196,17088,1,2,0:0:0
64,96,17463,1,0,0:0:0
160,96,17838,1,2,0:0:0
392,188,18776,6,0,B|336:196|296:164,1,100,2|0,0:0|0:0,0:0:0
260,132,19338,2,0,B|248:108|256:80,2,50,0|8|0,0:0|0:0|0:0,0:0:0
352,96,20088,1,2,0:0:0
452,108,20463,1,0,0:0:0
392,188,20838,2,0,B|420:278|328:359|244:320,1,250,2|2,0:0|0:0,0:0:0
324,136,22526,5,8,0:0:0
256,208,22901,1,0,0:0:0
184,136,23276,2,0,B|256:64,1,100,2|2,0:0|0:0,0:0:0
326,137,24026,2,0,B|256:208,1,100,2|2,0:0|0:0,0:0:0
276,308,24776,6,0,B|420:164,1,200,2|8,0:0|0:0,0:0:0
444,68,25901,1,0,0:0:0
348,96,26276,2,0,B|248:96,1,100,2|2,0:0|0:0,0:0:0
184,176,27026,2,0,B|288:176,1,100,2|2,0:0|0:0,0:0:0
344,256,27776,6,0,B|144:256,1,200,2|8,0:0|0:0,0:0:0
44,256,28901,1,0,0:0:0
92,168,29276,2,0,B|84:68,1,100
184,48,30026,2,0,B|192:148,1,100
216,244,30776,6,0,B|320:252|420:236,1,200,2|8,0:0|0:0,0:0:0
468,152,31901,1,0,0:0:0
396,80,32276,2,0,B|292:72|192:88,1,200,2|8,0:0|0:0,0:0:0
144,172,33401,1,0,0:0:0
72,100,33776,2,0,B|28:136|28:240|108:264,2,200,2|8|2,0:0|0:0|0:0,0:0:0
144,172,35651,6,0,B|244:168,1,100,2|8,0:0|0:0,0:0:0
304,248,36401,2,0,B|204:252,2,100,8|4|0,0:0|0:0|0:0,0:0:0
376,176,37526,2,0,B|388:72,1,100,8|0,0:0|0:0,0:0:0
288,76,38276,2,0,B|280:136,2,50,0|8|0,0:0|0:0|0:0,0:0:0
188,76,39026,2,0,B|176:175,1,100,8|0,0:0|0:0,0:0:0
84,220,39776,6,0,B|95:120,2,100,0|0|8,0:0|0:0|0:0,0:0:0
128,312,40901,1,0,0:0:0
176,300,41088,2,0,B|228:292,1,50,8|0,0:0|0:0,0:0:0
276,292,41463,2,0,B|328:300,1,50,8|0,0:0|0:0,0:0:0
376,212,42026,2,0,B|276:196,1,100,4|8,0:0|0:0,0:0:0
228,192,42588,1,8,0:0:0
180,188,42776,6,0,B|112:156|92:72,1,150,4|0,0:0|0:0,0:0:0
52,100,43526,2,0,B|40:200,1,100,8|0,0:0|0:0,0:0:0
84,224,44088,2,0,B|76:324,2,100,0|8|0,0:0|0:0|0:0,0:0:0
124,192,45026,2,0,B|224:176|324:192,1,200,8|4,0:0|0:0,0:0:0
400,124,46151,5,0,0:0:0
336,48,46526,1,8,0:0:0
240,80,46901,2,0,B|188:100|180:156,1,100
212,248,47651,2,0,B|264:228|272:172,1,100,0|8,0:0|0:0,0:0:0
240,80,48401,2,0,B|204:44,2,50,0|0|4,0:0|0:0|0:0,0:0:0
256,192,48963,12,2,51776,0:0:0
256,132,52526,6,0,B|256:104,8,25,8|8|8|8|8|8|8|8|8,0:0|0:0|0:0|0:0|0:0|0:0|0:0|0:0|0:0,0:0:0
256,232,53651,5,2,0:0:0
332,164,54026,1,0,0:0:0
256,100,54401,1,2,0:0:0
184,168,54776,6,0,B|84:172,1,100,4|0,0:0|0:0,0:0:0
36,260,55526,2,0,B|136:256,1,100,8|0,0:0|0:0,0:0:0
184,252,56088,2,0,B|284:256,1,100,8|8,0:0|0:0,0:0:0
332,260,56651,2,0,B|336:208|360:148,1,100,0|8,0:0|0:0,0:0:0
420,88,57401,2,0,B|472:72,2,50,0|0|4,0:0|0:0|0:0,0:0:0
320,73,58151,5,0,0:0:0
220,56,58526,2,0,B|208:112|156:124,1,100,8|0,0:0|0:0,0:0:0
104,128,59088,2,0,B|64:164|76:224,1,100,8|8,0:0|0:0,0:0:0
100,264,59651,1,0,0:0:0
180,204,60026,2,0,B|280:236,1,100,8|0,0:0|0:0,0:0:0
324,236,60588,6,0,B|348:284,2,50,0|4|0,0:0|0:0|0:0,0:0:0
356,200,61151,2,0,B|348:148|356:100,1,100,0|8,0:0|0:0,0:0:0
260,80,61901,2,0,B|208:92,1,50,0|8,0:0|0:0,0:0:0
168,68,62276,2,0,B|112:64|80:108,1,100
120,200,63026,2,0,B|176:204|208:160,1,100,8|0,0:0|0:0,0:0:0
252,144,63588,6,0,B|280:188,1,50,8|0,0:0|0:0,0:0:0
328,176,63963,2,0,B|356:220,1,50,8|0,0:0|0:0,0:0:0
452,188,64526,2,0,B|440:136|396:108,1,100,8|4,0:0|0:0,0:0:0
372,64,65088,2,0,B|404:24,2,50,8|0|8,0:0|0:0|0:0,0:0:0
324,72,65651,2,0,B|268:72|232:108,1,100,0|8,0:0|0:0,0:0:0
184,192,66401,2,0,B|132:200,2,50,0|8|4,0:0|0:0|0:0,0:0:0
284,176,67151,6,0,B|288:232|244:272,1,100,0|8,0:0|0:0,0:0:0
156,228,67901,2,0,B|152:172|196:132,1,100,0|0,0:0|0:0,0:0:0
240,136,68463,2,0,B|264:88,1,50,8|0,0:0|0:0,0:0:0
360,104,69026,2,0,B|320:196,1,100,8|0,0:0|0:0,0:0:0
296,240,69588,1,8,0:0:0
272,284,69776,6,0,B|172:320|76:284,1,200,4|8,0:0|0:0,0:0:0
80,184,70901,2,0,B|92:132|148:112,1,100
176,208,71651,1,0,0:0:0
272,176,72026,2,0,B|280:68,1,100,8|0,0:0|0:0,0:0:0
368,128,72776,6,0,B|360:236,1,100,4|0,0:0|0:0,0:0:0
456,200,73526,2,0,B|464:92,1,100,8|0,0:0|0:0,0:0:0
384,36,74276,1,0,0:0:0
340,56,74463,2,0,B|292:76,1,50,8|0,0:0|0:0,0:0:0
260,172,75026,2,0,B|353:133,1,100,8|0,0:0|0:0,0:0:0
392,160,75588,6,0,B|444:172,2,50,8|0|8,0:0|0:0|0:0,0:0:0
376,208,76151,2,0,B|280:248,1,100,0|8,0:0|0:0,0:0:0
203,189,76901,2,0,B|161:161|156:105,1,100,0|8,0:0|0:0,0:0:0
256,88,77651,1,8,0:0:0
355,105,78026,2,0,B|350:161|308:189,1,100,8|8,0:0|0:0,0:0:0
264,216,78588,1,0,0:0:0
220,240,78776,1,4,0:0:0
256,192,78963,12,0,84776,0:0:0
