osu file format v9

[General]
AudioFilename: Ishida_Yoko_-_Shiawase_No_Iro_(TV_Version)_(1_32)(www.foxplay.info).mp3
AudioLeadIn: 0
PreviewTime: 59998
Countdown: 0
SampleSet: Soft
StackLeniency: 0.7
Mode: 0
LetterboxInBreaks: 1

[Editor]
Bookmarks: 3024,5448,19476,21211,21817,27179,28237,48786,49695,53938,54544,56665,57574
DistanceSpacing: 0.9
BeatDivisor: 4
GridSize: 8

[Metadata]
Title:Shiawase no Iro (TV Size)
Artist:Ishida Yoko
Creator:Lizzehb
Version:Ah! Normal
Source:Aa! Megami-sama!
Tags:OzzyOzrock Phyrearms

[Difficulty]
HPDrainRate:3
CircleSize:4
OverallDifficulty:4
ApproachRate:4
SliderMultiplier:2
SliderTickRate:1

[Events]
//Background and Video events
0,0,"bg.jpg"
//Break Periods
2,15375,18400
2,37193,39613
//Storyboard Layer 0 (Background)
//Storyboard Layer 1 (Fail)
//Storyboard Layer 2 (Pass)
//Storyboard Layer 3 (Foreground)
//Storyboard Sound Samples
//Background Colour Transformations
3,100,163,162,255

[TimingPoints]
630,606.060606060606,4,2,0,60,1,0
42448,-100,4,2,2,60,0,0
61236,-100,4,2,2,60,0,1
85478,-100,4,2,2,30,0,0

[Colours]
Combo1 : 255,255,43
Combo2 : 5,240,5
Combo3 : 103,103,252
Combo4 : 255,0,0
Combo5 : 177,22,182

[HitObjects]
80,56,3054,2,2,B|192:152|40:152|144:264,1,200
192,184,3963,2,0,B|320:128,1,100
352,200,4569,1,0
424,144,4872,6,0,B|480:280|328:296,2,200,2|0|10
344,104,6387,2,0,B|383:72,2,50
264,144,6993,2,0,B|347:199,1,100,0|2
272,368,7902,2,0,B|320:276|320:276|376:296|408:256,1,200,0|4
256,192,9114,12,4,15175
96,112,19720,6,0,B|144:160,2,50,0|0|4
32,160,20326,2,0,B|32:208,1,50
144,192,20933,5,0
224,184,21236,2,0,B|288:128|352:256|416:160,1,200
408,88,22145,2,0,B|456:40,2,50
328,88,22751,6,0,B|280:40,2,50,0|0|2
280,160,23357,1,0
280,240,23660,2,0,B|328:240,2,50
224,312,24266,1,0
192,224,24569,6,0,B|192:160,2,50
104,256,25175,2,0,B|68:220,1,50
200,248,25781,5,0
208,336,26084,1,0
288,384,26387,1,0
368,352,26690,1,2
512,208,27296,2,0,B|543:111|480:-5|333:-8|252:101,1,400
320,264,29114,5,2
400,264,29417,1,0
360,192,29720,1,0
192,264,30326,5,2
192,176,30630,2,0,B|136:176,1,50
360,120,31539,5,2
320,192,31842,1,0
376,248,32145,1,0
208,184,32751,5,2
208,272,33054,2,0,B|272:272,1,50
384,328,33660,5,0
384,328,33963,1,2
464,328,34266,1,0
464,328,34569,1,0
400,168,35175,5,2
320,168,35478,2,0,B|270:168,1,50
152,168,36084,1,0
200,232,36387,1,2
152,296,36690,1,0
104,232,36993,1,4
248,48,40933,6,0,B|304:104|224:160,2,100,0|2|0
184,96,41842,2,0,B|128:152|208:208,2,100,4|0|8
248,144,42751,1,0
328,144,43054,1,2
376,80,43357,5,0
424,144,43660,1,8
504,144,43963,1,0
464,216,44266,2,0,B|464:344,2,100,2|0|8
256,128,45781,5,0
176,128,46084,1,8
176,208,46387,1,0
96,208,46690,1,4
256,208,47296,5,8
312,152,47599,2,0,B|392:232,1,100,0|2
328,280,48205,2,0,B|232:360,1,100,0|8
176,320,48811,2,0,B|127:237|127:237|176:208|176:104|72:80,1,300,0|8
144,32,50023,5,0
208,80,50326,1,0
232,152,50630,1,0
248,232,50933,1,8
176,272,51236,2,0,B|192:336|272:320,1,100,0|4
416,304,52145,5,8
352,240,52448,1,0
296,168,52751,1,2
248,96,53054,1,0
352,112,53357,2,0,B|352:32|272:32,1,100,8|0
208,32,53963,6,0,B|113:30|168:160|68:144,1,200,0|8
72,56,54872,1,0
0,88,55175,1,2
40,264,55781,5,8
128,208,56084,2,0,B|192:208,2,50,0|0|2
120,96,56842,2,0,B|352:152|192:392,1,350
149,319,58205,1,2
104,248,58508,6,0,B|104:198,2,50,0|0|2
32,304,59114,2,0,B|32:354,1,50,0|2
32,264,59569,2,0,B|32:214,1,50,0|2
104,152,60023,5,0
192,152,60326,1,0
248,224,60630,2,0,B|312:192|280:128,1,100,8|0
240,64,61236,6,0,B|25:82|121:346|265:298,1,400,4|2
344,296,62751,2,0,B|376:256|296:256|344:200,1,100,0|8
360,120,63357,1,0
432,96,63660,2,0,B|392:-16|248:56|291:148|291:148|155:220,1,400,2|2
69,293,65175,6,0,B|126:252|14:268|72:216,1,100,0|8
24,144,65781,1,0
112,144,66084,1,0
248,264,66690,5,4
320,208,66993,2,0,B|288:160,2,50,0|0|2
472,112,67902,1,4
472,192,68205,1,0
472,272,68508,1,2
464,360,68811,2,0,B|409:403|368:336,1,100,0|8
392,240,69417,2,0,B|327:211|304:288,1,100,0|2
224,136,70326,5,4
136,136,70629,2,2,B|72:136,2,50
192,312,71539,1,4
304,176,72145,21,2
368,120,72448,1,0
432,72,72751,1,8
440,160,73054,2,0,B|488:192,2,50,0|0|2
328,296,73963,1,8
312,120,74569,5,2
424,192,75023,2,0,B|472:192,1,50,0|8
448,280,75478,1,0
368,280,75781,1,2
304,232,76084,1,0
304,152,76387,1,8
344,72,76690,2,0,B|296:24,2,50,0|0|2
168,72,77599,6,0,B|224:48|256:96,2,100,8|0|2
344,80,78811,2,0,B|352:144|280:184,1,100,8|0
392,176,79417,2,0,B|387:286|227:286|212:182|212:182|78:182,1,400,2|4
304,184,81236,5,8
424,104,82145,2,2,B|440:152,1,50,2|2
304,160,82751,2,2,B|320:208,1,50,2|2
256,192,83054,12,2,87296
