osu file format v9

[General]
AudioFilename: Ishida_Yoko_-_Shiawase_No_Iro_(TV_Version)_(1_32)(www.foxplay.info).mp3
AudioLeadIn: 0
PreviewTime: 59998
Countdown: 0
SampleSet: Soft
StackLeniency: 0.7
Mode: 0
LetterboxInBreaks: 1

[Editor]
Bookmarks: 19476,21211,21817,27179,28237,48786,49695,53938,54544,56387,56665,57574,58205
DistanceSpacing: 0.7
BeatDivisor: 1
GridSize: 8

[Metadata]
Title:Shiawase no Iro (TV Size)
Artist:Ishida Yoko
Creator:Lizzehb
Version:Ah! Easy
Source:Aa! Megami-sama!
Tags:OzzyOzrock Phyrearms

[Difficulty]
HPDrainRate:1
CircleSize:3
OverallDifficulty:1
ApproachRate:2
SliderMultiplier:1.4
SliderTickRate:2

[Events]
//Background and Video events
0,0,"bg.jpg"
//Break Periods
2,15375,18463
2,59011,59676
//Storyboard Layer 0 (Background)
//Storyboard Layer 1 (Fail)
//Storyboard Layer 2 (Pass)
//Storyboard Layer 3 (Foreground)
//Storyboard Sound Samples
//Background Colour Transformations
3,100,163,162,255

[TimingPoints]
630,606.060606060606,4,2,0,60,1,0
41539,-100,4,2,2,60,0,0
61236,-100,4,2,2,60,0,1
85478,-100,4,2,2,60,0,0

[Colours]
Combo1 : 255,255,43
Combo2 : 5,240,5
Combo3 : 103,103,252
Combo4 : 255,0,0
Combo5 : 177,22,182

[HitObjects]
160,96,3054,2,0,B|88:160|184:248,2,140,0|2|0
248,144,4872,2,0,B|320:208|232:288,2,140,2|0|2
176,208,6690,2,0,B|136:288|16:248,1,140,0|2
88,168,7902,2,0,B|117:89|37:49,1,140,0|2
256,192,9114,12,0,15175
360,104,20023,6,0,B|240:232,1,140,8|2
168,192,21236,1,8
112,272,21842,1,2
48,192,22448,1,8
56,96,23054,2,0,B|120:48|192:96,2,140,2|8|2
120,176,24872,2,0,B|184:224|256:176,1,140,8|2
320,112,26084,2,0,B|368:176|320:248,1,140,8|2
232,176,27296,5,8
152,232,27902,1,2
152,328,28508,1,8
248,304,29114,1,2
248,304,29720,6,0,B|352:208|152:152|280:48,1,280,8|8
336,128,31539,1,2
416,64,32145,2,0,B|464:128|416:200,1,140,8|2
336,296,33357,6,0,B|264:240,4,70,8|0|2|0|8
352,200,35175,1,2
416,128,35781,1,8
488,192,36387,1,2
424,264,36993,6,0,B|328:352|216:264,2,210,8|2|4
320,224,39417,2,0,B|224:136|120:232,2,210,8|2|4
360,136,41842,6,2,B|430:136,2,70
392,232,43054,2,0,B|288:328,1,140,8|2
224,256,44266,2,2,B|128:320,2,70
320,152,45781,6,2,B|240:80,3,70
184,160,47296,2,0,B|136:96|184:24,1,140,8|2
248,96,48508,2,0,B|312:48|384:96,2,140,8|2|8
152,128,50326,6,2,B|152:58,4,70,2|2|2|2|4
328,144,52448,2,2,B|240:88,3,70
256,192,53963,12,4,55781
240,216,56387,6,0,B|368:168|320:48|112:-64|-24:352|320:320,1,560,8|2
352,64,61236,6,0,B|431:66|457:149,1,140
360,168,62448,2,0,B|293:123|229:171,1,140
296,240,63660,1,8
376,296,64266,1,2
448,232,64872,5,8
368,176,65478,2,2,B|368:96,2,70
272,152,66690,1,4
216,72,67296,2,0,B|56:72,1,140,8|4
88,168,68508,6,0,B|55:225|55:225|111:273,1,140,8|2
184,208,69720,2,0,B|352:208,1,140,8|2
336,112,70933,2,0,B|448:200,1,140,8|2
360,248,72145,6,8,B|304:304,2,70,8|2|2
296,168,73357,2,0,B|360:120|432:168,1,140,8|2
360,232,74569,2,0,B|312:296|360:368,1,140,8|2
432,296,75781,6,0,B|504:328,4,70,8|2|2|2|8
336,296,77599,2,0,B|264:328,4,70,8|2|2|2|8
280,216,79417,6,0,B|450:157|475:388,1,280,2|4
376,352,81236,1,4
288,320,81842,2,8,B|216:320,2,70,0|2|4
256,192,83054,12,4,87296
