osu file format v9

[General]
AudioFilename: Shade And Darkness.mp3
AudioLeadIn: 0
PreviewTime: 126432
Countdown: 0
SampleSet: Normal
StackLeniency: 0.7
Mode: 0
LetterboxInBreaks: 1

[Editor]
DistanceSpacing: 1.6
BeatDivisor: 4
GridSize: 8

[Metadata]
Title:Shade And Darkness
Artist:Ishibasi Yuko
Creator:yuyuyuko
Version:Insane
Source:Dies irae
Tags:Ishibasi Yuko Dies irae game yuyuyuko

[Difficulty]
HPDrainRate:6
CircleSize:4
OverallDifficulty:7
ApproachRate:9
SliderMultiplier:1.4
SliderTickRate:1

[Events]
//Background and Video events
0,0,"Shade And Darkness.jpg"
//Break Periods
2,18445,19895
2,81070,82895
//Storyboard Layer 0 (Background)
//Storyboard Layer 1 (Fail)
//Storyboard Layer 2 (Pass)
//Storyboard Layer 3 (Foreground)
//Storyboard Sound Samples
//Background Colour Transformations
3,100,163,162,255

[TimingPoints]
5495,375,4,1,0,60,1,0

[Colours]
Combo1 : 230,110,110
Combo2 : 110,230,110
Combo3 : 110,110,230
Combo4 : 230,230,110
Combo5 : 230,110,230

[HitObjects]
112,64,5495,1,0
56,160,5682,1,0
168,176,5870,1,0
224,80,6057,1,0
312,144,6245,2,0,B|392:144,2,70
368,240,6807,1,0
456,304,6995,2,0,B|408:376|312:344,1,140
240,288,7557,2,0,B|184:232|88:272,1,140
32,184,8120,1,0
8,72,8307,1,0
96,136,8495,5,2
176,24,8682,1,0
264,136,8870,1,2
352,24,9057,1,0
440,96,9245,5,0
416,208,9432,1,0
504,272,9620,1,0
416,336,9807,1,0
312,304,9995,2,0,B|224:312|192:216,1,140
128,328,10557,2,0,B|48:280|104:192,1,140
32,112,11120,1,0
128,64,11307,1,0
216,136,11495,5,2
408,136,11682,1,0
312,240,11870,1,2
312,40,12057,1,0
200,72,12245,5,0
128,160,12432,1,0
48,240,12620,1,0
152,280,12807,1,0
248,336,12995,2,0,B|320:376|392:328,1,140
312,240,13557,2,0,B|264:176|176:216,1,140
80,176,14120,1,0
16,80,14307,1,0
160,48,14495,6,0,B|160:0,2,35,2|0|0
304,96,14870,2,0,B|352:96,2,35,2|0|0
208,152,15245,1,0
296,224,15432,1,0
400,184,15620,1,0
440,288,15807,1,0
336,328,15995,2,0,B|264:368|192:336,1,140
176,232,16557,2,0,B|96:232|72:320,1,140
32,208,17120,1,0
88,112,17307,1,0
184,48,17495,5,0
192,48,17588,1,0
200,48,17682,1,0
208,48,17776,1,0
216,48,17870,1,0
224,48,17963,1,0
232,48,18057,1,0
240,48,18151,1,0
248,48,18245,1,4
328,192,20495,5,0
240,264,20682,1,0
352,272,20870,1,0
408,176,21057,1,0
368,72,21245,5,0
368,72,21432,1,0
88,120,22745,5,0
32,216,22932,1,0
136,176,23120,1,0
168,280,23307,1,0
224,184,23495,1,0
224,184,23588,1,0
224,184,23682,1,0
320,128,23870,1,0
416,184,24057,1,0
328,248,24245,6,0,B|352:320|448:304,1,140
344,352,24807,2,0,B|280:384|208:360,1,140
136,304,25370,1,0
48,336,25557,2,0,B|-16:280|48:192,1,140
24,120,26120,2,0,B|64:96|104:104,1,70,0|0
144,24,26495,2,0,B|192:24|224:80,1,70,0|0
296,56,26870,2,0,B|320:112|288:152,1,70,0|0
376,176,27245,5,0
440,112,27432,1,0
464,200,27620,1,0
400,264,27807,2,0,B|352:352|272:256,2,140
320,184,28745,6,0,B|264:120|168:176,1,140
88,136,29307,2,0,B|128:56|216:64,1,140
96,24,29870,1,0
16,104,30057,1,0
48,208,30245,6,0,B|72:296|176:296,1,140,0|0
248,248,30807,2,0,B|400:248,1,140
344,144,31370,1,0
432,72,31557,1,0
320,72,31745,1,0
216,104,31932,1,0
120,48,32120,1,0
120,48,32307,1,0
24,192,32495,5,2
200,192,32682,1,0
24,192,32870,5,2
200,192,33057,1,0
136,288,33245,6,0,B|176:352|280:320,1,140
312,224,33807,2,0,B|384:192|448:240,1,140
480,128,34370,1,0
368,104,34557,1,0
280,32,34745,1,2
280,32,34838,1,0
280,32,34932,1,2
208,120,35120,1,0
232,232,35307,1,0
344,248,35495,5,2
344,248,35588,1,0
344,248,35682,1,2
296,144,35870,1,0
400,176,36057,1,0
448,280,36245,2,0,B|416:360|320:360,1,140
248,304,36807,2,0,B|160:320|136:224,1,140
40,192,37370,1,0
120,112,37557,1,0
224,72,37745,5,2
272,248,37932,1,0
320,72,38120,1,2
368,248,38307,1,0
288,168,38495,1,2
288,168,38588,1,0
288,168,38682,1,2
184,216,38870,1,2
80,264,39057,1,2
184,312,39245,6,0,B|256:360|336:304,1,140
424,344,39807,1,0
496,192,39995,1,0
424,48,40182,1,0
368,256,40370,1,0
368,136,40557,1,0
264,88,40745,5,2
168,32,40932,1,0
168,144,41120,1,2
72,208,41307,1,0
112,312,41495,1,2
144,312,41588,1,0
176,312,41682,1,2
272,256,41870,5,0
320,152,42057,1,0
400,232,42245,2,0,B|440:288|520:304,1,140
368,320,42807,2,0,B|328:376|232:376,1,140
192,272,43370,1,0
88,240,43557,2,0,B|32:176|104:104,1,140
208,120,44120,1,0
304,56,44307,1,0
408,88,44495,6,0,B|464:168|368:208,1,140
360,312,45057,2,0,B|256:304|288:192,1,140
208,320,45620,1,2
24,256,45807,1,0
208,208,45995,1,2
88,328,46182,5,0
88,184,46370,1,2
168,80,46557,1,0
384,160,46745,1,2
168,232,46932,1,0
312,56,47120,1,2
312,280,47307,1,0
264,168,47495,1,2
264,168,47588,1,0
264,168,47682,1,2
264,168,47776,1,0
264,168,47870,1,6
480,224,48245,5,0
424,320,48432,1,0
392,208,48620,1,0
480,136,48807,2,0,B|480:48|376:48,1,140
304,104,49370,2,0,B|208:104|176:48,1,140,0|0
56,240,50120,5,0
88,344,50307,1,0
128,240,50495,1,0
200,160,50682,2,0,B|288:160|320:216,1,140
224,280,51245,2,0,B|224:360,2,70
32,32,51995,5,0
136,72,52182,1,0
248,32,52370,1,0
224,144,52557,2,0,B|232:232|120:256,1,140
40,248,53120,2,0,B|48:168|128:152,1,140
320,352,53870,5,0
440,280,54057,1,0
304,256,54245,1,0
424,328,54432,1,0
416,184,54620,1,0
352,56,54807,1,0
304,184,54995,1,0
304,184,55370,1,4
40,88,55745,5,0
120,160,55932,1,0
8,160,56120,1,0
24,272,56307,2,0,B|40:344|160:336,1,140
224,272,56870,2,0,B|320:272,2,70,0|0|0
120,232,57432,1,0
224,192,57620,1,0
272,96,57807,1,0
360,32,57995,6,0,B|416:96|344:184,1,140,0|0
464,200,58557,2,0,B|512:272|432:352,1,140
352,272,59120,1,0
272,344,59307,1,0
160,320,59495,2,0,B|72:264|192:208,1,140,0|0
368,104,60245,5,0
472,72,60432,1,0
368,24,60620,1,0
416,128,60807,2,0,B|416:272,1,140
496,344,61370,1,0
384,320,61557,1,0
304,240,61745,2,0,B|216:240|200:320,1,140,0|0
304,352,62307,1,0
368,264,62495,2,0,B|384:184|296:128,1,140,0|0
208,176,63057,2,0,B|144:128|48:176,1,140
256,192,63620,12,0,64745
360,128,65120,5,0
360,240,65307,1,0
248,264,65495,2,0,B|176:312|104:256,1,140,0|0
48,184,66057,2,0,B|120:136|192:192,1,140,0|0
240,88,66620,1,0
136,48,66807,1,0
248,40,66995,2,0,B|400:40,1,140,0|0
496,40,67557,1,0
432,128,67745,2,0,B|472:200|424:288,1,140
320,264,68307,6,0,B|256:312|176:256,1,140
272,192,68870,1,0
184,120,69057,1,0
72,96,69245,2,0,B|16:168|64:248,1,140
264,304,69995,5,0
392,256,70182,1,0
256,240,70370,1,0
352,344,70557,5,0
488,328,70745,1,0
472,192,70932,1,0
328,184,71120,5,0
456,128,71307,1,0
320,112,71495,1,0
232,8,71682,5,0
104,64,71870,1,0
24,184,72057,1,0
256,192,72245,12,0,73370
352,264,73745,5,0
424,176,73932,1,0
360,88,74120,1,0
248,72,74307,1,0
152,128,74495,5,0
152,128,74588,1,0
152,128,74682,1,0
152,128,74776,1,0
152,128,74870,1,0
152,128,74963,1,0
152,128,75057,1,0
152,128,75151,1,0
152,128,75245,2,0,B|56:112,1,70,2|0
392,248,75620,2,0,B|464:272,1,70,2|0
256,72,75995,2,0,B|224:-8,1,70,2|0
304,312,76370,2,0,B|328:400,1,70,2|0
352,80,76745,6,0,B|392:8,1,70,2|0
160,256,77120,2,0,B|88:296,1,70,2|0
400,208,77495,2,0,B|496:216,1,70,2|0
184,88,77870,2,0,B|120:16,1,70,2|0
224,312,78245,6,0,B|200:392,1,70,2|0
352,80,78620,2,0,B|392:0,1,70,2|0
352,296,78995,2,0,B|392:376,1,70,2|0
136,224,79370,2,0,B|56:248,1,70,2|0
392,168,79745,5,2
408,152,79838,1,0
408,128,79932,1,2
400,104,80026,1,0
384,88,80120,2,0,B|288:88,2,70,2|2|0
480,32,80682,1,2
480,32,80870,1,2
80,192,83495,5,0
64,304,83682,1,0
152,232,83870,1,8
264,240,84057,1,0
376,264,84245,2,0,B|456:264|480:160,1,140,0|8
376,136,84807,2,0,B|336:64|408:0,1,140
288,40,85370,1,8
176,56,85557,1,0
104,144,85745,2,0,B|56:144,2,35
216,168,86120,1,8
272,264,86307,2,0,B|368:264|392:184,1,140
496,200,86870,1,8
328,352,87245,5,0
216,360,87432,1,0
112,328,87620,1,8
40,248,87807,2,0,B|40:336,2,70
136,192,88370,1,8
48,128,88557,2,0,B|80:48|184:40,1,140
232,96,89120,1,8
328,96,89307,1,0
280,184,89495,1,0
432,24,89682,5,0
432,120,89870,1,8
376,200,90057,1,0
464,240,90245,2,0,B|464:320|400:360,1,140,0|8
328,288,90807,1,0
272,368,90995,1,0
168,328,91182,2,0,B|0:328,1,140,0|8
112,240,91745,1,8
200,200,91932,1,0
352,56,92120,1,8
256,56,92307,5,0
168,104,92495,1,0
256,136,92682,1,8
432,184,92870,1,8
336,184,93057,5,0
392,264,93245,2,0,B|384:336|288:360,1,140,0|8
232,280,93807,2,0,B|232:128,2,140,0|0|8
144,248,94745,1,0
320,184,94932,1,0
144,104,95120,1,8
320,40,95307,1,0
416,72,95495,2,0,B|464:136|408:232,1,140,0|8
352,272,96057,6,0,B|184:272,1,140
136,208,96620,1,8
192,352,96807,1,0
56,272,96995,1,0
56,88,97182,1,0
192,112,97370,5,8
328,80,97557,1,0
464,120,97745,1,0
328,144,97932,1,8
464,168,98120,1,8
328,208,98307,1,8
448,280,98495,1,8
448,280,98588,1,0
448,280,98682,1,8
448,280,98776,1,0
448,280,98870,1,8
448,280,98963,1,0
448,280,99057,1,8
448,280,99151,1,4
448,280,99245,2,0,B|448:360,2,70,12|8|0
344,312,99807,6,0,B|280:360|192:336,1,140
208,224,100370,2,0,B|128:224|96:304,1,140
48,80,101120,6,0,B|48:0,2,70
160,56,101682,2,0,B|232:0|296:64,1,140
224,152,102245,2,0,B|296:200|368:136,1,140
208,320,102995,5,0
96,304,103182,1,0
24,216,103370,1,0
80,120,103557,2,0,B|80:48,2,70
160,200,104120,2,0,B|240:224|320:192,1,140
392,144,104682,1,0
432,248,104870,2,0,B|472:248,2,35
352,328,105245,1,0
248,280,105432,2,0,B|248:360,2,70
144,240,105995,2,0,B|96:240,4,35
304,80,106745,6,0,B|384:80|416:168,1,140
304,192,107307,1,0
408,232,107495,1,0
456,336,107682,2,0,B|360:336,2,70
512,232,108245,2,0,B|528:144|440:112,1,140
368,48,108807,1,0
256,72,108995,2,0,B|176:16|136:120,1,140
240,168,109557,2,0,B|240:264|128:224,1,140
72,144,110120,1,0
24,248,110307,1,0
112,320,110495,1,0
112,320,110870,1,0
336,296,111245,5,0
440,264,111432,1,0
376,168,111620,1,0
320,72,111807,2,0,B|160:72,1,140
248,160,112370,1,0
176,248,112557,1,0
256,328,112745,2,0,B|328:368|408:320,1,140
440,112,113495,6,0,B|472:192|432:264,1,140
344,192,114057,2,0,B|272:248|192:176,1,140
256,192,114620,12,0,115745
176,96,116120,5,0
72,128,116307,1,0
136,216,116495,2,0,B|136:296,2,70
248,216,117057,2,0,B|320:272|392:232,1,140
464,160,117620,1,0
352,144,117807,1,0
272,64,117995,2,0,B|200:24|112:80,1,140
56,136,118557,1,0
16,240,118745,5,0
184,240,118932,1,0
16,240,119120,1,0
96,312,119307,2,0,B|136:376|240:352,1,140
296,272,119870,1,0
392,328,120057,1,0
448,232,120245,2,0,B|480:152|432:88,1,140
216,88,120995,5,0
80,112,121182,1,0
168,224,121370,1,0
232,312,121557,5,0
368,272,121745,1,0
272,176,121932,1,0
360,104,122120,5,0
480,32,122307,1,0
472,176,122495,1,0
336,216,122682,1,0
376,320,122870,1,0
272,352,123057,1,0
176,288,123245,2,0,B|96:288,2,70
104,200,123807,5,0
16,136,123995,1,0
104,72,124182,1,0
216,96,124370,2,0,B|304:64,1,70
376,136,124745,2,0,B|456:136,1,70
216,184,125120,2,0,B|304:216,1,70
360,288,125495,2,0,B|432:296|472:232,1,105,0|4
72,280,126620,5,0
24,176,126807,1,0
128,216,126995,1,8
216,152,127182,2,0,B|312:152,1,70,0|0
360,72,127557,1,0
456,128,127745,2,0,B|504:200|448:272,1,140,8|0
344,248,128307,1,0
272,336,128495,1,8
168,296,128682,2,0,B|80:304|72:192,1,140
120,112,129245,1,8
120,104,129338,1,0
120,96,129432,1,0
224,56,129620,5,0
328,88,129807,1,0
440,56,129995,1,8
432,168,130182,2,0,B|472:168,2,35
376,264,130557,1,0
304,352,130745,1,8
208,288,130932,1,0
120,216,131120,5,0
64,32,131307,1,0
152,96,131495,1,8
224,8,131682,1,0
24,128,131870,1,0
32,240,132057,1,0
32,240,132245,1,8
32,240,132620,5,0
120,312,132807,1,0
224,272,132995,1,8
208,160,133182,2,0,B|280:120|344:168,1,140
392,264,133745,1,8
480,96,133932,1,0
376,48,134120,1,0
264,56,134307,1,0
352,128,134495,1,8
448,176,134682,6,0,B|496:240|456:320,1,140
352,288,135245,1,8
240,288,135432,1,0
168,200,135620,1,0
24,304,135807,1,0
80,144,135995,1,8
24,48,136182,2,0,B|96:8|168:48,1,140
272,24,136745,1,8
296,136,136932,1,0
408,112,137120,5,0
184,112,137307,1,0
296,224,137495,1,8
448,280,137682,2,0,B|416:352|320:344,1,140
224,312,138245,1,8
192,304,138338,1,0
160,288,138432,1,0
144,256,138526,1,0
144,224,138620,2,0,B|0:224,2,140,0|0|0
88,128,139557,5,0
192,96,139745,1,0
296,136,139932,2,8,B|368:184|432:136,1,140,2|2
488,232,140495,2,0,B|400:264|440:368,1,140,2|2
328,312,141057,1,0
232,368,141245,1,0
216,256,141432,1,0
120,312,141620,2,0,B|64:248|136:160,1,140,2|0
24,120,142182,1,0
112,48,142370,1,2
200,184,142557,5,0
312,32,142745,1,0
336,160,142932,1,2
440,120,143120,2,8,B|440:208,1,70,0|2
376,280,143495,2,8,B|328:360|224:320,1,140,2|2
168,264,144057,1,0
72,208,144245,1,0
136,120,144432,1,0
232,64,144620,5,2
408,64,144807,1,0
232,64,144995,5,0
408,64,145182,1,0
480,152,145370,2,0,B|472:240|384:280,1,140,2|0
304,224,145932,1,0
264,328,146120,2,0,B|176:328,1,70,2|2
88,296,146495,1,0
160,216,146682,1,0
48,192,146870,1,2
48,192,147057,1,2
216,48,147432,1,0
328,64,147620,6,0,B|416:48,1,70
392,160,147995,2,0,B|472:176,1,70
408,272,148370,2,0,B|432:352,1,70
312,336,148745,2,0,B|248:376,1,70
176,296,149120,2,0,B|176:240,3,35
144,304,149495,2,0,B|144:360,3,35
112,296,149870,2,0,B|32:296,1,70,4|4
288,72,150620,5,0
392,104,150807,1,0
440,208,150995,1,8
328,232,151182,2,0,B|336:296|432:336,1,140
304,320,151745,1,8
192,304,151932,1,0
96,240,152120,5,0
216,168,152307,1,0
80,192,152495,1,8
16,96,152682,2,0,B|64:32|160:64,1,140
248,96,153245,1,8
360,96,153432,1,8
336,208,153620,2,0,B|336:288,2,70,0|0|8
440,248,154182,2,0,B|480:184|432:104,1,140
328,136,154745,1,8
104,168,155120,5,8
240,168,155307,1,8
120,240,155495,1,0
176,112,155682,1,8
224,240,155870,1,0
336,320,156057,1,0
192,320,156245,1,8
48,80,156620,5,0
144,136,156807,1,0
64,216,156995,1,8
176,240,157182,2,0,B|272:264|344:224,1,140
392,160,157745,2,0,B|480:160,1,70,8|0
392,72,158120,1,0
264,24,158307,1,0
128,72,158495,1,8
216,136,158682,2,0,B|264:216|200:280,1,140
120,200,159245,1,8
120,200,159432,1,8
32,272,159620,5,0
128,328,159807,1,0
240,320,159995,1,8
216,208,160182,2,0,B|304:184|376:216,1,140
464,192,160745,1,8
424,296,160932,1,0
368,200,161120,5,0
320,72,161307,1,0
264,200,161495,1,8
216,72,161682,1,0
72,72,161870,1,0
184,152,162057,1,0
40,152,162245,1,8
56,264,162432,5,0
160,232,162620,2,0,B|160:312,2,70,0|0|8
264,272,163182,2,0,B|336:304|400:272,1,140
336,176,163745,1,8
472,176,163932,1,8
368,80,164120,2,0,B|440:80,2,70,0|0|8
264,112,164682,2,0,B|208:160|128:160,1,140
64,72,165245,1,8
64,208,165432,1,0
144,96,165620,6,0,B|144:24,1,70
144,248,165995,2,0,B|144:320,1,70,8|0
232,112,166370,1,0
296,64,166557,1,0
376,40,166745,1,8
456,72,166932,1,0
400,128,167120,1,0
400,296,167307,1,0
512,208,167495,1,8
288,208,167682,1,0
512,208,167870,5,0
288,208,168057,1,0
512,208,168245,5,8
192,280,168620,6,0,B|192:352,2,70,0|0|8
104,208,169182,2,0,B|48:152|48:80,1,140
160,72,169745,1,8
312,64,169932,1,8
208,160,170120,6,0,B|208:240,2,70,0|0|8
320,176,170682,2,0,B|408:144|416:64,1,140
456,184,171245,1,8
400,280,171432,1,0
288,264,171620,1,0
192,320,171807,1,0
96,264,171995,1,8
160,176,172182,2,0,B|256:152|288:80,1,140
176,48,172745,1,8
176,48,172932,1,0
64,64,173120,5,0
24,168,173307,1,0
136,160,173495,1,8
216,240,173682,2,0,B|280:296|376:232,1,140
296,152,174245,1,8
400,104,174432,2,0,B|400:56,2,35
112,264,175370,5,0
184,304,175557,1,0
264,288,175745,1,0
304,216,175932,1,0
232,176,176120,5,0
136,120,176307,1,0
200,24,176495,1,0
312,40,176682,1,0
352,144,176870,1,0
352,144,176963,1,0
352,144,177057,1,0
352,144,177151,1,0
352,144,177245,2,4,B|440:144,1,70,0|0
