osu file format v13

[General]
AudioFilename: Paradise Iselin _Chewing Gum_ OFFICIAL TEASER.mp3
AudioLeadIn: 0
PreviewTime: -1
Countdown: 1
SampleSet: None
StackLeniency: 0.7
Mode: 0
LetterboxInBreaks: 1
WidescreenStoryboard: 0

[Editor]
DistanceSpacing: 0.8
BeatDivisor: 4
GridSize: 8
TimelineZoom: 1

[Metadata]
Title:Chewing gum (short ver.)
TitleUnicode:Chewing gum (short ver.)
Artist:Iselin Michelsen
ArtistUnicode:Iselin Michelsen
Creator:Princess Zoom
Version:Normal
Source:
Tags:
BeatmapID:268210
BeatmapSetID:86168

[Difficulty]
HPDrainRate:3
CircleSize:3
OverallDifficulty:4
ApproachRate:3
SliderMultiplier:1.4
SliderTickRate:2

[Events]
//Background and Video events
0,0,"chewing gum.jpg",0,0
//Break Periods
//Storyboard Layer 0 (Background)
//Storyboard Layer 1 (Fail)
//Storyboard Layer 2 (Pass)
//Storyboard Layer 3 (Foreground)
//Storyboard Sound Samples
//Background Colour Transformations
3,100,255,128,255

[TimingPoints]
46,487.499999999997,4,1,0,100,1,0
46,-66.6666666666667,4,1,0,100,0,0
13695,474.499999999997,4,1,0,100,1,0
15585,487.49969531269,4,1,0,100,1,0
15585,-66.6666666666667,4,1,0,100,0,0
46784,-133.333333333333,4,2,0,100,0,0
50684,-50,4,2,0,100,0,0

[Colours]
Combo1 : 0,0,64
Combo2 : 255,0,0
Combo3 : 0,0,255
Combo4 : 255,0,0
Combo5 : 0,0,160
Combo6 : 255,0,0
Combo7 : 0,0,128
Combo8 : 255,0,0

[HitObjects]
104,192,534,5,0,0:0:0:0:
160,128,1509,1,0,0:0:0:0:
224,176,2484,1,0,0:0:0:0:
176,240,3459,1,0,0:0:0:0:
240,288,4434,5,0,0:0:0:0:
288,224,5409,1,0,0:0:0:0:
224,184,6384,1,0,0:0:0:0:
168,240,7359,1,0,0:0:0:0:
112,184,8334,5,0,0:0:0:0:
168,128,9309,1,0,0:0:0:0:
224,72,10284,1,0,0:0:0:0:
288,120,11259,1,0,0:0:0:0:
240,184,12234,5,0,0:0:0:0:
304,232,13209,1,0,0:0:0:0:
392,120,16073,5,0,0:0:0:0:
304,120,17048,1,0,0:0:0:0:
224,120,18023,1,0,0:0:0:0:
136,120,18998,1,0,0:0:0:0:
136,200,19973,1,0,0:0:0:0:
136,280,20948,1,0,0:0:0:0:
216,280,21923,5,0,0:0:0:0:
216,200,22410,1,0,0:0:0:0:
296,200,22898,1,0,0:0:0:0:
296,280,23385,1,0,0:0:0:0:
376,280,24360,5,0,0:0:0:0:
376,200,24848,1,0,0:0:0:0:
464,200,25335,1,0,0:0:0:0:
464,280,25823,1,0,0:0:0:0:
376,280,26310,5,0,0:0:0:0:
376,200,26798,1,0,0:0:0:0:
376,120,27285,1,0,0:0:0:0:
256,192,27758,12,0,29706,0:0:0:0:
136,40,30210,5,0,0:0:0:0:
56,40,30698,1,0,0:0:0:0:
112,96,31185,1,0,0:0:0:0:
176,144,31673,1,0,0:0:0:0:
240,192,32160,5,0,0:0:0:0:
296,248,32648,1,0,0:0:0:0:
360,296,33135,1,0,0:0:0:0:
416,344,33623,1,0,0:0:0:0:
416,264,34110,5,0,0:0:0:0:
416,184,34598,1,0,0:0:0:0:
416,104,35085,1,0,0:0:0:0:
336,104,35573,1,0,0:0:0:0:
288,144,36060,5,0,0:0:0:0:
288,208,36548,1,0,0:0:0:0:
240,232,37035,1,0,0:0:0:0:
192,256,37523,1,0,0:0:0:0:
216,120,38985,5,0,0:0:0:0:
248,144,39473,1,0,0:0:0:0:
224,176,39960,1,0,0:0:0:0:
192,144,40448,1,0,0:0:0:0:
256,208,41423,5,0,0:0:0:0:
288,184,41910,1,0,0:0:0:0:
296,264,42398,1,0,0:0:0:0:
336,216,42885,1,0,0:0:0:0:
384,256,43373,5,0,0:0:0:0:
424,216,43860,1,0,0:0:0:0:
464,264,44348,1,0,0:0:0:0:
424,296,44835,1,0,0:0:0:0:
376,336,45323,1,0,0:0:0:0:
376,264,45810,1,0,0:0:0:0:
376,192,46785,5,0,0:0:0:0:
336,232,47273,1,0,0:0:0:0:
416,232,47760,1,0,0:0:0:0:
416,152,48248,1,0,0:0:0:0:
256,192,50685,5,0,0:0:0:0:
208,144,51173,1,0,0:0:0:0:
256,152,51660,1,0,0:0:0:0:
304,152,52148,1,0,0:0:0:0:
304,200,52635,5,0,0:0:0:0:
304,248,53123,1,0,0:0:0:0:
256,248,53610,1,0,0:0:0:0:
