osu file format v14

[General]
AudioFilename: 05. .mp3
AudioLeadIn: 0
PreviewTime: 68140
Countdown: 1
SampleSet: Normal
StackLeniency: 0.7
Mode: 1
LetterboxInBreaks: 1
WidescreenStoryboard: 0

[Editor]
DistanceSpacing: 1
BeatDivisor: 4
GridSize: 32
TimelineZoom: 2.799999

[Metadata]
Title:Watashi Ni Makasete!
TitleUnicode:私にまかせて!
Artist:Is the order a rabbit?
ArtistUnicode:ご注文はうさぎですか?
Creator:Mamosora
Version:Mamosora ni Makasete!
Source:ご注文はうさぎですか?
Tags:
BeatmapID:682309
BeatmapSetID:304562

[Difficulty]
HPDrainRate:5
CircleSize:5
OverallDifficulty:5
ApproachRate:5
SliderMultiplier:1.4
SliderTickRate:1

[Events]
//Background and Video events
0,0,"BG.jpg",0,100
//Break Periods
//Storyboard Layer 0 (Background)
//Storyboard Layer 1 (Fail)
//Storyboard Layer 2 (Pass)
//Storyboard Layer 3 (Foreground)
//Storyboard Sound Samples

[TimingPoints]
1015,300,4,1,0,100,1,0
8215,-100,4,1,0,100,0,1
26215,300,4,1,0,100,1,0
26215,-100,4,1,0,100,0,0
41815,300,4,1,0,100,1,0
63415,300,4,1,0,100,1,0
68215,-100,4,1,0,100,0,1
76840,-97.0873786407767,4,1,0,100,0,1
77140,-91.743119266055,4,1,0,100,0,1
77440,-89.2857142857143,4,1,0,100,0,1
77740,-86.9565217391304,4,1,0,100,0,1
89216,-100,4,1,0,100,0,0

[HitObjects]
256,192,715,5,8,0:0:0:0:
256,192,1015,1,4,0:0:0:0:
256,192,1315,1,4,0:0:0:0:
256,192,1615,1,0,0:0:0:0:
256,192,1765,1,8,0:0:0:0:
256,192,1915,1,8,0:0:0:0:
256,192,2215,1,4,0:0:0:0:
256,192,2515,1,4,0:0:0:0:
256,192,2815,1,0,0:0:0:0:
256,192,2965,1,8,0:0:0:0:
256,192,3115,1,0,0:0:0:0:
256,192,3415,1,4,0:0:0:0:
256,192,3715,1,0,0:0:0:0:
256,192,4015,1,8,0:0:0:0:
256,192,4315,1,0,0:0:0:0:
256,192,4615,1,8,0:0:0:0:
256,192,5815,1,12,0:0:0:0:
256,192,5965,1,12,0:0:0:0:
256,192,6115,1,12,0:0:0:0:
256,192,6265,1,12,0:0:0:0:
256,192,6415,1,12,0:0:0:0:
256,192,7015,1,0,0:0:0:0:
256,192,7615,1,4,0:0:0:0:
256,192,8215,1,0,0:0:0:0:
256,192,8365,1,8,0:0:0:0:
256,192,8515,1,8,0:0:0:0:
256,192,8815,1,0,0:0:0:0:
256,192,8965,1,0,0:0:0:0:
256,192,9115,1,8,0:0:0:0:
256,192,9415,1,0,0:0:0:0:
256,192,9565,1,0,0:0:0:0:
256,192,9640,1,8,0:0:0:0:
256,192,9715,1,0,0:0:0:0:
256,192,9865,1,0,0:0:0:0:
256,192,10015,1,8,0:0:0:0:
256,192,10165,1,0,0:0:0:0:
256,192,10315,1,0,0:0:0:0:
256,192,10615,1,0,0:0:0:0:
256,192,10765,1,0,0:0:0:0:
256,192,10915,1,8,0:0:0:0:
256,192,11215,1,0,0:0:0:0:
256,192,11365,1,8,0:0:0:0:
256,192,11515,1,8,0:0:0:0:
256,192,11815,1,8,0:0:0:0:
256,192,12115,1,0,0:0:0:0:
256,192,12415,1,8,0:0:0:0:
256,192,12565,1,0,0:0:0:0:
256,192,12715,1,0,0:0:0:0:
256,192,13015,1,8,0:0:0:0:
256,192,13165,1,0,0:0:0:0:
256,192,13315,1,12,0:0:0:0:
256,192,13465,1,0,0:0:0:0:
256,192,13615,1,12,0:0:0:0:
256,192,13765,1,0,0:0:0:0:
256,192,13915,1,0,0:0:0:0:
256,192,14215,1,8,0:0:0:0:
256,192,14365,1,0,0:0:0:0:
256,192,14515,1,12,0:0:0:0:
256,192,14665,1,0,0:0:0:0:
256,192,14815,1,12,0:0:0:0:
256,192,14965,1,0,0:0:0:0:
256,192,15115,1,0,0:0:0:0:
256,192,15265,1,8,0:0:0:0:
256,192,15415,1,0,0:0:0:0:
256,192,15715,1,12,0:0:0:0:
256,192,16015,1,8,0:0:0:0:
256,192,16165,1,0,0:0:0:0:
256,192,16315,1,0,0:0:0:0:
256,192,16615,1,12,0:0:0:0:
256,192,16915,1,0,0:0:0:0:
256,192,17215,1,8,0:0:0:0:
256,192,17365,1,0,0:0:0:0:
256,192,17515,1,0,0:0:0:0:
256,192,17665,1,0,0:0:0:0:
256,192,17815,1,0,0:0:0:0:
256,192,18115,1,8,0:0:0:0:
256,192,18415,1,0,0:0:0:0:
256,192,18565,1,0,0:0:0:0:
256,192,18715,1,8,0:0:0:0:
256,192,19015,1,0,0:0:0:0:
256,192,19165,1,8,0:0:0:0:
256,192,19240,1,0,0:0:0:0:
256,192,19315,1,0,0:0:0:0:
256,192,19465,1,8,0:0:0:0:
256,192,19615,1,0,0:0:0:0:
256,192,19765,1,0,0:0:0:0:
256,192,19915,1,8,0:0:0:0:
256,192,20215,1,0,0:0:0:0:
256,192,20515,1,8,0:0:0:0:
256,192,20815,1,0,0:0:0:0:
256,192,20965,1,8,0:0:0:0:
256,192,21115,1,8,0:0:0:0:
256,192,21415,1,8,0:0:0:0:
256,192,21565,1,0,0:0:0:0:
256,192,21640,1,8,0:0:0:0:
256,192,21715,1,8,0:0:0:0:
256,192,21865,1,0,0:0:0:0:
256,192,22015,1,8,0:0:0:0:
256,192,22165,1,0,0:0:0:0:
256,192,22315,1,0,0:0:0:0:
256,192,22615,1,12,0:0:0:0:
256,192,22765,1,0,0:0:0:0:
256,192,22840,1,0,0:0:0:0:
256,192,22915,1,8,0:0:0:0:
256,192,23065,1,0,0:0:0:0:
256,192,23215,1,12,0:0:0:0:
256,192,23365,1,0,0:0:0:0:
256,192,23515,1,0,0:0:0:0:
256,192,23815,1,12,0:0:0:0:
256,192,23965,1,0,0:0:0:0:
256,192,24040,1,8,0:0:0:0:
256,192,24115,1,8,0:0:0:0:
256,192,24265,1,0,0:0:0:0:
256,192,24415,1,12,0:0:0:0:
256,192,24565,1,0,0:0:0:0:
256,192,24715,1,8,0:0:0:0:
256,192,24865,1,0,0:0:0:0:
256,192,25015,1,12,0:0:0:0:
256,192,25165,1,0,0:0:0:0:
256,192,25315,1,0,0:0:0:0:
256,192,25465,1,0,0:0:0:0:
256,192,25615,1,12,0:0:0:0:
256,192,25915,1,0,0:0:0:0:
256,192,26215,1,4,0:0:0:0:
256,192,26515,1,8,0:0:0:0:
256,192,26815,1,0,0:0:0:0:
256,192,27115,1,8,0:0:0:0:
256,192,27415,1,0,0:0:0:0:
256,192,27715,1,8,0:0:0:0:
256,192,27865,1,8,0:0:0:0:
256,192,28015,1,0,0:0:0:0:
256,192,28315,1,8,0:0:0:0:
256,192,28615,1,0,0:0:0:0:
256,192,28915,1,8,0:0:0:0:
256,192,29215,1,0,0:0:0:0:
256,192,29515,1,8,0:0:0:0:
256,192,29815,1,0,0:0:0:0:
256,192,30115,1,8,0:0:0:0:
256,192,30265,1,8,0:0:0:0:
256,192,30415,1,8,0:0:0:0:
256,192,31015,1,4,0:0:0:0:
256,192,31315,1,8,0:0:0:0:
256,192,31615,1,0,0:0:0:0:
256,192,31765,1,0,0:0:0:0:
256,192,31915,1,8,0:0:0:0:
256,192,32215,1,0,0:0:0:0:
256,192,32515,1,8,0:0:0:0:
256,192,32815,1,0,0:0:0:0:
256,192,33115,1,8,0:0:0:0:
256,192,33415,1,0,0:0:0:0:
256,192,33715,1,8,0:0:0:0:
256,192,34015,1,0,0:0:0:0:
256,192,34165,1,0,0:0:0:0:
256,192,34315,1,8,0:0:0:0:
256,192,34615,1,0,0:0:0:0:
256,192,34915,1,8,0:0:0:0:
256,192,35215,1,8,0:0:0:0:
256,192,35315,1,8,0:0:0:0:
256,192,35415,1,8,0:0:0:0:
256,192,35515,1,0,0:0:0:0:
256,192,35815,1,8,0:0:0:0:
256,192,36115,1,0,0:0:0:0:
256,192,36415,1,8,0:0:0:0:
256,192,36565,1,0,0:0:0:0:
256,192,36715,1,8,0:0:0:0:
256,192,37015,1,0,0:0:0:0:
256,192,37315,1,8,0:0:0:0:
256,192,37615,1,4,0:0:0:0:
256,192,37765,1,0,0:0:0:0:
256,192,37915,1,8,0:0:0:0:
256,192,38215,1,12,0:0:0:0:
256,192,38515,1,8,0:0:0:0:
256,192,38815,1,8,0:0:0:0:
256,192,39115,1,0,0:0:0:0:
256,192,39415,1,8,0:0:0:0:
256,224,39565,1,0,0:0:0:0:
256,192,39715,1,8,0:0:0:0:
256,192,40015,1,0,0:0:0:0:
256,192,40315,1,8,0:0:0:0:
256,192,40615,1,0,0:0:0:0:
256,192,40915,1,12,0:0:0:0:
256,192,41215,1,12,0:0:0:0:
256,192,41815,1,4,0:0:0:0:
256,192,42115,1,8,0:0:0:0:
256,192,42265,1,8,0:0:0:0:
256,192,42415,1,0,0:0:0:0:
256,192,42565,1,8,0:0:0:0:
256,192,42715,1,0,0:0:0:0:
256,192,42815,1,8,0:0:0:0:
256,192,42915,1,8,0:0:0:0:
256,192,43015,1,0,0:0:0:0:
256,192,43315,1,8,0:0:0:0:
256,192,43465,1,8,0:0:0:0:
256,192,43615,1,0,0:0:0:0:
256,192,43915,1,8,0:0:0:0:
256,192,44215,1,0,0:0:0:0:
256,192,44515,1,8,0:0:0:0:
256,192,44665,1,8,0:0:0:0:
256,192,44815,1,8,0:0:0:0:
256,192,45115,1,0,0:0:0:0:
288,192,45215,1,8,0:0:0:0:
256,192,45315,1,0,0:0:0:0:
256,192,45415,1,0,0:0:0:0:
256,192,45565,1,0,0:0:0:0:
256,192,45715,1,8,0:0:0:0:
256,192,45865,1,0,0:0:0:0:
256,192,46015,1,8,0:0:0:0:
256,192,46315,1,8,0:0:0:0:
256,192,46615,1,12,0:0:0:0:
256,192,46915,1,8,0:0:0:0:
256,192,47065,1,0,0:0:0:0:
256,192,47215,1,8,0:0:0:0:
256,192,47515,1,8,0:0:0:0:
256,192,47665,1,8,0:0:0:0:
256,192,47815,1,0,0:0:0:0:
256,192,47965,1,8,0:0:0:0:
256,192,48115,1,0,0:0:0:0:
256,192,48265,1,0,0:0:0:0:
256,192,48415,1,8,0:0:0:0:
256,192,48565,1,0,0:0:0:0:
256,192,48715,1,0,0:0:0:0:
256,192,49015,1,8,0:0:0:0:
256,192,49090,1,8,0:0:0:0:
256,192,49165,1,8,0:0:0:0:
256,192,49315,1,8,0:0:0:0:
256,192,49615,1,0,0:0:0:0:
256,192,49915,1,8,0:0:0:0:
256,192,50065,1,0,0:0:0:0:
256,192,50215,1,0,0:0:0:0:
256,192,50365,1,0,0:0:0:0:
256,192,50440,1,0,0:0:0:0:
256,192,50515,1,8,0:0:0:0:
256,192,50665,1,0,0:0:0:0:
256,192,50815,1,12,0:0:0:0:
256,192,51115,1,8,0:0:0:0:
256,192,51265,1,0,0:0:0:0:
256,192,51415,1,0,0:0:0:0:
256,192,51715,1,8,0:0:0:0:
256,192,51865,1,8,0:0:0:0:
256,192,52015,1,0,0:0:0:0:
256,192,52165,1,8,0:0:0:0:
256,192,52315,1,8,0:0:0:0:
256,192,52465,1,0,0:0:0:0:
256,192,52615,1,0,0:0:0:0:
256,192,52915,1,4,0:0:0:0:
256,192,53215,1,8,0:0:0:0:
256,192,53365,1,0,0:0:0:0:
256,192,53515,1,8,0:0:0:0:
256,192,53665,1,0,0:0:0:0:
256,192,53815,1,0,0:0:0:0:
256,192,54115,1,4,0:0:0:0:
256,192,54415,1,0,0:0:0:0:
256,192,54565,1,8,0:0:0:0:
256,192,54715,1,8,0:0:0:0:
256,192,54865,1,0,0:0:0:0:
256,192,55015,1,0,0:0:0:0:
256,192,55315,1,12,0:0:0:0:
256,192,55615,1,8,0:0:0:0:
256,192,55765,1,0,0:0:0:0:
256,192,55915,1,0,0:0:0:0:
256,192,56215,1,8,0:0:0:0:
256,192,56515,1,8,0:0:0:0:
256,192,56815,1,8,0:0:0:0:
256,192,56965,1,0,0:0:0:0:
256,192,57115,1,8,0:0:0:0:
256,192,57265,1,0,0:0:0:0:
256,192,57415,1,8,0:0:0:0:
256,192,57715,1,8,0:0:0:0:
256,192,57865,1,0,0:0:0:0:
256,192,58015,1,4,0:0:0:0:
256,192,58615,1,4,0:0:0:0:
256,192,58915,1,4,0:0:0:0:
256,192,59215,1,8,0:0:0:0:
256,192,59365,1,0,0:0:0:0:
256,192,59515,1,8,0:0:0:0:
256,192,59815,1,4,0:0:0:0:
256,192,60115,1,4,0:0:0:0:
256,192,60415,1,8,0:0:0:0:
256,192,60565,1,0,0:0:0:0:
256,192,60715,1,0,0:0:0:0:
256,192,61015,1,4,0:0:0:0:
256,192,61315,1,8,0:0:0:0:
256,192,61465,1,8,0:0:0:0:
256,192,61615,1,0,0:0:0:0:
256,192,61915,1,8,0:0:0:0:
256,192,62215,1,0,0:0:0:0:
256,192,62365,1,0,0:0:0:0:
256,192,62515,1,8,0:0:0:0:
256,192,62815,1,0,0:0:0:0:
256,192,62965,1,0,0:0:0:0:
256,192,63115,1,8,0:0:0:0:
256,192,63415,1,4,0:0:0:0:
256,192,63565,1,4,0:0:0:0:
256,192,63715,1,4,0:0:0:0:
256,192,63865,1,4,0:0:0:0:
256,192,64015,1,4,0:0:0:0:
256,192,64615,1,4,0:0:0:0:
256,192,64915,1,4,0:0:0:0:
256,192,65215,1,0,0:0:0:0:
256,192,65365,1,0,0:0:0:0:
256,192,65515,1,8,0:0:0:0:
256,192,65815,1,0,0:0:0:0:
256,192,66415,1,4,0:0:0:0:
256,192,67015,1,0,0:0:0:0:
256,192,67615,1,0,0:0:0:0:
256,192,67915,1,4,0:0:0:0:
256,192,68215,1,8,0:0:0:0:
256,192,68365,1,0,0:0:0:0:
256,192,68515,1,8,0:0:0:0:
256,192,68590,1,8,0:0:0:0:
256,192,68665,1,8,0:0:0:0:
256,192,68815,1,0,0:0:0:0:
256,192,68965,1,0,0:0:0:0:
256,192,69115,1,8,0:0:0:0:
256,192,69415,1,8,0:0:0:0:
256,192,69565,1,0,0:0:0:0:
256,192,69640,1,0,0:0:0:0:
256,192,69715,1,8,0:0:0:0:
256,192,69865,1,0,0:0:0:0:
256,192,70015,1,8,0:0:0:0:
256,192,70315,1,12,0:0:0:0:
256,192,70615,1,0,0:0:0:0:
256,192,70765,1,0,0:0:0:0:
256,192,70915,1,8,0:0:0:0:
256,192,70990,1,8,0:0:0:0:
256,192,71065,1,8,0:0:0:0:
256,192,71215,1,0,0:0:0:0:
256,192,71365,1,0,0:0:0:0:
256,192,71515,1,8,0:0:0:0:
256,192,71815,1,8,0:0:0:0:
256,192,72115,1,12,0:0:0:0:
256,192,72415,1,12,0:0:0:0:
256,192,72715,1,8,0:0:0:0:
256,192,72865,1,0,0:0:0:0:
256,192,73015,1,8,0:0:0:0:
256,192,73165,1,0,0:0:0:0:
256,192,73240,1,0,0:0:0:0:
256,192,73315,1,8,0:0:0:0:
256,192,73465,1,0,0:0:0:0:
256,192,73615,1,8,0:0:0:0:
256,192,73765,1,0,0:0:0:0:
256,192,73915,1,8,0:0:0:0:
256,192,74215,1,8,0:0:0:0:
256,192,74365,1,8,0:0:0:0:
256,192,74515,1,8,0:0:0:0:
256,192,74665,1,0,0:0:0:0:
256,192,74740,1,0,0:0:0:0:
256,192,74815,1,8,0:0:0:0:
256,192,74965,1,0,0:0:0:0:
256,192,75115,1,8,0:0:0:0:
256,192,75265,1,0,0:0:0:0:
256,192,75415,1,8,0:0:0:0:
256,192,75565,1,0,0:0:0:0:
256,192,75715,1,8,0:0:0:0:
256,192,76015,1,0,0:0:0:0:
256,192,76165,1,0,0:0:0:0:
256,192,76315,1,8,0:0:0:0:
256,192,76465,1,0,0:0:0:0:
256,192,76615,1,8,0:0:0:0:
256,192,76915,5,0,0:0:0:0:
256,192,77215,1,4,0:0:0:0:
256,192,77515,1,4,0:0:0:0:
256,192,77815,1,8,0:0:0:0:
256,192,77890,1,8,0:0:0:0:
256,192,77965,1,0,0:0:0:0:
256,192,78040,1,0,0:0:0:0:
256,192,78115,1,8,0:0:0:0:
256,192,78265,1,0,0:0:0:0:
256,192,78415,1,8,0:0:0:0:
256,192,78715,1,8,0:0:0:0:
256,192,78865,1,0,0:0:0:0:
256,192,79015,1,8,0:0:0:0:
256,192,79090,1,0,0:0:0:0:
256,192,79165,1,0,0:0:0:0:
256,192,79240,1,0,0:0:0:0:
256,192,79315,1,8,0:0:0:0:
256,192,79465,1,0,0:0:0:0:
256,192,79615,1,8,0:0:0:0:
256,192,79915,1,0,0:0:0:0:
256,192,80215,1,0,0:0:0:0:
256,192,80290,1,0,0:0:0:0:
256,192,80365,1,0,0:0:0:0:
256,192,80440,1,0,0:0:0:0:
256,192,80515,1,8,0:0:0:0:
256,192,80665,1,0,0:0:0:0:
256,192,80815,1,8,0:0:0:0:
256,192,80890,1,8,0:0:0:0:
256,192,80965,1,0,0:0:0:0:
256,192,81040,1,0,0:0:0:0:
256,192,81115,1,8,0:0:0:0:
256,192,81265,1,0,0:0:0:0:
256,192,81415,1,8,0:0:0:0:
256,192,81715,1,12,0:0:0:0:
256,192,82015,1,12,0:0:0:0:
256,192,82315,1,8,0:0:0:0:
256,192,82390,1,8,0:0:0:0:
256,192,82465,1,8,0:0:0:0:
256,192,82540,1,8,0:0:0:0:
256,192,82615,1,8,0:0:0:0:
256,192,82765,1,0,0:0:0:0:
256,192,82840,1,0,0:0:0:0:
256,192,82915,1,8,0:0:0:0:
256,192,83065,1,0,0:0:0:0:
256,192,83215,1,8,0:0:0:0:
256,192,83365,1,0,0:0:0:0:
256,192,83515,1,12,0:0:0:0:
256,192,83815,1,8,0:0:0:0:
256,192,83965,1,0,0:0:0:0:
256,192,84040,1,8,0:0:0:0:
256,192,84115,1,8,0:0:0:0:
256,192,84265,1,0,0:0:0:0:
256,192,84415,1,8,0:0:0:0:
256,192,84490,1,0,0:0:0:0:
256,192,84565,1,0,0:0:0:0:
256,192,84640,1,0,0:0:0:0:
256,192,84715,1,8,0:0:0:0:
256,192,84790,1,8,0:0:0:0:
256,192,84865,1,0,0:0:0:0:
256,192,84940,1,0,0:0:0:0:
256,192,85015,1,8,0:0:0:0:
256,192,85165,1,8,0:0:0:0:
256,192,85315,1,0,0:0:0:0:
256,192,85465,1,0,0:0:0:0:
256,192,85615,1,8,0:0:0:0:
256,192,85915,1,12,0:0:0:0:
256,192,86065,12,0,87265,0:0:0:0:
256,192,87415,5,4,0:0:0:0:
256,192,87715,1,0,0:0:0:0:
256,192,88015,1,8,0:0:0:0:
256,192,88165,1,0,0:0:0:0:
256,192,88315,1,0,0:0:0:0:
256,192,88915,1,4,0:0:0:0:
256,192,89215,1,4,0:0:0:0:
