osu file format v14

[General]
AudioFilename: Irony,iel - Second Love.mp3
AudioLeadIn: 0
PreviewTime: 1941
Countdown: 0
SampleSet: Normal
StackLeniency: 0.7
Mode: 0
LetterboxInBreaks: 1
WidescreenStoryboard: 0

[Editor]
DistanceSpacing: 1.3
BeatDivisor: 4
GridSize: 4
TimelineZoom: 2.1

[Metadata]
Title:Ran Second Love Futarino Kuchibiru
TitleUnicode:藍 Second Love♥ふたりの唇
Artist:Irony/Degree Celsiusiel
ArtistUnicode:Irony/℃iel
Creator:KazamiYuuka
Version:TrueDif
Source:
Tags:
BeatmapID:1219842
BeatmapSetID:576166

[Difficulty]
HPDrainRate:7
CircleSize:6
OverallDifficulty:10
ApproachRate:10
SliderMultiplier:2.7
SliderTickRate:1

[Events]
//Background and Video events
0,0,"243.jpg",0,0
//Break Periods
//Storyboard Layer 0 (Background)
//Storyboard Layer 1 (Fail)
//Storyboard Layer 2 (Pass)
//Storyboard Layer 3 (Foreground)
//Storyboard Sound Samples

[TimingPoints]
2998.13253448916,500,4,1,1,5,1,0
3498,-66.6666666666667,4,1,1,5,0,0
3998,-76.9230769230769,4,1,1,5,0,0
4498,-90.9090909090909,4,1,1,5,0,0
5498,-66.6666666666667,4,1,1,5,0,0
5998,-76.9230769230769,4,1,1,5,0,0
6498,-90.9090909090909,4,1,1,5,0,0
7498,-66.6666666666667,4,1,1,5,0,0
7998,-90.9090909090909,4,1,1,5,0,0
8248,-83.3333333333333,4,1,1,5,0,0
8498,-76.9230769230769,4,1,1,5,0,0
8748,-71.4285714285714,4,1,1,5,0,0
8998,-100,4,1,1,5,0,0
10748,-125,4,1,1,5,0,0
11498,-111.111111111111,4,1,1,5,0,0
12248,-100,4,1,1,5,0,0
12748,-83.3333333333333,4,1,1,5,0,0
13498,-100,4,1,1,5,0,0
13748,-83.3333333333333,4,1,1,5,0,0
14748,-71.4285714285714,4,1,1,5,0,0
15123,-76.9230769230769,4,1,1,5,0,0
15748,-90.9090909090909,4,1,1,5,0,0
15998,-76.9230769230769,4,1,1,5,0,0
16248,-83.3333333333333,4,1,1,5,0,0
16748,-66.6666666666667,4,1,1,5,0,0
17498,-76.9230769230769,4,1,1,5,0,0
17748,-71.4285714285714,4,1,1,5,0,0
17998,-66.6666666666667,4,1,1,5,0,0
18998,-100,4,1,1,5,0,0
19498,-76.9230769230769,4,1,1,5,0,0
19998,-100,4,1,1,5,0,0
20748,-76.9230769230769,4,1,1,5,0,0
20998,-100,4,1,1,5,0,0
21498,-76.9230769230769,4,1,1,5,0,0
21998,-100,4,1,1,5,0,0
25498,-111.111111111111,4,1,1,5,0,0
25998,-125,4,1,1,5,0,0
26498,-142.857142857143,4,1,1,5,0,0
26998,-117.647058823529,4,1,1,5,0,0
27998,-105.263157894737,4,1,1,5,0,0
30998,-100,4,1,1,5,0,0
31998,-83.3333333333333,4,1,1,5,0,0
33498,-76.9230769230769,4,1,1,5,0,0
34998,-100,4,1,1,5,0,0
49498,-83.3333333333333,4,1,1,5,0,0
50248,-76.9230769230769,4,1,1,5,0,0
50998,-100,4,1,1,5,0,0
83998,-83.3333333333333,4,1,1,5,0,0
85248,-76.9230769230769,4,1,1,5,0,0
85748,-71.4285714285714,4,1,1,5,0,0
86998,-66.6666666666667,4,1,1,5,0,0
118998,-83.3333333333333,4,1,1,5,0,0
127748,-100,4,1,1,5,0,0
162998,-66.6666666666667,4,1,1,5,0,0
193498,-100,4,1,1,5,0,0
193998,-76.9230769230769,4,1,1,5,0,0
194498,-66.6666666666667,4,1,1,5,0,0
194748,-90.9090909090909,4,1,1,5,0,0
194998,-100,4,1,1,5,0,0
195498,-76.9230769230769,4,1,1,5,0,0
195998,-100,4,1,1,5,0,0
196373,-76.9230769230769,4,1,1,5,0,0
197998,-100,4,1,1,5,0,0
198498,-76.9230769230769,4,1,1,5,0,0
198998,-100,4,1,1,5,0,0
199498,-76.9230769230769,4,1,1,5,0,0
199998,-100,4,1,1,5,0,0
200498,-76.9230769230769,4,1,1,5,0,0
201998,-66.6666666666667,4,1,1,5,0,0
202498,-62.5,4,1,1,5,0,0
202998,-100,4,1,1,5,0,0
203498,-76.9230769230769,4,1,1,5,0,0
203998,-100,4,1,1,5,0,0
204498,-76.9230769230769,4,1,1,5,0,0
209998,-100,4,1,1,5,0,0
210498,-76.9230769230769,4,1,1,5,0,0
224748,-100,4,1,1,5,0,0
226998,-66.6666666666667,4,1,1,5,0,0
257998,-55.5555555555556,4,1,1,5,0,0
258498,-100,4,1,1,5,0,0
265998,-133.333333333333,4,1,1,5,0,0
267998,-83.3333333333333,4,1,1,5,0,0

[HitObjects]
144,32,2998,6,0,P|176:64|176:96,1,67.5
64,128,3248,1,0,0:0:0:0:
64,128,3498,2,0,B|112:112|112:112|160:144|192:128,1,101.250003862381
16,128,3748,1,0,0:0:0:0:
272,128,3998,2,0,B|290:164|290:164|272:219,1,87.749995983124
336,240,4248,2,0,B|313:274|313:274|256:285,1,87.749995983124
240,336,4498,2,0,B|204:333|204:333|170:296,1,74.2500022659302
112,304,4748,2,0,B|96:272|96:272|112:223,1,74.2500022659302
272,160,4998,5,0,0:0:0:0:
224,144,5123,1,0,0:0:0:0:
192,96,5248,1,0,0:0:0:0:
208,80,5373,1,0,0:0:0:0:
224,64,5498,2,0,B|240:112|240:112|240:144|240:144|256:224,1,101.250003862381
224,64,5748,1,0,0:0:0:0:
212,344,5998,2,0,B|196:296|196:296|195:264|195:264|180:184,1,87.749995983124
400,200,6248,2,0,P|442:185|486:240,1,87.749995983124
360,272,6498,2,0,P|351:316|281:326,1,74.2500022659302
324,184,6748,2,0,P|290:154|316:88,1,74.2500022659302
432,120,6998,5,0,0:0:0:0:
472,76,7123,1,0,0:0:0:0:
448,40,7248,1,0,0:0:0:0:
408,40,7373,1,0,0:0:0:0:
376,56,7498,2,0,B|376:88|376:88|360:152|376:152|392:168,1,101.250003862381
472,168,7748,1,0,0:0:0:0:
272,272,7998,2,0,P|256:272|160:240,1,74.2500022659302
384,160,8248,2,0,P|376:146|355:47,1,80.9999975280763
176,160,8498,2,0,P|160:154|81:91,1,87.749995983124
256,80,8748,2,0,P|243:69|190:-16,1,94.4999971160889
96,80,8998,6,0,P|64:112|0:80,1,67.5
48,64,9248,1,0,0:0:0:0:
64,112,9373,1,0,0:0:0:0:
80,160,9498,2,0,B|96:208|96:208|80:256|64:256|64:256|32:240,1,135
16,160,9998,6,0,L|16:224,4,33.75
192,208,10373,1,0,0:0:0:0:
192,256,10498,1,0,0:0:0:0:
192,304,10623,1,0,0:0:0:0:
160,352,10748,2,0,L|256:352,1,54
384,192,10998,5,0,0:0:0:0:
384,176,11123,1,0,0:0:0:0:
384,160,11248,1,0,0:0:0:0:
384,144,11373,1,0,0:0:0:0:
384,128,11498,2,0,L|288:176,1,60.7499981460572
256,304,11748,2,0,L|352:256,1,60.7499981460572
144,48,11998,5,0,0:0:0:0:
144,48,12123,1,0,0:0:0:0:
144,48,12248,2,0,P|144:96|160:144,1,67.5
256,304,12498,2,0,P|256:256|240:208,1,67.5
128,200,12748,2,0,L|24:200,1,80.9999975280763
224,128,12998,5,0,0:0:0:0:
272,128,13123,1,0,0:0:0:0:
304,144,13248,1,0,0:0:0:0:
320,176,13373,1,0,0:0:0:0:
304,208,13498,2,0,L|224:224,1,67.5
128,240,13748,2,0,P|112:288|160:336,1,80.9999975280763
304,320,13998,5,0,0:0:0:0:
288,272,14123,1,0,0:0:0:0:
240,256,14248,1,0,0:0:0:0:
208,272,14373,1,0,0:0:0:0:
192,288,14498,2,0,L|192:400,1,80.9999975280763
368,352,14748,2,0,P|409:323|400:256,1,94.4999971160889
384,144,14998,5,0,0:0:0:0:
384,144,15123,2,0,L|288:160,2,87.749995983124
448,256,15498,1,0,0:0:0:0:
400,240,15623,1,0,0:0:0:0:
336,224,15748,2,0,L|320:128,1,74.2500022659302
432,16,15998,6,0,L|448:112,1,87.749995983124
416,320,16248,2,0,L|512:304,1,80.9999975280763
368,80,16498,1,0,0:0:0:0:
368,80,16623,1,0,0:0:0:0:
368,80,16748,2,0,L|258:98,1,101.250003862381
112,224,16998,5,0,0:0:0:0:
80,192,17123,1,0,0:0:0:0:
64,144,17248,1,0,0:0:0:0:
68,84,17373,1,0,0:0:0:0:
106,28,17498,2,0,B|138:60|170:44|170:44|218:60,1,87.749995983124
176,128,17748,2,0,B|176:192|176:192|144:256,1,94.4999971160889
240,80,17998,6,0,B|224:128|224:128|240:176|208:176,1,101.250003862381
192,64,18248,1,0,0:0:0:0:
256,16,18373,1,0,0:0:0:0:
336,16,18498,2,0,L|464:16,1,101.250003862381
304,288,18748,2,0,P|288:208|320:160,1,101.250003862381
432,64,18998,6,0,B|464:144|432:208|432:208|368:208,1,202.5
400,240,19498,2,0,B|368:224|368:224|320:224|272:240,1,87.749995983124
224,224,19748,1,0,0:0:0:0:
304,240,19998,2,0,B|256:224|256:176|256:176|160:160,1,135
64,192,20373,5,0,0:0:0:0:
64,192,20498,1,0,0:0:0:0:
64,192,20623,1,0,0:0:0:0:
64,192,20748,2,0,L|160:192,1,87.749995983124
112,224,20998,2,0,B|176:224|176:224|208:240|208:240|288:240,1,135
240,240,21373,1,0,0:0:0:0:
240,240,21498,6,0,L|144:240,1,87.749995983124
208,272,21748,2,0,L|96:272,1,87.749995983124
176,304,21998,2,0,B|112:304|112:304|96:320|32:320,1,135
16,288,22373,1,0,0:0:0:0:
8,244,22498,6,0,B|0:192|0:192|28:152|28:152|20:96,1,135
16,68,22873,1,0,0:0:0:0:
8,16,22998,2,0,L|40:168,1,135
52,200,23373,1,0,0:0:0:0:
72,256,23498,2,0,P|140:288|128:224,2,135
236,200,24248,5,0,0:0:0:0:
172,212,24373,1,0,0:0:0:0:
112,224,24498,2,0,P|96:176|128:144,2,67.5
184,224,24873,1,0,0:0:0:0:
256,224,24998,2,0,L|332:224,1,67.5
432,240,25248,1,0,0:0:0:0:
432,240,25373,1,0,0:0:0:0:
432,240,25498,2,0,L|308:240,1,121.499996292114
304,368,25998,5,0,0:0:0:0:
328,336,26123,1,0,0:0:0:0:
320,300,26248,1,0,0:0:0:0:
296,268,26373,1,0,0:0:0:0:
272,296,26498,2,0,L|272:372,1,47.2499985580445
372,328,26748,2,0,L|372:264,1,47.2499985580445
216,104,26998,5,0,0:0:0:0:
176,112,27123,1,0,0:0:0:0:
176,156,27248,1,0,0:0:0:0:
212,176,27373,1,0,0:0:0:0:
256,180,27498,2,0,L|256:112,1,57.3750010943413
136,36,27748,2,0,L|136:108,1,57.3750010943413
200,232,27998,6,0,B|236:232|236:232|316:256|360:236,1,128.249996575356
456,232,28373,1,0,0:0:0:0:
432,264,28498,2,0,L|320:264,1,64.1249982876778
236,336,28748,2,0,L|324:336,1,64.1249982876778
376,256,28998,5,0,0:0:0:0:
456,144,29248,1,0,0:0:0:0:
456,144,29373,1,0,0:0:0:0:
456,144,29498,2,0,L|352:144,2,64.1249982876778
288,192,29998,5,0,0:0:0:0:
448,64,30248,1,0,0:0:0:0:
448,64,30373,1,0,0:0:0:0:
448,64,30498,2,0,L|368:64,2,64.1249982876778
316,280,30998,5,0,0:0:0:0:
144,112,31248,1,0,0:0:0:0:
112,112,31373,1,0,0:0:0:0:
80,112,31498,2,0,L|160:112,2,67.5
352,360,31998,5,0,0:0:0:0:
168,68,32248,1,0,0:0:0:0:
124,68,32373,1,0,0:0:0:0:
80,68,32498,2,0,L|172:68,1,80.9999975280763
224,16,32748,2,0,L|104:16,1,80.9999975280763
76,272,32998,1,0,0:0:0:0:
228,136,33248,1,0,0:0:0:0:
216,96,33373,1,0,0:0:0:0:
184,76,33498,2,0,P|124:120|240:140,1,263.249987949372
237,152,33998,6,0,P|160:152|204:72,1,175.499991966248
224,80,34373,1,0,0:0:0:0:
264,108,34498,1,0,0:0:0:0:
304,272,34748,1,0,0:0:0:0:
304,272,34998,6,0,B|288:256|288:256|304:224|304:224|304:160,1,67.5
352,112,35248,1,0,0:0:0:0:
352,144,35373,1,0,0:0:0:0:
352,176,35498,2,0,P|272:176|256:128,1,135
272,32,35998,5,0,0:0:0:0:
192,80,36248,1,0,0:0:0:0:
192,80,36373,1,0,0:0:0:0:
192,80,36498,2,0,B|206:123|206:123|206:166|206:166|220:195,1,67.5
176,288,36748,2,0,B|161:244|161:244|161:201|161:201|147:172,2,67.5
340,248,37248,5,0,0:0:0:0:
304,240,37373,1,0,0:0:0:0:
268,248,37498,1,0,0:0:0:0:
100,332,37748,1,0,0:0:0:0:
0,224,37998,2,0,B|32:224|32:224|96:240|144:224,1,135
192,208,38373,1,0,0:0:0:0:
260,192,38498,2,0,P|292:192|264:240,1,67.5
224,324,38748,5,0,0:0:0:0:
188,272,38873,1,0,0:0:0:0:
152,212,38998,2,0,L|256:212,1,67.5
80,160,39248,1,0,0:0:0:0:
112,160,39373,1,0,0:0:0:0:
144,160,39498,2,0,B|96:160|96:160|64:176|0:160,1,135
112,192,39998,6,0,B|64:176|64:176|16:192|0:176,1,67.5
112,192,40248,1,0,0:0:0:0:
80,208,40373,1,0,0:0:0:0:
48,224,40498,2,0,B|112:208|112:208|160:240|240:224,1,135
304,352,40873,5,0,0:0:0:0:
480,320,40998,2,0,B|448:304|448:304|368:320|368:320|416:352,1,135
400,368,41373,1,0,0:0:0:0:
400,336,41498,2,0,P|432:368|432:304,1,135
400,128,41998,2,0,B|368:192|368:192|400:256|384:304,1,135
432,208,42373,1,0,0:0:0:0:
352,224,42498,2,0,P|352:256|320:304,1,67.5
272,224,42748,1,0,0:0:0:0:
320,128,42998,6,0,L|416:128,1,67.5
448,192,43248,1,0,0:0:0:0:
448,160,43373,1,0,0:0:0:0:
400,96,43498,2,0,L|256:96,1,135
336,32,43998,5,0,0:0:0:0:
336,192,44248,1,0,0:0:0:0:
336,160,44373,1,0,0:0:0:0:
368,112,44498,2,0,L|224:112,1,135
160,160,44998,6,0,B|192:160|192:160|224:176|304:176,1,135
304,144,45373,1,0,0:0:0:0:
272,144,45498,1,0,0:0:0:0:
128,272,45748,1,0,0:0:0:0:
272,336,45998,6,0,B|304:288|304:288|368:288|384:272|384:256|384:256|336:256,1,135
288,256,46373,1,0,0:0:0:0:
320,256,46498,2,0,P|272:256|320:208,1,135
298,198,46873,1,0,0:0:0:0:
298,198,46998,1,0,0:0:0:0:
368,176,47248,5,0,0:0:0:0:
368,176,47373,1,0,0:0:0:0:
368,176,47498,2,0,B|352:160|352:160|304:176|304:176|256:224,1,135
224,288,47998,2,0,B|256:256|256:256|256:208|256:208|208:176,1,135
221,184,48373,1,0,0:0:0:0:
221,184,48498,1,0,0:0:0:0:
176,272,48748,5,0,0:0:0:0:
176,272,48873,1,0,0:0:0:0:
176,352,48998,2,0,L|256:352,1,67.5
352,288,49248,1,0,0:0:0:0:
320,288,49373,1,0,0:0:0:0:
288,288,49498,2,0,L|192:288,1,80.9999975280763
80,272,49748,2,0,P|64:240|80:192,1,80.9999975280763
256,256,49998,5,0,0:0:0:0:
224,256,50123,1,0,0:0:0:0:
192,256,50248,2,0,P|176:224|192:176,1,87.749995983124
288,176,50498,2,0,L|432:176,1,87.749995983124
208,144,50748,2,0,L|304:144,1,87.749995983124
400,144,50998,5,0,0:0:0:0:
336,288,51248,1,0,0:0:0:0:
336,288,51373,1,0,0:0:0:0:
336,288,51498,2,0,P|352:256|320:256,1,67.5
224,256,51748,1,0,0:0:0:0:
336,288,51998,2,0,L|416:288,1,67.5
352,320,52248,1,0,0:0:0:0:
352,320,52373,1,0,0:0:0:0:
368,352,52498,2,0,L|464:352,1,67.5
496,352,52748,1,0,0:0:0:0:
448,304,52998,6,0,B|432:264|432:264|448:208|444:188,1,67.5
464,96,53248,1,0,0:0:0:0:
464,96,53373,1,0,0:0:0:0:
464,96,53498,2,0,P|416:144|416:112,1,135
416,112,53873,1,0,0:0:0:0:
416,80,53998,2,0,L|416:0,1,67.5
384,80,54248,1,0,0:0:0:0:
384,80,54373,1,0,0:0:0:0:
352,80,54498,2,0,L|352:176,1,67.5
416,144,54748,1,0,0:0:0:0:
336,208,54998,6,0,P|272:240|224:192,1,135
224,128,55373,1,0,0:0:0:0:
224,96,55498,2,0,L|224:176,1,67.5
208,240,55748,1,0,0:0:0:0:
208,240,55873,1,0,0:0:0:0:
208,240,55998,2,0,L|288:240,1,67.5
240,272,56248,2,0,L|368:272,1,67.5
128,272,56498,1,0,0:0:0:0:
192,336,56748,5,0,0:0:0:0:
128,272,56998,2,0,B|96:304|96:304|96:352|96:352|48:368,1,135
96,352,57373,1,0,0:0:0:0:
96,320,57498,2,0,L|96:208,1,67.5
48,320,57748,1,0,0:0:0:0:
320,352,57998,2,0,L|320:192,1,135
320,48,58373,1,0,0:0:0:0:
288,160,58498,2,0,P|256:192|224:176,1,67.5
160,128,58748,5,0,0:0:0:0:
192,128,58873,1,0,0:0:0:0:
224,128,58998,2,0,L|128:128,1,67.5
192,240,59248,1,0,0:0:0:0:
224,240,59373,1,0,0:0:0:0:
256,240,59498,2,0,L|160:240,1,67.5
128,208,59748,1,0,0:0:0:0:
368,192,59998,6,0,B|352:176|352:176|288:192|288:192|224:176,1,135
288,32,60373,1,0,0:0:0:0:
304,192,60498,2,0,B|400:160|400:160|400:112|352:128,1,135
240,160,60873,1,0,0:0:0:0:
400,160,60998,2,0,P|352:96|336:160,1,135
384,288,61373,5,0,0:0:0:0:
352,96,61498,2,0,B|304:128|304:128|288:128|224:112|272:96,1,135
352,16,61873,1,0,0:0:0:0:
272,96,61998,2,0,P|208:64|272:64,1,135
496,64,62373,5,0,0:0:0:0:
192,80,62498,2,0,B|208:32|256:48|256:48|288:64|288:64|368:48,1,135
416,32,62873,1,0,0:0:0:0:
416,32,62998,2,0,L|304:32,1,67.5
304,64,63248,2,0,B|272:64|272:64|224:48,1,67.5
256,64,63498,6,0,B|192:48|192:48|144:96|224:144,1,135
256,240,63998,1,0,0:0:0:0:
192,112,64248,2,0,L|144:64,1,67.5
160,96,64498,6,0,B|128:64|128:64|128:112|128:112|160:176,1,135
256,160,64998,1,0,0:0:0:0:
368,192,65248,2,0,B|416:192|416:192|448:240,1,67.5
336,336,65498,1,0,0:0:0:0:
336,336,65748,6,0,P|320:288|320:256,1,67.5
352,112,65998,1,0,0:0:0:0:
368,144,66123,1,0,0:0:0:0:
368,176,66248,2,0,P|320:192|288:176,1,67.5
96,136,66498,2,0,P|144:119|176:136,1,67.5
224,288,66748,1,0,0:0:0:0:
88,308,66998,6,0,B|72:276|72:276|88:212|72:148,1,135
80,124,67373,1,0,0:0:0:0:
48,144,67498,2,0,B|16:128|16:128|64:96|64:96|144:96,1,135
192,192,67998,6,0,P|160:240|112:192,1,135
128,160,68373,1,0,0:0:0:0:
160,128,68498,2,0,L|320:128,1,135
400,224,68998,6,0,B|416:272|400:272|384:320|384:320|416:368,1,135
480,208,69373,1,0,0:0:0:0:
320,240,69498,2,0,B|288:240|288:240|256:256|256:256|208:336|160:288,1,135
368,112,69998,2,0,B|432:128|432:128|480:112|480:112|416:96,1,135
384,64,70373,1,0,0:0:0:0:
288,64,70498,2,0,B|176:64|176:64|112:112,1,135
96,240,70998,5,0,0:0:0:0:
236,200,71248,1,0,0:0:0:0:
236,200,71373,1,0,0:0:0:0:
236,200,71498,1,0,0:0:0:0:
208,32,71748,1,0,0:0:0:0:
208,336,71998,5,0,0:0:0:0:
344,248,72248,1,0,0:0:0:0:
344,248,72373,1,0,0:0:0:0:
344,248,72498,1,0,0:0:0:0:
448,360,72748,1,0,0:0:0:0:
288,192,72998,6,0,B|272:240|272:240|288:272,1,67.5
400,256,73248,1,0,0:0:0:0:
400,256,73373,1,0,0:0:0:0:
400,256,73498,2,0,B|384:304|384:304|400:336,1,67.5
464,336,73748,1,0,0:0:0:0:
288,288,73998,2,0,B|272:272|272:272|192:288|160:272|192:256,1,135
336,208,74498,5,0,0:0:0:0:
128,208,74748,1,0,0:0:0:0:
160,208,74873,1,0,0:0:0:0:
192,208,74998,2,0,L|96:208,1,67.5
256,256,75248,1,0,0:0:0:0:
304,128,75498,2,0,L|208:128,1,67.5
240,224,75748,5,0,0:0:0:0:
256,256,75873,1,0,0:0:0:0:
272,288,75998,2,0,L|176:288,1,67.5
336,192,76248,1,0,0:0:0:0:
432,64,76498,2,0,L|336:64,1,67.5
304,224,76748,5,0,0:0:0:0:
336,192,76873,1,0,0:0:0:0:
368,160,76998,2,0,L|272:160,1,67.5
112,80,77248,2,0,L|112:160,1,67.5
144,320,77498,2,0,L|144:240,1,67.5
64,192,77748,1,0,0:0:0:0:
16,240,77998,6,0,L|80:240,3,33.75
112,304,78248,1,0,0:0:0:0:
80,304,78373,1,0,0:0:0:0:
48,304,78498,2,0,L|112:304,2,33.75
368,320,78998,6,0,B|336:320|336:320|304:336|320:352,1,67.5
432,368,79248,2,0,B|463:368|463:368|495:352|479:336,1,67.5
224,320,79498,1,0,0:0:0:0:
48,192,79748,2,0,B|32:160|32:160|48:128|48:96,1,67.5
48,192,79998,1,0,0:0:0:0:
64,32,80248,5,0,0:0:0:0:
64,64,80373,1,0,0:0:0:0:
64,96,80498,2,0,B|32:112|32:112|0:96|-32:96,1,67.5
256,64,80748,2,0,L|368:64,1,67.5
304,256,80998,1,0,0:0:0:0:
208,192,81248,5,0,0:0:0:0:
208,160,81373,1,0,0:0:0:0:
208,128,81498,2,0,B|240:112|240:112|272:128|304:128,1,67.5
112,240,81748,2,0,L|0:240,1,67.5
176,32,81998,1,0,0:0:0:0:
256,256,82248,5,0,0:0:0:0:
256,256,82373,1,0,0:0:0:0:
256,256,82498,2,0,B|208:256|208:256|240:288|240:288|272:272,1,67.5
320,320,82748,1,0,0:0:0:0:
320,320,82998,2,0,B|368:319|368:319|335:287|335:287|304:303,1,67.5
48,272,83248,5,0,0:0:0:0:
48,272,83373,1,0,0:0:0:0:
48,272,83498,2,0,P|32:304|64:368,1,67.5
80,176,83748,1,0,0:0:0:0:
80,176,83998,2,0,P|96:144|64:80,1,80.9999975280763
16,224,84248,5,0,0:0:0:0:
48,224,84373,1,0,0:0:0:0:
80,224,84498,2,0,L|192:224,1,80.9999975280763
192,128,84748,1,0,0:0:0:0:
272,304,84998,5,0,0:0:0:0:
224,304,85123,1,0,0:0:0:0:
176,304,85248,2,0,L|320:304,1,87.749995983124
192,32,85498,1,0,0:0:0:0:
96,352,85748,6,0,P|80:304|112:240,1,94.4999971160889
272,352,85998,1,0,0:0:0:0:
256,96,86248,1,0,0:0:0:0:
256,128,86373,1,0,0:0:0:0:
240,176,86498,1,0,0:0:0:0:
192,208,86623,1,0,0:0:0:0:
128,176,86748,1,0,0:0:0:0:
160,144,86873,1,0,0:0:0:0:
192,112,86998,6,0,B|240:128|240:128|368:104|368:104|336:136|336:136|300:128,1,202.500007724762
196,152,87498,2,0,B|112:140|112:140|164:124|164:124|224:128,1,101.250003862381
400,160,87748,1,0,0:0:0:0:
272,160,87998,2,0,L|272:48,1,101.250003862381
400,240,88248,5,0,0:0:0:0:
400,288,88373,1,0,0:0:0:0:
400,336,88498,2,0,B|368:336|368:336|336:288|336:288|384:288,1,101.250003862381
320,224,88748,5,0,0:0:0:0:
320,272,88873,1,0,0:0:0:0:
320,320,88998,2,0,P|288:304|336:288,1,101.250003862381
320,256,89248,5,0,0:0:0:0:
320,304,89373,1,0,0:0:0:0:
320,352,89498,2,0,P|256:272|336:272,1,202.500007724762
384,352,89998,2,0,B|320:320|320:320|224:352|224:352|176:320,1,202.500007724762
212,284,90498,6,0,B|176:300|176:300|96:284,1,101.250003862381
16,272,90748,1,0,0:0:0:0:
32,24,90998,2,0,B|0:77|0:77|4:116,1,101.250003862381
64,368,91248,1,0,0:0:0:0:
64,32,91498,2,0,B|64:80|64:80|48:128|80:176,1,101.250003862381
96,336,91748,2,0,B|96:288|96:288|112:240|79:192,1,101.250003862381
100,40,91998,1,0,0:0:0:0:
224,48,92248,5,0,0:0:0:0:
192,48,92373,1,0,0:0:0:0:
160,48,92498,2,0,B|144:32|144:32|160:0|160:0|192:-16|208:16,1,101.250003862381
400,16,92748,1,0,0:0:0:0:
408,96,92998,2,0,L|296:96,1,101.250003862381
84,92,93248,1,0,0:0:0:0:
84,164,93373,1,0,0:0:0:0:
160,192,93498,2,0,B|208:208|208:208|240:176|272:192,1,101.250003862381
16,32,93748,1,0,0:0:0:0:
256,176,93998,6,0,P|304:160|224:144,1,202.500007724762
288,96,94498,2,0,P|208:96|272:160,1,202.500007724762
384,240,94998,6,0,B|320:224|320:224|288:240|208:240,1,101.250003862381
176,224,95248,1,0,0:0:0:0:
272,288,95498,2,0,P|192:288|256:256,1,202.500007724762
344,88,95998,2,0,P|372:160|344:220,1,101.250003862381
244,196,96248,1,0,0:0:0:0:
344,192,96498,1,0,0:0:0:0:
396,200,96623,1,0,0:0:0:0:
436,232,96748,1,0,0:0:0:0:
216,148,96998,6,0,B|160:140|160:140|144:148|116:156,1,101.250003862381
0,180,97248,1,0,0:0:0:0:
232,256,97498,6,0,B|288:248|288:248|304:255|332:264,1,101.250003862381
48,96,97748,1,0,0:0:0:0:
348,312,97998,6,0,B|404:320|404:320|420:312|448:304,1,101.250003862381
64,352,98248,1,0,0:0:0:0:
504,144,98498,6,0,B|448:152|448:152|432:143|404:135,1,101.250003862381
128,112,98748,5,0,0:0:0:0:
160,144,98873,1,0,0:0:0:0:
192,192,98998,2,0,P|192:224|144:304,1,101.250003862381
128,272,99248,1,0,0:0:0:0:
160,240,99373,1,0,0:0:0:0:
192,192,99498,2,0,P|192:160|144:80,1,101.250003862381
48,192,99748,5,0,0:0:0:0:
192,192,99998,2,0,B|240:160|240:160|288:176|336:160,1,101.250003862381
272,272,100248,5,0,0:0:0:0:
272,320,100373,1,0,0:0:0:0:
224,352,100498,2,0,P|208:320|256:320,1,101.250003862381
320,352,100748,5,0,0:0:0:0:
256,368,100873,1,0,0:0:0:0:
192,352,100998,2,0,P|192:288|256:304,1,101.250003862381
496,240,101248,5,0,0:0:0:0:
416,240,101373,1,0,0:0:0:0:
336,208,101498,2,0,B|304:224|304:224|224:224,1,101.250003862381
96,224,101748,1,0,0:0:0:0:
224,176,101998,2,0,P|256:128|192:128,1,101.250003862381
96,176,102248,5,0,0:0:0:0:
128,176,102373,1,0,0:0:0:0:
176,176,102498,1,0,0:0:0:0:
224,144,102623,1,0,0:0:0:0:
192,96,102748,1,0,0:0:0:0:
128,112,102873,1,0,0:0:0:0:
64,144,102998,2,0,B|96:144|96:144|128:128|144:128|144:128|208:144|208:144|236:120|236:120|160:100,1,202.500007724762
40,80,103498,5,0,0:0:0:0:
192,352,103748,2,0,B|200:304|200:304|168:248,1,101.250003862381
64,144,103998,1,0,0:0:0:0:
16,224,104248,1,0,0:0:0:0:
0,192,104373,1,0,0:0:0:0:
16,160,104498,2,0,P|32:144|96:176,1,101.250003862381
64,352,104748,2,0,B|48:320|48:320|64:256,1,101.250003862381
176,112,104998,2,0,B|192:144|192:144|176:208,1,101.250003862381
15,290,105248,6,0,P|-1:194|15:146,1,101.250003862381
192,48,105498,2,0,P|208:144|192:192,1,101.250003862381
0,144,105748,2,0,L|48:32,1,101.250003862381
320,128,105998,1,0,0:0:0:0:
288,300,106248,5,0,0:0:0:0:
240,288,106373,1,0,0:0:0:0:
192,276,106498,2,0,B|116:260|116:260|168:256,1,101.250003862381
336,256,106748,1,0,0:0:0:0:
252,360,106998,2,0,B|328:344|328:344|276:340,1,101.250003862381
100,336,107248,5,0,0:0:0:0:
60,352,107373,1,0,0:0:0:0:
24,344,107498,2,0,B|8:288|8:288|24:272|24:228,1,101.250003862381
76,184,107748,2,0,P|148:184|168:212,1,101.250003862381
487,40,107998,2,0,B|504:96|504:96|488:112|488:156,1,101.250003862381
436,200,108248,2,0,P|364:200|344:172,1,101.250003862381
352,64,108498,1,0,0:0:0:0:
400,352,108748,5,0,0:0:0:0:
432,320,108873,1,0,0:0:0:0:
464,288,108998,1,0,0:0:0:0:
464,240,109123,1,0,0:0:0:0:
464,192,109248,2,0,L|464:304,1,101.250003862381
416,192,109498,2,0,L|416:48,1,101.250003862381
416,32,109748,5,0,0:0:0:0:
400,128,109998,2,0,P|304:160|256:128,1,101.250003862381
256,64,110248,1,0,0:0:0:0:
272,112,110373,1,0,0:0:0:0:
256,160,110498,2,0,P|224:144|272:128,1,101.250003862381
256,160,110748,1,0,0:0:0:0:
312,120,110998,6,0,B|360:112|360:112|396:120|396:120|352:132,1,101.250003862381
192,164,111248,1,0,0:0:0:0:
232,192,111373,1,0,0:0:0:0:
260,224,111498,2,0,B|204:232|204:232|152:252|152:252|104:216|104:216|136:196|136:196|160:208,1,202.500007724762
256,240,111998,1,0,0:0:0:0:
192,256,112123,2,0,L|160:304,1,50.6250019311906
176,256,112248,2,0,L|112:352,1,101.250003862381
224,224,112498,6,0,L|272:192,1,50.6250019311906
240,224,112623,2,0,B|288:192|288:192|368:192,1,101.250003862381
272,256,112998,6,0,P|272:304|240:272,1,101.250003862381
224,176,113248,1,0,0:0:0:0:
224,144,113373,1,0,0:0:0:0:
224,112,113498,2,0,L|224:256,1,101.250003862381
224,48,113748,1,0,0:0:0:0:
188,336,113998,2,0,L|64:336,1,101.250003862381
48,336,114248,5,0,0:0:0:0:
40,296,114373,1,0,0:0:0:0:
32,256,114498,2,0,L|0:368,1,101.250003862381
48,192,114748,1,0,0:0:0:0:
112,176,114998,2,0,L|224:176,1,101.250003862381
80,128,115248,5,0,0:0:0:0:
64,96,115373,1,0,0:0:0:0:
48,64,115498,2,0,L|16:176,1,101.250003862381
16,16,115748,1,0,0:0:0:0:
224,64,115998,2,0,L|96:64,1,101.250003862381
272,224,116248,5,0,0:0:0:0:
272,272,116373,1,0,0:0:0:0:
240,304,116498,1,0,0:0:0:0:
192,288,116623,1,0,0:0:0:0:
156,252,116748,1,0,0:0:0:0:
208,260,116873,1,0,0:0:0:0:
256,244,116998,2,0,L|384:244,1,101.250003862381
168,300,117248,5,0,0:0:0:0:
96,320,117373,1,0,0:0:0:0:
32,340,117498,2,0,L|112:340|160:340,1,101.250003862381
320,352,117748,1,0,0:0:0:0:
128,272,117998,2,0,P|112:208|176:240,1,101.250003862381
416,208,118248,5,0,0:0:0:0:
368,208,118373,1,0,0:0:0:0:
320,208,118498,2,0,L|448:208,1,101.250003862381
416,208,118748,6,0,B|384:192|384:192|336:192|272:192,1,101.250003862381
352,192,118998,2,0,B|256:192|256:192|304:192,1,80.9999975280763
64,192,119248,6,0,L|160:192,1,80.9999975280763
112,160,119498,2,0,B|144:144|144:144|176:160|176:160|240:144,1,80.9999975280763
208,144,119748,2,0,B|160:128|160:128|112:144|96:144,1,80.9999975280763
192,128,119998,6,0,B|240:144|240:144|336:144,1,80.9999975280763
368,288,120248,1,0,0:0:0:0:
352,272,120373,1,0,0:0:0:0:
336,256,120498,2,0,L|224:256,1,80.9999975280763
288,272,120748,2,0,L|192:272,1,80.9999975280763
144,240,120998,6,0,L|272:240,1,80.9999975280763
48,320,121248,1,0,0:0:0:0:
80,288,121373,1,0,0:0:0:0:
112,256,121498,2,0,L|224:256,1,80.9999975280763
160,288,121748,2,0,L|272:288,1,80.9999975280763
400,304,121998,6,0,B|352:304|352:304|320:320|320:320|272:304,1,80.9999975280763
352,240,122248,1,0,0:0:0:0:
384,240,122373,1,0,0:0:0:0:
416,240,122498,2,0,L|288:240,1,80.9999975280763
368,160,122748,2,0,L|256:160,1,80.9999975280763
320,128,122998,6,0,B|304:128|304:128|240:144|208:128,1,80.9999975280763
272,96,123248,1,0,0:0:0:0:
240,96,123373,1,0,0:0:0:0:
208,96,123498,2,0,B|192:80|192:80|272:80,1,80.9999975280763
256,160,123748,2,0,L|128:160,1,80.9999975280763
208,192,123998,6,0,B|192:176|192:176|128:192|128:192|112:176,1,80.9999975280763
160,224,124248,2,0,B|128:240|128:240|32:240,1,80.9999975280763
128,272,124498,2,0,B|96:240|96:240|0:240,1,80.9999975280763
16,224,124748,1,0,0:0:0:0:
16,224,124873,1,0,0:0:0:0:
16,224,124998,6,0,B|64:224|64:224|96:240|160:224,1,80.9999975280763
48,288,125248,1,0,0:0:0:0:
80,256,125373,1,0,0:0:0:0:
112,224,125498,2,0,L|224:224,1,80.9999975280763
339,288,125748,2,0,L|256:288,1,80.9999975280763
224,160,125998,5,0,0:0:0:0:
240,192,126123,1,0,0:0:0:0:
256,224,126248,2,0,L|368:224,1,80.9999975280763
448,288,126498,1,0,0:0:0:0:
416,288,126623,1,0,0:0:0:0:
384,288,126748,2,0,L|512:288,1,80.9999975280763
448,256,126998,6,0,B|416:240|416:240|352:256|304:240,1,80.9999975280763
208,192,127248,1,0,0:0:0:0:
192,128,127373,1,0,0:0:0:0:
204,60,127498,2,0,P|236:108|252:156,1,80.9999975280763
256,244,127748,1,0,0:0:0:0:
48,192,127998,6,0,B|128:176|128:176|160:192,1,67.5
136,280,128248,1,0,0:0:0:0:
100,220,128373,1,0,0:0:0:0:
64,160,128498,2,0,B|144:144|144:144|176:160,1,67.5
224,336,128748,1,0,0:0:0:0:
224,304,128998,2,0,L|128:336,1,67.5
64,256,129248,5,0,0:0:0:0:
64,288,129373,1,0,0:0:0:0:
64,320,129498,2,0,L|128:288,1,67.5
288,144,129748,2,0,L|384:160,2,67.5
224,128,130248,1,0,0:0:0:0:
176,160,130373,2,0,L|96:176,1,67.5
224,128,130748,5,0,0:0:0:0:
240,128,130873,1,0,0:0:0:0:
256,128,130998,2,0,P|272:96|256:64,1,67.5
144,128,131248,1,0,0:0:0:0:
200,128,131373,1,0,0:0:0:0:
256,128,131498,2,0,P|272:176|240:224,1,67.5
144,128,131748,5,0,0:0:0:0:
256,128,131998,2,0,L|288:48,1,67.5
144,128,132248,1,0,0:0:0:0:
256,128,132373,2,0,L|288:208,1,67.5
224,32,132748,5,0,0:0:0:0:
240,144,132998,2,0,B|256:176|256:176|240:208|256:224,1,67.5
240,352,133248,2,0,P|240:320|272:272,1,67.5
480,256,133498,2,0,B|432:240|432:240|400:256|368:256,1,67.5
320,304,133748,5,0,0:0:0:0:
384,240,133998,2,0,B|368:192|368:192|400:160,1,67.5
474,230,134248,1,0,0:0:0:0:
480,288,134373,1,0,0:0:0:0:
448,336,134498,2,0,L|368:336,2,67.5
400,304,134998,6,0,L|304:304,1,67.5
320,272,135248,2,0,L|224:272,1,67.5
128,304,135498,2,0,L|224:304,1,67.5
48,336,135748,2,0,L|144:336,1,67.5
288,336,135998,5,0,0:0:0:0:
80,80,136248,1,0,0:0:0:0:
64,112,136373,1,0,0:0:0:0:
56,144,136498,2,0,P|56:192|88:240,1,67.5
288,128,136748,1,0,0:0:0:0:
272,112,136873,1,0,0:0:0:0:
256,96,136998,2,0,B|160:96|160:96|144:80|144:48|160:48|176:64,1,135
176,128,137373,5,0,0:0:0:0:
208,208,137498,2,0,P|144:224|144:144,1,135
208,208,137998,2,0,B|160:208|160:208|128:224|128:224|96:208,1,67.5
320,336,138248,5,0,0:0:0:0:
336,304,138373,1,0,0:0:0:0:
352,272,138498,2,0,L|368:352,2,67.5
408,204,138998,2,0,P|436:200|512:168,1,67.5
304,224,139248,5,0,0:0:0:0:
272,208,139373,1,0,0:0:0:0:
240,192,139498,2,0,L|208:296,2,67.5
152,148,139998,2,0,P|88:136|60:112,1,67.5
240,96,140248,5,0,0:0:0:0:
280,76,140373,1,0,0:0:0:0:
316,60,140498,2,0,L|316:128,2,67.5
392,36,140998,2,0,P|456:28|480:8,1,67.5
496,168,141248,5,0,0:0:0:0:
496,128,141373,1,0,0:0:0:0:
480,96,141498,2,0,L|384:96,1,67.5
400,272,141748,1,0,0:0:0:0:
400,176,141998,2,0,B|320:176|320:176|272:144,1,135
400,112,142373,5,0,0:0:0:0:
272,128,142498,2,0,B|176:144|176:144|208:176|192:208|176:224,1,135
288,256,142998,2,0,B|304:272|304:272|256:272,1,67.5
112,192,143248,1,0,0:0:0:0:
96,176,143373,1,0,0:0:0:0:
80,160,143498,2,0,L|192:160,1,67.5
320,272,143748,1,0,0:0:0:0:
320,272,143998,6,0,L|208:272,1,67.5
64,160,144248,1,0,0:0:0:0:
80,128,144373,1,0,0:0:0:0:
96,96,144498,2,0,L|188:96,1,67.5
112,320,144748,5,0,0:0:0:0:
96,288,144873,1,0,0:0:0:0:
80,256,144998,2,0,L|192:256,1,67.5
400,288,145248,1,0,0:0:0:0:
420,256,145373,1,0,0:0:0:0:
444,224,145498,2,0,L|336:224,1,67.5
112,192,145748,1,0,0:0:0:0:
416,240,145998,6,0,B|368:240|368:240|320:256|240:240,1,135
224,224,146373,1,0,0:0:0:0:
224,224,146498,2,0,B|272:208|272:208|336:208|384:208,1,135
240,160,146998,6,0,P|256:128|248:72,1,67.5
197,207,147248,2,0,P|245:159|281:167,1,67.5
340,116,147498,2,0,P|360:148|392:164,1,67.5
361,53,147748,2,0,P|357:81|321:133,1,67.5
248,304,147998,6,0,L|232:228,1,67.5
288,248,148248,2,0,L|232:328,1,67.5
352,228,148498,2,0,L|260:256,1,67.5
297,188,148748,2,0,L|369:240,1,67.5
204,124,148998,5,0,0:0:0:0:
256,268,149248,1,0,0:0:0:0:
224,232,149373,1,0,0:0:0:0:
204,191,149498,2,0,L|204:95,1,67.5
204,40,149748,1,0,0:0:0:0:
335,115,149998,2,0,P|279:131|191:119,1,135
204,80,150373,1,0,0:0:0:0:
204,40,150498,5,0,0:0:0:0:
448,240,150748,1,0,0:0:0:0:
416,240,150873,1,0,0:0:0:0:
384,240,150998,2,0,L|480:240,1,67.5
224,192,151248,1,0,0:0:0:0:
208,176,151373,1,0,0:0:0:0:
192,160,151498,2,0,L|288:160,1,67.5
320,320,151748,1,0,0:0:0:0:
320,320,151998,6,0,L|400:320,1,67.5
128,240,152248,1,0,0:0:0:0:
96,272,152373,1,0,0:0:0:0:
64,304,152498,2,0,L|160:304,1,67.5
64,128,152748,1,0,0:0:0:0:
64,128,152998,6,0,B|80:128|80:128|112:144|128:144|176:144,1,67.5
256,112,153248,1,0,0:0:0:0:
256,112,153498,2,0,P|240:176|288:160,1,135
416,144,153998,2,0,L|480:144,1,33.75
400,160,154123,2,0,L|448:160,1,33.75
384,176,154248,2,0,L|448:176,1,33.75
368,352,154373,5,0,0:0:0:0:
352,320,154498,1,0,0:0:0:0:
352,288,154623,1,0,0:0:0:0:
368,256,154748,1,0,0:0:0:0:
400,240,154873,1,0,0:0:0:0:
432,240,154998,2,0,B|416:224|416:224|384:240|336:224|352:224,1,67.5
312,184,155248,1,0,0:0:0:0:
392,160,155373,1,0,0:0:0:0:
464,192,155498,2,0,P|480:272|432:320,1,135
272,192,155998,5,0,0:0:0:0:
272,336,156248,1,0,0:0:0:0:
240,304,156373,1,0,0:0:0:0:
208,272,156498,2,0,L|336:272,1,67.5
80,288,156748,1,0,0:0:0:0:
320,112,156998,6,0,L|336:192,1,67.5
208,192,157248,1,0,0:0:0:0:
208,192,157373,1,0,0:0:0:0:
208,192,157498,2,0,L|192:288,1,67.5
224,96,157748,1,0,0:0:0:0:
144,176,157998,6,0,L|64:144,1,67.5
160,272,158248,1,0,0:0:0:0:
176,304,158373,1,0,0:0:0:0:
192,336,158498,2,0,L|272:304,1,67.5
64,272,158748,1,0,0:0:0:0:
336,176,158998,6,0,P|352:208|400:208,1,67.5
368,208,159248,1,0,0:0:0:0:
348,188,159373,1,0,0:0:0:0:
336,160,159498,2,0,L|416:160,1,67.5
400,304,159748,1,0,0:0:0:0:
160,336,159998,6,0,L|160:256,1,67.5
160,240,160248,1,0,0:0:0:0:
160,272,160373,1,0,0:0:0:0:
160,304,160498,2,0,P|96:304|80:272,1,67.5
96,160,160748,1,0,0:0:0:0:
80,304,160998,1,0,0:0:0:0:
48,256,161123,1,0,0:0:0:0:
48,192,161248,2,0,P|48:256|16:288,1,67.5
0,176,161498,2,0,P|0:128|32:96,1,67.5
176,64,161748,6,0,L|288:64,1,67.5
416,288,161998,2,0,L|288:288,1,67.5
256,128,162248,1,0,0:0:0:0:
284,172,162373,1,0,0:0:0:0:
288,224,162498,1,0,0:0:0:0:
256,256,162623,1,0,0:0:0:0:
240,288,162748,1,0,0:0:0:0:
256,320,162873,1,0,0:0:0:0:
272,336,162998,2,0,B|272:320|272:320|288:288|288:288|256:208|263:166|263:166|276:160|272:208,1,202.500007724762
192,288,163498,6,0,P|96:336|176:240,1,303.750011587143
112,256,163998,2,0,P|112:288|144:256,1,101.250003862381
64,192,164248,1,0,0:0:0:0:
80,224,164373,1,0,0:0:0:0:
112,240,164498,2,0,L|228:240,2,101.250003862381
240,192,164998,6,0,B|255:207|255:207|255:271|255:271|240:239|239:208,1,101.250003862381
224,320,165248,1,0,0:0:0:0:
224,288,165373,1,0,0:0:0:0:
224,256,165498,2,0,P|272:272|224:288,1,101.250003862381
160,288,165748,1,0,0:0:0:0:
336,368,165998,2,0,B|320:320|336:256|336:256|320:96,1,202.500007724762
288,80,166498,6,0,B|288:128|288:128|256:192|240:224|208:192|208:192|208:160|224:176,1,202.500007724762
272,288,166873,1,0,0:0:0:0:
368,256,166998,2,0,B|400:240|400:240|448:256|480:256|512:240|512:240|368:208,1,202.500007724762
288,224,167498,2,0,L|160:224,1,101.250003862381
336,112,167748,1,0,0:0:0:0:
416,224,167998,2,0,P|432:272|400:320,1,101.250003862381
224,320,168248,1,0,0:0:0:0:
256,320,168373,1,0,0:0:0:0:
288,320,168498,2,0,B|336:320|336:320|352:288|352:288|304:288,1,101.250003862381
176,288,168748,1,0,0:0:0:0:
288,320,168998,6,0,B|320:304|320:304|352:320|416:304,1,101.250003862381
160,352,169248,1,0,0:0:0:0:
208,352,169373,1,0,0:0:0:0:
256,352,169498,2,0,B|304:336|304:336|336:368|368:352|336:352,1,101.250003862381
240,208,169748,1,0,0:0:0:0:
160,304,169998,6,0,L|32:304,1,101.250003862381
128,320,170248,1,0,0:0:0:0:
272,272,170498,2,0,L|144:272,1,101.250003862381
272,272,170748,1,0,0:0:0:0:
176,192,170998,6,0,P|192:224|224:176,1,101.250003862381
192,80,171248,1,0,0:0:0:0:
160,304,171498,2,0,P|256:352|240:288,1,202.500007724762
384,320,171998,5,0,0:0:0:0:
368,304,172123,1,0,0:0:0:0:
368,256,172248,1,0,0:0:0:0:
352,240,172373,1,0,0:0:0:0:
352,192,172498,1,0,0:0:0:0:
336,176,172623,1,0,0:0:0:0:
304,112,172748,2,0,P|352:144|336:48,1,202.500007724762
240,96,173248,5,0,0:0:0:0:
224,112,173373,1,0,0:0:0:0:
208,160,173498,2,0,P|144:176|160:128,1,101.250003862381
208,128,173748,1,0,0:0:0:0:
208,208,173998,2,0,P|144:240|160:144,1,202.500007724762
208,256,174498,2,0,B|192:240|192:240|128:256|128:256|76:256|76:256|48:240|48:240|68:216|68:216|120:216,1,202.500007724762
224,224,174998,6,0,B|272:224|272:224|316:244|316:244|356:244|356:244|380:224|380:224|320:224|320:224|320:224,1,202.500007724762
320,224,175373,1,0,0:0:0:0:
288,224,175498,2,0,L|416:224,1,101.250003862381
320,128,175748,1,0,0:0:0:0:
288,304,175998,6,0,B|320:288|320:288|432:320|512:304,1,202.500007724762
416,304,176373,1,0,0:0:0:0:
416,304,176498,2,0,P|480:304|416:272,1,101.250003862381
432,64,176748,1,0,0:0:0:0:
416,96,176873,1,0,0:0:0:0:
400,128,176998,2,0,L|400:272,1,101.250003862381
480,240,177248,1,0,0:0:0:0:
400,176,177498,6,0,B|368:208|368:208|396:232|380:300|336:336|336:336|416:316|436:348|472:360,1,303.750011587143
480,352,177998,1,0,0:0:0:0:
272,336,178248,1,0,0:0:0:0:
240,320,178373,1,0,0:0:0:0:
192,320,178498,1,0,0:0:0:0:
144,352,178623,1,0,0:0:0:0:
80,352,178748,1,0,0:0:0:0:
32,320,178873,1,0,0:0:0:0:
32,256,178998,6,0,P|96:160|64:288,1,303.750011587143
136,280,179498,2,0,P|140:224|104:192,1,101.250003862381
0,168,179748,1,0,0:0:0:0:
36,200,179873,1,0,0:0:0:0:
72,228,179998,2,0,L|188:228,1,101.250003862381
336,192,180248,5,0,0:0:0:0:
292,360,180498,2,0,P|276:296|288:232,1,101.250003862381
320,160,180748,1,0,0:0:0:0:
352,36,180998,2,0,P|356:84|344:144,1,101.250003862381
336,272,181248,5,0,0:0:0:0:
336,272,181373,1,0,0:0:0:0:
336,272,181498,2,0,L|208:272,1,101.250003862381
336,272,181748,1,0,0:0:0:0:
432,336,181998,2,0,P|448:288|400:304,1,101.250003862381
240,336,182248,5,0,0:0:0:0:
240,336,182373,1,0,0:0:0:0:
240,336,182498,2,0,B|272:304|272:304|320:320|352:304,1,101.250003862381
224,256,182748,1,0,0:0:0:0:
336,336,182998,6,0,P|416:320|352:256,1,202.500007724762
288,304,183373,1,0,0:0:0:0:
192,304,183498,2,0,B|120:292|120:292|56:300|56:300|36:320|36:320|124:308,1,202.500007724762
248,232,183998,6,0,P|264:160|244:108,1,101.250003862381
80,124,184248,1,0,0:0:0:0:
80,160,184373,1,0,0:0:0:0:
80,192,184498,2,0,L|224:192,1,101.250003862381
288,224,184748,5,0,0:0:0:0:
272,192,184873,1,0,0:0:0:0:
256,160,184998,2,0,L|144:160,1,101.250003862381
192,208,185248,1,0,0:0:0:0:
208,160,185373,1,0,0:0:0:0:
224,112,185498,2,0,L|368:112,1,101.250003862381
320,288,185748,1,0,0:0:0:0:
208,80,185998,6,0,L|64:80,1,101.250003862381
160,128,186248,1,0,0:0:0:0:
176,96,186373,1,0,0:0:0:0:
192,64,186498,2,0,L|336:64,1,101.250003862381
128,192,186748,1,0,0:0:0:0:
128,192,186998,6,0,B|64:176|64:176|32:208|0:192,1,101.250003862381
240,256,187248,1,0,0:0:0:0:
256,304,187373,1,0,0:0:0:0:
256,352,187498,2,0,B|208:368|208:368|144:336|112:352|112:352|160:368,1,202.500007724762
368,336,187998,5,0,0:0:0:0:
320,240,188123,2,0,L|256:224,1,50.6250019311906
320,256,188248,2,0,L|256:256,1,50.6250019311906
320,272,188373,2,0,L|256:288,1,50.6250019311906
384,272,188498,6,0,L|448:288,1,50.6250019311906
384,240,188623,2,0,P|432:256|384:192,1,202.500007724762
240,224,188998,5,0,0:0:0:0:
368,192,189248,1,0,0:0:0:0:
368,224,189373,1,0,0:0:0:0:
368,256,189498,2,0,P|432:240|352:176,1,202.500007724762
240,224,189998,5,0,0:0:0:0:
320,256,190248,1,0,0:0:0:0:
320,256,190373,1,0,0:0:0:0:
320,256,190498,2,0,B|336:256|336:256|368:288|368:288|432:272|480:240|432:192,1,202.500007724762
144,128,190998,6,0,P|160:208|208:176,1,101.250003862381
272,368,191248,1,0,0:0:0:0:
288,320,191373,1,0,0:0:0:0:
272,272,191498,2,0,P|208:256|148:304,1,101.250003862381
96,336,191748,1,0,0:0:0:0:
176,240,191998,2,0,P|224:192|128:192,1,202.500007724762
96,336,192498,5,0,0:0:0:0:
176,352,192748,1,0,0:0:0:0:
256,320,192998,2,0,P|304:320|368:352,1,101.250003862381
144,304,193248,1,0,0:0:0:0:
144,96,193498,2,0,B|176:192|176:192|128:272|160:304|224:256,1,202.500007724762
171,278,193998,2,0,P|160:240|272:240,1,175.499991966248
176,272,194373,1,0,0:0:0:0:
192,256,194498,2,0,L|192:208|192:128,1,101.250003862381
128,80,194748,2,0,L|128:160,1,74.2500022659302
64,352,194998,6,0,B|32:304|32:304|64:256|64:240|32:208|32:208|16:240|16:256,1,202.5
16,240,195498,6,0,B|32:208|32:208|64:224|48:272,1,87.749995983124
16,320,195748,1,0,0:0:0:0:
16,80,195998,2,0,L|112:80,1,67.5
128,96,196248,1,0,0:0:0:0:
96,96,196373,1,0,0:0:0:0:
144,144,196498,6,0,L|16:144,1,87.749995983124
64,96,196748,1,0,0:0:0:0:
128,240,196998,1,0,0:0:0:0:
304,304,197248,1,0,0:0:0:0:
352,304,197373,1,0,0:0:0:0:
256,272,197498,6,0,L|352:272,1,87.749995983124
256,304,197748,1,0,0:0:0:0:
64,224,197998,2,0,B|96:192|96:192|144:192|192:176|192:176|256:208|224:160,1,202.5
231,172,198498,6,0,B|240:208|176:160|176:160|176:176|208:192,1,87.749995983124
176,80,198748,1,0,0:0:0:0:
368,304,198998,6,0,P|304:304|384:256,1,202.5
349,219,199498,6,0,P|320:224|304:288,1,87.749995983124
448,288,199748,1,0,0:0:0:0:
272,288,199998,6,0,B|220:275|220:275|156:288|144:288|105:262|105:262|105:275|182:288,1,202.5
129,276,200498,6,0,P|80:272|128:320,1,87.749995983124
256,336,200748,1,0,0:0:0:0:
224,320,200873,1,0,0:0:0:0:
192,320,200998,2,0,B|144:320|144:320|128:300|128:300|172:300,1,87.749995983124
320,208,201248,5,0,0:0:0:0:
160,320,201498,2,0,B|128:320|128:320|96:288|96:288|128:288,1,87.749995983124
368,288,201748,5,0,0:0:0:0:
128,320,201998,2,0,B|100:320|100:320|52:284|52:284|84:288|88:288,1,101.250003862381
224,288,202248,5,0,0:0:0:0:
192,336,202373,1,0,0:0:0:0:
128,352,202498,2,0,B|112:352|112:352|72:320|72:320|144:320,1,108
176,352,202748,1,0,0:0:0:0:
224,336,202873,1,0,0:0:0:0:
272,352,202998,6,0,B|320:320|320:320|400:336|416:336|448:272|400:240,1,202.5
400,144,203498,6,0,L|416:256,1,87.749995983124
480,240,203748,1,0,0:0:0:0:
336,176,203998,2,0,P|256:160|176:192,1,135
16,224,204373,1,0,0:0:0:0:
80,256,204498,2,0,P|128:240|204:260,1,87.749995983124
16,176,204748,5,0,0:0:0:0:
160,256,204998,2,0,P|236:272|288:252,1,87.749995983124
16,272,205248,5,0,0:0:0:0:
192,208,205498,2,0,P|280:208|312:192,1,87.749995983124
16,144,205748,5,0,0:0:0:0:
240,276,205998,2,0,P|304:260|360:276,1,87.749995983124
16,304,206248,5,0,0:0:0:0:
256,176,206498,2,0,P|320:184|352:232,1,87.749995983124
16,96,206748,5,0,0:0:0:0:
208,144,206998,2,0,B|160:144|160:160|128:192|96:144,1,87.749995983124
176,128,207248,1,0,0:0:0:0:
128,144,207373,1,0,0:0:0:0:
80,144,207498,2,0,P|80:96|128:96,2,87.749995983124
160,208,207998,1,0,0:0:0:0:
224,32,208248,1,0,0:0:0:0:
208,32,208373,1,0,0:0:0:0:
192,32,208498,2,0,L|304:32,1,87.749995983124
304,96,208748,1,0,0:0:0:0:
256,224,208998,6,0,B|208:176|208:176|128:192|144:160|96:176|80:128|160:112,1,175.499991966248
112,64,209373,1,0,0:0:0:0:
208,64,209498,2,0,L|320:64,1,87.749995983124
128,96,209748,1,0,0:0:0:0:
240,96,209998,2,0,B|272:96|272:96|256:96|256:96|304:96|304:96|288:96|288:96|336:96|336:96|320:96|320:96|400:96,1,202.5
272,64,210498,5,0,0:0:0:0:
208,192,210748,1,0,0:0:0:0:
432,256,210998,2,0,P|368:176|352:256,1,175.499991966248
160,256,211498,6,0,B|96:272|96:272|96:256|32:240|32:240|112:240,1,175.499991966248
368,256,211998,1,0,0:0:0:0:
256,192,212248,1,0,0:0:0:0:
240,224,212373,1,0,0:0:0:0:
256,256,212498,2,0,B|272:288|272:288|272:336|256:352,1,87.749995983124
160,224,212748,1,0,0:0:0:0:
432,256,212998,2,0,P|432:192|368:224,1,87.749995983124
336,208,213248,5,0,0:0:0:0:
336,240,213373,1,0,0:0:0:0:
336,272,213498,2,0,L|480:272,1,87.749995983124
320,112,213748,1,0,0:0:0:0:
320,304,213998,6,0,L|448:304,1,87.749995983124
272,288,214248,1,0,0:0:0:0:
272,320,214373,1,0,0:0:0:0:
272,352,214498,2,0,L|400:352,1,87.749995983124
480,288,214748,1,0,0:0:0:0:
256,144,214998,5,0,0:0:0:0:
304,336,215248,1,0,0:0:0:0:
304,304,215373,1,0,0:0:0:0:
304,272,215498,2,0,B|288:224|288:224|304:192|336:160|336:160|368:192,1,175.499991966248
352,304,215998,1,0,0:0:0:0:
216,184,216248,1,0,0:0:0:0:
184,156,216373,1,0,0:0:0:0:
160,128,216498,2,0,P|160:96|224:112,1,87.749995983124
160,272,216748,5,0,0:0:0:0:
192,272,216873,1,0,0:0:0:0:
224,256,216998,2,0,L|224:144,1,87.749995983124
80,64,217248,1,0,0:0:0:0:
64,96,217373,1,0,0:0:0:0:
48,128,217498,2,0,L|48:256,1,87.749995983124
240,64,217748,1,0,0:0:0:0:
80,176,217998,6,0,L|80:304,1,87.749995983124
64,16,218248,1,0,0:0:0:0:
48,32,218373,1,0,0:0:0:0:
32,48,218498,2,0,L|32:160,1,87.749995983124
240,96,218748,1,0,0:0:0:0:
176,240,218998,5,0,0:0:0:0:
224,256,219248,1,0,0:0:0:0:
224,256,219373,1,0,0:0:0:0:
224,256,219498,2,0,L|344:256,1,87.749995983124
144,240,219748,1,0,0:0:0:0:
448,288,219998,5,0,0:0:0:0:
320,336,220248,1,0,0:0:0:0:
320,336,220373,1,0,0:0:0:0:
320,336,220498,2,0,B|272:336|272:336|256:336|224:336,1,87.749995983124
128,192,220748,1,0,0:0:0:0:
128,192,220998,6,0,P|128:240|80:256,1,87.749995983124
128,304,221248,1,0,0:0:0:0:
128,304,221373,1,0,0:0:0:0:
128,304,221498,2,0,P|64:336|48:272,1,87.749995983124
128,304,221748,1,0,0:0:0:0:
192,272,221998,6,0,P|208:272|256:336,1,87.749995983124
96,240,222248,1,0,0:0:0:0:
96,240,222373,1,0,0:0:0:0:
96,240,222498,2,0,P|112:192|192:224,1,87.749995983124
96,240,222748,1,0,0:0:0:0:
256,352,222998,5,0,0:0:0:0:
32,336,223248,1,0,0:0:0:0:
64,288,223373,1,0,0:0:0:0:
48,224,223498,2,0,P|32:176|64:112,1,87.749995983124
256,208,223748,1,0,0:0:0:0:
128,160,223998,5,0,0:0:0:0:
384,32,224248,1,0,0:0:0:0:
416,96,224373,1,0,0:0:0:0:
416,176,224498,2,0,P|400:256|368:304,1,87.749995983124
384,272,224748,2,0,P|304:144|320:304,1,405
304,256,225998,5,0,0:0:0:0:
192,272,226248,1,0,0:0:0:0:
208,320,226373,1,0,0:0:0:0:
224,368,226498,2,0,B|299:347|299:347|384:352|396:328|384:288|352:304,1,202.5
368,288,226998,6,0,P|400:304|352:336,1,101.250003862381
256,288,227248,1,0,0:0:0:0:
384,272,227498,2,0,P|432:320|336:336,1,202.500007724762
160,240,227998,1,0,0:0:0:0:
48,256,228248,1,0,0:0:0:0:
0,240,228373,1,0,0:0:0:0:
16,192,228498,2,0,L|16:304,1,101.250003862381
176,320,228748,5,0,0:0:0:0:
96,240,228998,2,0,P|80:208|160:208,1,101.250003862381
48,272,229248,1,0,0:0:0:0:
80,224,229373,1,0,0:0:0:0:
112,176,229498,2,0,L|224:176,1,101.250003862381
176,288,229748,1,0,0:0:0:0:
80,160,229998,2,0,B|112:112|192:144|192:144|272:112,1,202.500007724762
272,96,230498,6,0,L|160:144,1,101.250003862381
272,96,230748,1,0,0:0:0:0:
256,192,230998,2,0,P|224:256|288:272,1,101.250003862381
368,304,231248,1,0,0:0:0:0:
368,304,231373,1,0,0:0:0:0:
368,304,231498,2,0,L|224:304,1,101.250003862381
400,256,231748,1,0,0:0:0:0:
304,336,231998,6,0,L|160:336,1,101.250003862381
64,320,232248,1,0,0:0:0:0:
64,320,232373,1,0,0:0:0:0:
64,320,232498,2,0,P|32:272|96:240,1,101.250003862381
176,240,232748,1,0,0:0:0:0:
80,240,232998,6,0,P|64:192|144:160,1,101.250003862381
272,160,233248,1,0,0:0:0:0:
272,160,233373,1,0,0:0:0:0:
272,160,233498,2,0,P|288:192|256:160,1,101.250003862381
192,80,233748,1,0,0:0:0:0:
144,128,233998,6,0,B|96:112|96:112|48:128|0:112,1,101.250003862381
208,208,234248,1,0,0:0:0:0:
240,80,234498,2,0,B|288:48|288:48|352:64|384:64,1,101.250003862381
192,288,234748,1,0,0:0:0:0:
192,144,234998,6,0,B|208:192|208:192|192:224|208:288,1,101.250003862381
352,288,235248,1,0,0:0:0:0:
320,320,235373,1,0,0:0:0:0:
288,352,235498,2,0,B|256:336|256:336|224:352|160:352,1,101.250003862381
112,368,235748,1,0,0:0:0:0:
400,320,235998,6,0,L|448:336,1,50.6250019311906
384,288,236123,2,0,L|464:320,1,50.6250019311906
368,256,236248,2,0,L|432:288,1,50.6250019311906
352,224,236373,2,0,L|416:256,1,50.6250019311906
336,192,236498,1,0,0:0:0:0:
352,144,236623,1,0,0:0:0:0:
400,128,236748,1,0,0:0:0:0:
416,224,236998,6,0,L|480:368,1,101.250003862381
352,144,237248,1,0,0:0:0:0:
400,128,237373,1,0,0:0:0:0:
448,144,237498,6,0,L|496:256,1,101.250003862381
240,240,237748,1,0,0:0:0:0:
160,192,237998,2,0,L|112:96,1,101.250003862381
224,144,238248,1,0,0:0:0:0:
320,192,238498,2,0,L|384:336,1,101.250003862381
128,288,238748,1,0,0:0:0:0:
256,336,238998,6,0,P|288:304|240:304,1,101.250003862381
64,336,239248,1,0,0:0:0:0:
96,336,239373,1,0,0:0:0:0:
128,336,239498,2,0,L|16:336,1,101.250003862381
256,208,239748,1,0,0:0:0:0:
112,304,239998,2,0,L|-16:304,1,101.250003862381
288,256,240248,5,0,0:0:0:0:
320,256,240373,1,0,0:0:0:0:
352,256,240498,2,0,L|208:256,1,101.250003862381
304,352,240748,1,0,0:0:0:0:
160,192,240998,1,0,0:0:0:0:
288,32,241248,1,0,0:0:0:0:
320,64,241373,1,0,0:0:0:0:
352,96,241498,6,0,P|304:128|272:96,1,101.250003862381
320,160,241748,2,0,P|256:144|272:80,1,101.250003862381
240,176,241998,2,0,P|224:128|240:80,1,101.250003862381
256,16,242248,1,0,0:0:0:0:
272,32,242373,1,0,0:0:0:0:
288,64,242498,1,0,0:0:0:0:
288,112,242623,1,0,0:0:0:0:
272,160,242748,1,0,0:0:0:0:
257,214,242873,1,0,0:0:0:0:
272,272,242998,6,0,B|352:288|368:240|368:240|432:224|464:272|464:272|480:304|464:320|464:320|384:320,1,303.750011587143
416,320,243498,6,0,B|464:320|464:320|480:288|480:272|432:272,1,101.250003862381
336,320,243748,1,0,0:0:0:0:
400,352,243998,2,0,L|512:352,1,101.250003862381
208,256,244248,5,0,0:0:0:0:
176,304,244373,1,0,0:0:0:0:
144,352,244498,2,0,L|32:352,1,101.250003862381
112,192,244748,1,0,0:0:0:0:
112,192,244873,1,0,0:0:0:0:
112,192,244998,2,0,P|96:160|128:96,1,101.250003862381
288,256,245248,5,0,0:0:0:0:
256,304,245373,1,0,0:0:0:0:
224,352,245498,2,0,L|80:352,1,101.250003862381
176,224,245748,1,0,0:0:0:0:
224,80,245998,2,0,P|240:128|208:192,1,101.250003862381
128,48,246248,5,0,0:0:0:0:
160,64,246373,1,0,0:0:0:0:
192,64,246498,2,0,B|224:48|224:48|272:64|352:48|352:48|352:48,1,101.250003862381
320,112,246748,2,0,P|368:96|320:64,1,101.250003862381
240,32,246998,5,0,0:0:0:0:
336,192,247248,1,0,0:0:0:0:
368,160,247373,1,0,0:0:0:0:
384,112,247498,2,0,P|384:64|320:80,1,101.250003862381
272,96,247748,2,0,B|240:128|208:112|176:128|192:144,1,101.250003862381
288,160,247998,5,0,0:0:0:0:
148,184,248248,1,0,0:0:0:0:
112,148,248373,1,0,0:0:0:0:
80,112,248498,2,0,B|96:96|96:96|176:128|208:112,1,101.250003862381
80,304,248748,1,0,0:0:0:0:
64,272,248873,1,0,0:0:0:0:
48,240,248998,2,0,L|48:112,1,101.250003862381
160,256,249248,5,0,0:0:0:0:
112,272,249373,1,0,0:0:0:0:
64,256,249498,2,0,P|48:208|80:128,1,101.250003862381
256,176,249748,1,0,0:0:0:0:
272,336,249998,6,0,B|224:320|224:320|176:336|112:336,1,101.250003862381
208,288,250248,1,0,0:0:0:0:
272,304,250373,1,0,0:0:0:0:
336,304,250498,2,0,B|368:288|368:288|400:320|432:288,1,101.250003862381
480,256,250748,2,0,P|496:208|480:144,1,101.250003862381
320,16,250998,6,0,P|304:64|336:128,1,101.250003862381
368,224,251248,1,0,0:0:0:0:
336,208,251373,1,0,0:0:0:0:
304,208,251498,2,0,B|272:208|272:208|256:208|240:224|176:208,1,101.250003862381
144,144,251748,2,0,P|192:160|192:112,1,101.250003862381
144,48,251998,2,0,P|112:64|128:128,1,101.250003862381
160,128,252185,2,0,L|224:96,4,50.6250019311906
96,128,252498,5,0,0:0:0:0:
32,128,252623,1,0,0:0:0:0:
0,64,252748,2,0,B|48:80|48:80|128:64,1,101.250003862381
224,32,252998,2,0,L|336:32|336:32,1,101.250003862381
352,320,253248,5,0,0:0:0:0:
304,304,253373,1,0,0:0:0:0:
256,272,253498,2,0,P|240:224|256:160,1,101.250003862381
320,144,253748,2,0,L|448:144,1,101.250003862381
384,256,253998,2,0,P|400:288|384:352,1,101.250003862381
288,352,254248,2,0,L|160:352,1,101.250003862381
304,240,254498,5,0,0:0:0:0:
192,288,254748,1,0,0:0:0:0:
160,272,254873,1,0,0:0:0:0:
128,256,254998,2,0,L|128:144,1,101.250003862381
240,80,255248,1,0,0:0:0:0:
240,96,255373,1,0,0:0:0:0:
240,112,255498,2,0,L|160:176,1,101.250003862381
48,256,255748,1,0,0:0:0:0:
304,64,255998,6,0,P|320:112|288:176,1,101.250003862381
144,352,256248,1,0,0:0:0:0:
104,324,256373,1,0,0:0:0:0:
80,288,256498,2,0,B|96:272|96:272|144:304|224:288,1,101.250003862381
448,336,256748,1,0,0:0:0:0:
428,276,256873,1,0,0:0:0:0:
388,220,256998,2,0,P|344:272|400:276,1,101.250003862381
480,164,257248,5,0,0:0:0:0:
460,88,257373,1,0,0:0:0:0:
412,24,257498,2,0,L|264:40,1,101.250003862381
500,12,257748,1,0,0:0:0:0:
228,288,257998,2,0,P|216:148|332:148,1,242.999992584229
448,240,258248,5,0,0:0:0:0:
400,240,258373,1,0,0:0:0:0:
352,240,258498,2,0,L|464:240,1,67.5
384,208,258748,1,0,0:0:0:0:
320,272,258998,1,0,0:0:0:0:
176,272,259248,1,0,0:0:0:0:
320,272,259498,1,0,0:0:0:0:
400,336,259748,1,0,0:0:0:0:
32,176,260998,5,0,0:0:0:0:
128,256,261248,1,0,0:0:0:0:
16,272,261498,1,0,0:0:0:0:
80,48,261748,1,0,0:0:0:0:
96,80,262498,5,0,0:0:0:0:
144,208,262748,1,0,0:0:0:0:
64,240,262998,1,0,0:0:0:0:
16,160,263248,1,0,0:0:0:0:
16,240,263498,1,0,0:0:0:0:
16,320,263748,1,0,0:0:0:0:
16,272,264498,5,0,0:0:0:0:
16,224,264998,5,0,0:0:0:0:
215,21,265998,6,0,B|240:71|202:92|202:92|197:156|197:156|163:194|174:278|174:278|174:266|174:266|177:301|177:301|175:291|175:291|186:320|186:320|180:309|180:309|202:341|202:341|194:332|194:332|217:351|217:351|210:349|210:349|264:344|264:344|314:314|339:309|395:320|395:320|413:341|401:375|342:357|344:325|388:308,1,759.375028967858
457,269,267998,5,0,0:0:0:0:
346,285,268248,1,0,0:0:0:0:
242,165,268498,1,0,0:0:0:0:
355,224,268748,1,0,0:0:0:0:
343,360,268998,1,0,0:0:0:0:
64,288,269248,1,0,0:0:0:0:
92,272,269373,1,0,0:0:0:0:
128,272,269498,2,0,L|248:272,1,80.9999975280763
264,352,269748,2,0,L|160:352,1,80.9999975280763
176,104,269998,6,0,P|164:168|196:208,1,80.9999975280763
392,364,270248,1,0,0:0:0:0:
416,316,270373,1,0,0:0:0:0:
424,260,270498,2,0,L|288:260,1,80.9999975280763
244,256,270748,2,0,P|232:184|260:160,1,80.9999975280763
424,88,270998,2,0,P|436:160|408:183,2,80.9999975280763
360,48,271373,1,0,0:0:0:0:
288,84,271498,2,0,P|192:100|144:68,1,80.9999975280763
36,56,271748,2,0,P|132:40|180:72,1,80.9999975280763
180,184,271998,5,0,0:0:0:0:
184,232,272123,1,0,0:0:0:0:
160,272,272248,1,0,0:0:0:0:
124,296,272373,1,0,0:0:0:0:
128,320,272498,1,0,0:0:0:0:
144,336,272623,1,0,0:0:0:0:
176,352,272748,2,0,P|248:328|280:352,1,80.9999975280763
320,368,272998,6,0,L|292:276,1,80.9999975280763
288,48,273248,2,0,L|320:176,1,80.9999975280763
248,324,273498,2,0,L|244:216,1,80.9999975280763
368,20,273748,2,0,L|360:136,1,80.9999975280763
356,264,273998,5,0,0:0:0:0:
476,176,274248,1,0,0:0:0:0:
476,176,274373,1,0,0:0:0:0:
476,176,274498,1,0,0:0:0:0:
476,176,274748,2,0,P|384:188|360:148,1,80.9999975280763
384,120,274998,2,0,L|384:56,4,40.4999987640381
408,188,275373,1,0,0:0:0:0:
384,232,275498,1,0,0:0:0:0:
380,280,275623,1,0,0:0:0:0:
400,320,275748,2,0,P|468:332|504:288,1,80.9999975280763
324,232,275998,6,0,P|268:204|272:292,1,161.999995056153
296,340,276373,1,0,0:0:0:0:
296,340,276498,2,0,L|184:344,1,80.9999975280763
104,292,276748,2,0,P|88:244|108:200,2,80.9999975280763
232,184,277248,1,0,0:0:0:0:
232,184,277373,1,0,0:0:0:0:
232,184,277498,2,0,P|328:168|336:140,2,80.9999975280763
72,36,277998,5,0,0:0:0:0:
96,80,278123,1,0,0:0:0:0:
104,128,278248,1,0,0:0:0:0:
92,176,278373,1,0,0:0:0:0:
56,208,278498,2,0,P|44:256|76:336,2,80.9999975280763
264,204,278998,1,0,0:0:0:0:
192,108,279248,1,0,0:0:0:0:
192,108,279373,1,0,0:0:0:0:
192,108,279498,2,0,P|224:160|192:224,2,80.9999975280763
304,136,279998,6,0,P|396:168|444:108,1,161.999995056153
424,76,280373,1,0,0:0:0:0:
436,16,280498,2,0,L|436:120,1,80.9999975280763
412,324,280748,2,0,L|412:200,1,80.9999975280763
412,140,280998,5,0,0:0:0:0:
480,288,281248,1,0,0:0:0:0:
440,360,281373,1,0,0:0:0:0:
356,368,281498,2,0,P|312:360|280:296,1,80.9999975280763
316,64,281748,2,0,L|448:64,1,80.9999975280763
392,248,281998,5,0,0:0:0:0:
444,116,282248,1,0,0:0:0:0:
480,56,282373,1,0,0:0:0:0:
512,0,282498,2,0,L|416:0,1,80.9999975280763
276,52,282748,1,0,0:0:0:0:
296,284,282998,6,0,L|296:160,1,80.9999975280763
88,88,283248,1,0,0:0:0:0:
88,88,283373,1,0,0:0:0:0:
88,88,283498,2,0,L|88:180,1,80.9999975280763
88,24,283748,1,0,0:0:0:0:
96,128,283998,6,0,B|108:164|108:164|92:248|96:244|96:244|132:308,1,161.999995056153
232,332,284498,2,0,P|344:320|256:272,1,242.999992584229
298,263,284998,2,0,P|340:284|336:332,1,80.9999975280763
176,288,285248,1,0,0:0:0:0:
216,272,285373,1,0,0:0:0:0:
252,256,285498,2,0,L|148:256,2,80.9999975280763
404,256,285998,6,0,P|428:192|392:104,1,161.999995056153
336,108,286373,1,0,0:0:0:0:
272,104,286498,2,0,B|196:96|196:96|160:52|160:52|256:56,1,161.999995056153
340,168,286998,6,0,P|344:244|288:204,1,161.999995056153
288,168,287373,1,0,0:0:0:0:
392,168,287498,2,0,B|496:168|496:168|472:196|472:196|424:196,1,161.999995056153
196,332,287998,6,0,P|160:232|172:176,1,161.999995056153
252,100,288373,1,0,0:0:0:0:
352,28,288498,2,0,L|172:28,1,161.999995056153
252,100,288998,5,0,0:0:0:0:
352,28,289248,1,0,0:0:0:0:
352,28,289373,1,0,0:0:0:0:
352,28,289498,2,0,L|160:28,1,161.999995056153
40,84,289998,6,0,L|216:84,1,161.999995056153
160,216,290373,1,0,0:0:0:0:
164,140,290498,2,0,P|224:200|136:184,1,161.999995056153
72,264,290998,5,0,0:0:0:0:
112,236,291123,1,0,0:0:0:0:
160,236,291248,1,0,0:0:0:0:
200,264,291373,1,0,0:0:0:0:
244,284,291498,1,0,0:0:0:0:
292,268,291623,1,0,0:0:0:0:
336,244,291748,2,0,P|336:180|304:152,1,80.9999975280763
244,28,291998,6,0,P|240:96|280:120,1,80.9999975280763
472,96,292248,1,0,0:0:0:0:
472,96,292373,1,0,0:0:0:0:
472,96,292498,2,0,L|372:96,1,80.9999975280763
296,180,292748,2,0,L|184:180,1,80.9999975280763
216,152,292998,6,0,L|392:152,1,161.999995056153
260,208,293373,1,0,0:0:0:0:
148,256,293498,2,0,L|264:256,1,80.9999975280763
204,320,293748,2,0,L|308:320,1,80.9999975280763
204,320,293998,6,0,L|28:320,1,161.999995056153
104,252,294373,1,0,0:0:0:0:
180,172,294498,2,0,L|52:172,1,80.9999975280763
272,84,294748,2,0,L|168:84,1,80.9999975280763
304,244,294998,6,0,P|312:176|288:140,1,80.9999975280763
48,152,295248,1,0,0:0:0:0:
48,152,295373,1,0,0:0:0:0:
48,152,295498,2,0,L|172:152,1,80.9999975280763
139,248,295748,2,0,L|248:248,1,80.9999975280763
248,260,295998,6,0,L|76:260,1,161.999995056153
52,252,296373,1,0,0:0:0:0:
20,228,296498,2,0,P|0:288|40:308,1,80.9999975280763
88,368,296748,2,0,P|104:324|84:296,1,80.9999975280763
136,216,296998,6,0,L|340:216,1,161.999995056153
328,244,297373,1,0,0:0:0:0:
352,280,297498,2,0,L|352:176,1,80.9999975280763
300,64,297748,2,0,L|300:160,1,80.9999975280763
416,368,297998,6,0,P|452:264|368:208,1,161.999995056153
256,228,298373,1,0,0:0:0:0:
88,192,298498,2,0,P|48:96|156:128,1,242.999992584229
180,264,298998,6,0,L|80:264,1,80.9999975280763
224,208,299248,1,0,0:0:0:0:
188,208,299373,1,0,0:0:0:0:
152,208,299498,2,0,L|280:208,1,80.9999975280763
352,320,299748,2,0,L|256:320,1,80.9999975280763
272,96,299998,6,0,P|288:176|256:256,1,161.999995056153
256,160,300331,2,0,P|224:256|272:336,1,161.999995056153
272,320,300664,6,0,B|336:304|336:304|416:336|448:320,1,161.999995056153
448,320,300998,2,0,P|400:256|400:304,1,161.999995056153
352,352,301456,5,0,0:0:0:0:
448,320,301956,5,0,0:0:0:0:
480,336,302498,5,0,0:0:0:0:
480,336,303466,5,0,0:0:0:0:
