osu file format v5

[General]
AudioFilename: Hallowed Be Thy Name.mp3
AudioLeadIn: 0
PreviewTime: 190264
Countdown: 1
SampleSet: Normal
StackLeniency: 0.7
Mode: 0
LetterboxInBreaks: 1
EditorBookmarks: 60139,134582,143869,190264,199539,227365,246030,291098,308836,368115,385952
EditorDistanceSpacing: 0.800000011920929

[Metadata]
Title:Hallowed Be Thy Name
Artist:Iron Maiden
Creator:awp
Version:Hallowed
Source:
Tags:

[Difficulty]
HPDrainRate:5
CircleSize:5
OverallDifficulty:7
SliderMultiplier:1.2
SliderTickRate:0.5

[Events]
//Background and Video events
0,0,"cover.jpg"
//Break Periods
2,106719,107708
2,109106,110096
2,111531,112521
2,134754,142969
2,190464,198639
2,227565,245130
2,291298,307936
2,368315,385052
//Storyboard Layer 0 (Background)
//Storyboard Layer 1 (Failing)
//Storyboard Layer 2 (Passing)
//Storyboard Layer 3 (Foreground)
//Storyboard Sound Samples
//Background Colour Transformations
3,100,163,162,255

[TimingPoints]
59849,290.570971959901,4,1,0,100,1,0
92372,289.85223592233,4,1,0,100,1,0
96967,298.507462686567,4,1,0,100,1,0
97116,-100,4,1,0,81,0,0
106481,298.507462686567,4,1,0,100,1,0
116093,288.461538461538,4,1,0,100,1,0
134554,-100,4,1,0,100,0,1
134582,289.290400726392,4,1,0,100,1,0
143869,289.855072463768,4,1,0,100,1,0
157782,284.36018957346,4,1,0,100,1,0
171419,295.566502463054,4,1,0,100,1,0
182600,295.566502463054,4,1,0,100,1,0
190264,289.855072463768,4,1,0,100,1,0
201850,289.757086975419,4,1,0,100,1,0
220424,289.757086975419,4,1,0,100,1,0
227397,290.556900726392,4,1,0,100,1,0
227687,-100,4,2,0,100,0,0
246046,295.199902463054,4,2,0,100,1,0
255073,294.833202463054,4,2,0,100,1,0
259790,287.081339712919,4,2,0,100,1,0
264526,287.081339712919,4,1,0,100,1,0
264649,269.058295964126,4,1,0,100,1,1
273301,278.164116828929,4,1,0,100,1,0
291098,277.130995852535,4,1,0,100,1,1
291652,-100,4,1,0,100,0,0
308836,275.545350172216,4,1,0,100,1,0
330712,263.157894736842,4,1,0,100,1,0
332885,275.545350172216,4,1,0,100,1,0
337173,263.157894736842,4,1,0,100,1,0
339386,275.545350172216,4,1,0,100,1,0
343690,263.157894736842,4,1,0,100,1,0
345929,275.545350172216,4,1,0,100,1,0
350329,277.970813064628,4,1,0,100,1,1
358042,-100,4,1,0,100,0,0
359224,-100,4,1,0,100,0,1
368115,280.373831775701,4,1,0,100,1,0
368255,-100,4,1,0,100,0,0
374843,279.073831775701,4,1,0,100,1,0
377064,277.777777777778,4,1,0,100,1,0
390397,-100,4,1,0,100,0,1
394355,-100,4,1,0,100,0,0
399286,-100,4,1,0,100,0,1
401230,-200,4,1,0,100,0,0
401520,1111.11111111111,4,1,0,100,1,0
405833,285.714285714286,4,1,0,0,1,0
406118,-100,4,1,0,100,0,0
412690,-100,4,1,0,100,0,0

[Colours]
Combo1 : 255,0,0
Combo2 : 155,0,0
Combo3 : 255,123,4
Combo4 : 255,198,0

[HitObjects]
104,88,60139,2,0,B|256:88,1,120
368,152,60720,2,0,B|224:152,1,120
176,152,61156,1,0
128,152,61301,1,0
88,240,61592,2,8,B|248:240,1,120
408,88,62464,6,0,B|256:88,1,120
144,152,63045,2,0,B|288:152,1,120
336,152,63481,1,0
384,152,63626,1,0
424,240,63916,2,8,B|264:240,1,120
88,224,64788,6,0,B|88:72,2,120
184,224,65660,1,0
224,192,65805,1,0
264,224,65950,1,0
328,128,66241,2,8,B|390:187|328:232,1,120
160,312,67113,6,0,B|63:292|160:248|64:216,1,120,0|0
64,120,67694,1,0
144,72,67984,5,0
192,72,68130,1,0
240,72,68275,1,0
320,128,68565,1,0
272,128,68711,1,0
224,128,68856,1,0
120,192,69147,1,4
112,296,69437,6,0,B|152:212|192:304,1,120,0|0
272,296,70018,2,0,B|314:210|349:299,1,120,0|0
400,296,70454,1,0
448,296,70599,1,0
440,200,70890,2,0,B|368:200,2,60
440,136,71762,6,0,B|397:55|360:144,1,120,0|0
280,136,72343,2,0,B|240:49|203:139,1,120,0|0
152,136,72779,1,0
104,136,72924,1,0
88,200,73214,2,0,B|176:200,2,60
256,304,74086,5,0
256,256,74231,1,0
256,208,74377,1,0
256,112,74667,1,0
208,32,74958,1,0
256,32,75103,1,0
304,32,75248,1,0
256,112,75539,1,0
256,192,75829,12,4,77937
80,64,78481,5,0
112,96,78627,1,0
144,64,78772,1,0
176,96,78917,1,0
208,64,79063,1,0
240,96,79208,1,0
272,64,79353,2,0,B|344:64,2,60
400,64,79897,2,0,B|400:136,2,60
448,64,80333,1,0
448,112,80478,1,0
448,232,80770,5,4
352,280,81060,5,0
312,248,81205,1,0
280,280,81350,1,0
240,248,81495,1,0
200,280,81641,1,0
168,240,81786,1,0
136,280,81931,2,0,B|20:236|136:204,1,120
168,240,82367,1,0
208,208,82512,1,0
240,248,82658,1,0
272,208,82803,1,0
368,192,83093,6,0,B|440:192,3,60,4|0|0|0
440,144,83675,6,0,B|352:144,3,60
320,144,84256,5,0
256,72,84546,1,0
256,120,84692,1,0
256,168,84837,1,0
256,216,84982,1,0
256,264,85127,1,0
176,352,85419,5,4
72,328,85709,6,0,C|32:288|120:248|32:184|136:128,1,360
120,48,86871,2,0,C|178:106|236:48|288:104,1,240
376,96,87742,5,4
376,96,87888,1,0
424,96,88033,1,0
424,96,88178,1,0
424,144,88324,1,0
424,144,88469,1,0
376,144,88614,1,0
376,144,88759,1,0
336,120,88905,2,0,C|336:248,1,120
336,240,89341,1,0
384,216,89486,1,0
432,240,89631,1,0
384,264,89776,1,0
280,328,90068,5,4
192,296,90358,5,0
144,296,90503,1,0
144,248,90648,1,0
192,248,90793,1,0
192,200,90939,1,0
144,200,91084,1,0
144,152,91229,1,0
192,56,91520,1,0
144,56,91665,1,0
144,104,91810,1,0
192,104,91956,1,0
192,152,92101,1,0
280,128,92372,5,4
312,96,92516,1,0
344,128,92661,1,0
312,160,92806,1,0
280,128,92951,1,0
248,96,93096,1,0
216,128,93241,1,0
248,168,93386,1,0
280,128,93531,1,0
280,224,93821,1,0
280,272,93966,1,0
232,312,94111,1,0
280,312,94256,1,0
328,312,94400,1,0
176,336,94690,5,4
144,256,94980,5,0
184,232,95125,1,0
144,208,95270,1,0
104,232,95415,1,0
56,256,95560,1,0
56,200,95705,1,0
104,176,95850,1,0
248,136,96140,1,0
200,112,96285,1,0
200,160,96429,1,0
152,160,96574,1,0
152,112,96719,1,0
176,32,96967,1,4
272,40,97265,6,0,B|352:48|384:112,1,120
376,192,97862,2,0,B|376:256|296:280,1,120
256,192,98459,1,0
208,192,98608,1,0
160,192,98758,1,0
208,128,99056,2,4,B|208:272,1,120,0|4
144,320,99653,6,0,B|80:320,2,60
240,320,100213,2,0,B|312:320,2,60
168,256,100810,1,0
216,256,100959,1,0
264,256,101109,1,0
216,168,101444,2,4,B|216:24,1,120,0|4
312,56,102041,5,0
312,104,102190,1,0
312,152,102340,1,0
376,56,102638,1,0
376,104,102787,1,0
376,152,102937,1,0
440,56,103235,1,0
440,104,103384,1,0
440,152,103534,1,0
408,240,103832,1,0
256,192,104131,12,4,106481
224,192,108570,6,0,B|255:94|288:192,1,120,0|4
288,192,111033,6,0,B|257:290|224:192,1,120,0|4
256,48,113458,6,0,B|256:192,1,135,0|4
320,64,114242,1,4
192,64,114615,1,4
256,192,115137,12,4,116070
168,224,116669,6,0,B|256:371|352:224,2,240
256,192,118112,1,0
344,160,118400,6,0,B|256:13|160:160,3,240,4|0|0|0
256,192,120419,1,0
256,192,120708,5,4
448,64,121285,5,0
80,64,121862,5,0
256,344,122439,5,0
256,224,122727,2,0,B|256:96,1,120,0|4
168,160,123448,2,4,B|352:160,1,180
256,16,124314,5,0
216,56,124458,1,0
256,96,124602,1,0
296,136,124746,1,0
256,176,124891,1,0
216,216,125035,1,0
256,256,125179,1,0
296,296,125323,1,4
104,320,125900,5,0
104,56,126477,1,0
408,56,127054,1,0
408,192,127342,1,0
408,328,127631,1,4
160,288,128064,5,0
160,288,128208,2,0,B|51:223|304:194|112:104,1,240
352,96,129217,5,0
352,96,129361,2,0,B|461:161|208:190|400:280,1,240,0|4
256,328,130371,5,0
256,328,130516,2,0,B|256:35|206:247,2,240
256,328,131994,1,0
432,328,132246,6,0,B|432:176|312:176,2,180
256,80,133544,6,0,B|336:80,2,60
256,80,133977,2,0,B|184:80,2,60
256,80,134410,2,0,B|256:160,1,60
256,64,143839,5,0
224,96,143977,1,0
256,128,144122,1,0
288,160,144267,1,0
256,192,144412,1,0
224,224,144557,1,0
256,256,144702,1,0
288,288,144847,1,0
256,320,144992,1,8
384,192,145318,5,0
352,224,145463,1,0
384,256,145608,1,0
416,288,145753,1,0
384,320,145897,1,4
256,128,146477,5,0
288,160,146622,1,0
256,192,146767,1,0
224,224,146912,1,0
256,256,147057,1,0
288,288,147202,1,0
256,320,147347,1,8
120,192,147637,5,0
88,224,147782,1,0
120,256,147927,1,0
152,288,148072,1,0
120,320,148216,1,4
256,192,148506,12,0,150535
256,192,150825,12,0,153144
256,304,153869,5,0
256,240,154013,1,0
256,176,154158,1,0
256,112,154303,1,4
104,56,155028,5,0
104,120,155173,1,0
104,184,155318,1,0
104,248,155463,1,4
208,328,155753,1,0
208,264,155897,1,0
208,200,156042,1,4
328,136,156332,1,0
328,200,156477,1,0
328,264,156622,1,4
448,320,156912,1,0
448,256,157057,1,0
448,192,157202,1,4
448,256,157347,1,0
448,320,157492,1,0
328,328,157782,5,4
64,320,158492,5,0
64,256,158635,1,0
64,192,158777,1,0
64,128,158919,1,4
176,64,159630,5,0
176,128,159772,1,0
176,192,159914,1,0
176,256,160057,1,4
296,200,160341,1,0
296,136,160483,1,0
296,72,160625,1,4
408,136,160909,1,0
408,200,161052,1,0
408,264,161194,1,4
312,352,161478,2,0,B|232:352,1,60
184,352,161763,2,0,B|184:280,1,60,4|0
184,224,162047,1,0
256,112,162331,5,4
416,328,163042,6,0,B|416:248,1,60
416,200,163327,2,0,B|416:128,1,60,0|4
256,48,164180,6,0,B|256:120,1,60
256,176,164464,2,0,B|256:248,1,60,0|4
128,192,164891,2,0,B|128:256,2,60,0|0|4
200,304,165459,2,0,B|200:232,2,60,0|0|4
272,192,166028,2,0,B|272:264,3,60,0|0|4|4
272,320,166597,1,4
392,264,166881,5,4
72,192,167592,1,0
96,128,167734,1,0
152,88,167876,1,0
216,72,168018,1,4
296,72,168729,5,0
360,88,168872,1,0
416,128,169014,1,0
432,192,169156,1,4
336,280,169440,1,0
272,264,169582,1,0
240,208,169725,1,4
232,72,170009,1,0
168,88,170151,1,0
120,136,170293,1,4
40,240,170578,1,0
80,296,170720,1,0
128,248,170862,1,4
160,304,171004,1,0
192,360,171146,1,0
256,280,171419,6,2,B|256:32,1,240
360,40,172305,5,0
416,72,172453,1,0
360,104,172601,2,2,B|360:352,1,240
288,232,173487,5,0
224,248,173635,1,0
224,312,173783,1,0
88,304,174079,2,0,B|38:282|64:232,2,60
104,184,174670,1,0
160,216,174818,1,0
160,280,174965,1,0
256,208,175261,1,0
280,152,175409,1,0
328,112,175556,1,0
376,152,175704,1,0
400,208,175852,1,0
328,192,176148,6,2,L|328:328|200:328,1,240,6|2
112,288,177034,1,0
56,256,177182,1,0
56,192,177330,2,2,L|56:56|192:56,1,240,6|2
280,56,178217,5,0
336,64,178364,1,0
376,104,178512,1,0
384,224,178808,1,0
328,208,178955,1,0
288,160,179103,1,0
168,136,179399,1,0
168,192,179547,1,0
168,248,179694,1,0
264,320,179990,2,0,L|264:248,4,60
384,320,180877,6,2,L|384:72,1,240,6|2
264,64,181763,5,0
200,64,181911,1,0
136,64,182059,2,2,L|136:312,1,240
208,240,182895,5,0
264,256,183043,1,0
264,312,183191,1,0
384,312,183486,1,0
440,288,183634,1,0
440,224,183782,1,0
440,104,184077,2,0,L|440:168,1,60
440,224,184373,2,0,L|304:224,1,120
320,224,184816,2,0,L|320:128,1,60
320,104,185112,2,0,L|232:104,1,60
184,32,185555,6,2,B|46:32|48:216,1,240,6|2
48,312,186442,5,0
104,312,186590,1,0
160,312,186737,2,2,B|320:312|320:160,1,240
328,56,187624,2,0,B|240:56|240:136,1,120
208,232,188215,2,0,B|120:232|120:160,1,120
64,64,188806,2,0,B|168:64|168:112,1,120
280,176,189398,2,0,B|328:192|392:176,1,105
448,184,189792,1,0
448,240,189939,1,0
336,240,190247,5,4
256,72,199539,5,4
256,192,199829,5,0
296,152,199974,1,0
336,112,200119,1,0
400,192,200408,2,0,B|352:240,1,60
280,312,200843,1,0
168,312,201133,1,0
112,312,201278,1,0
112,200,201568,1,0
120,88,201844,6,0,B|179:55|162:240|296:88,1,180,4|0
368,120,202574,1,0
368,224,202864,1,0
232,160,203226,2,0,B|144:160|72:216,1,150
88,336,203878,1,0
256,304,204168,5,12
256,184,204457,1,8
256,64,204747,1,8
256,192,205182,12,4,206486
352,104,207645,6,0,B|352:176,2,60
232,104,208224,6,0,B|232:176,2,60,0|0|0
112,72,208804,5,0
112,192,209094,1,0
112,312,209383,1,0
280,312,209818,1,0
280,248,209963,1,0
280,128,210253,1,0
352,40,210542,1,8
416,128,210832,1,8
416,256,211122,6,0,B|344:272|320:192,2,120
416,256,211846,1,0
344,352,212136,2,0,B|232:344|152:208,1,240
144,160,212860,1,8
144,40,213150,1,8
256,72,213440,6,0,B|392:72,2,120
256,192,214309,1,0
312,192,214454,1,0
368,192,214599,1,0
344,312,215034,1,0
280,312,215178,1,0
160,312,215468,1,0
72,232,215758,6,0,B|72:96,2,120,4|0|0
256,80,216917,5,4
256,136,217062,1,0
256,192,217207,1,0
368,192,217497,1,4
368,136,217641,1,0
368,80,217786,1,0
312,192,218076,5,4
320,312,218366,6,0,B|296:242|248:336|224:264,1,120
112,216,218945,2,0,B|136:146|184:240|208:168,1,120,0|0
296,96,219525,1,0
176,96,219815,1,8
56,96,220104,1,8
64,216,220394,6,0,B|80:290|184:296,1,120
256,296,221004,1,0
364,291,221293,2,0,B|432:290|448:216,1,120
304,104,222054,6,0,B|240:104,1,60,0|8
152,104,222452,1,8
152,224,222742,1,0
272,224,223032,2,0,B|200:224,2,60
392,224,223611,1,0
392,280,223756,2,0,B|392:344|248:344,1,150
160,344,224408,2,0,B|80:344|80:264,1,120
256,192,225060,12,4,227343
104,72,246030,6,0,B|232:72,1,120
320,136,246636,2,0,B|192:136,1,120
104,200,247226,2,0,B|232:200,1,120
320,264,247816,2,0,B|192:264,2,120
440,264,248702,1,0
440,144,248997,1,0
320,144,249293,1,0
200,144,249588,2,0,L|200:64|152:64,1,120
40,64,250178,1,0
40,184,250473,2,4,L|40:304,1,120
160,320,251064,6,0,L|240:320|240:256,1,120
120,256,251654,2,0,L|120:216|208:216,1,120
320,216,252245,1,0
384,312,252540,1,0
464,216,252835,1,0
464,96,253130,6,2,L|208:96,1,240
104,96,254016,1,0
24,8,254311,2,2,L|240:8,1,210
234,8,255073,1,2
384,8,255367,6,0,L|384:128,3,120,4|0|0|0
264,120,256547,6,0,L|264:248,3,120
272,360,257726,6,0,L|176:360,1,80
112,360,258119,2,0,L|112:264,1,80,0|0
112,200,258512,2,0,L|200:200,1,80,0|0
192,120,258905,1,0
112,120,259102,1,0
112,40,259298,1,0
192,40,259495,1,0
320,168,259790,5,4
440,168,260077,1,4
448,288,260364,2,0,L|312:288,1,120
208,288,260938,1,0
88,288,261225,2,0,L|88:152,1,120
88,48,261799,1,0
208,48,262086,1,0
328,48,262373,2,2,L|328:296,1,240
392,368,263234,1,0
456,288,263522,2,2,L|456:40,1,240
360,120,264383,1,4
240,112,264649,6,0,L|240:176,10,60
152,80,266263,5,4
152,304,266532,1,4
272,272,266801,6,0,L|272:208,10,60
360,304,268415,5,4
360,80,268684,1,4
248,192,268953,6,0,L|176:192,10,60
360,80,270568,5,4
128,80,270837,1,4
144,192,271106,5,0
144,192,271240,1,0
144,192,271375,1,0
144,192,271509,1,0
200,192,271644,6,0,L|200:128,3,60
256,136,272182,6,0,L|256:208,3,60
312,192,272720,5,4
456,192,272989,5,4
360,72,273301,6,0,B|208:39|129:169|240:256|312:272,1,360
456,192,274552,1,0
272,192,274969,2,0,B|344:192,4,60
88,192,275943,1,0
88,192,276360,1,0
96,72,276638,6,8,C|140:77|136:120|184:136,1,120
280,136,277195,2,8,C|324:141|320:184|368:200,1,120,8|8
440,288,277751,6,0,B|393:387|288:304,3,180
112,312,279420,6,0,B|112:216,1,60
112,192,279698,2,0,B|112:112,1,60
112,72,279976,6,0,B|224:24|264:128,2,180
192,160,281089,5,8
232,200,281228,1,0
272,240,281367,1,8
304,120,281645,5,8
344,160,281784,1,0
384,200,281923,1,8
360,312,282202,6,0,B|208:345|129:215|240:128|312:112,1,360
456,192,283488,1,0
272,192,283870,2,0,B|344:192,4,60
88,192,284844,1,0
88,192,285261,1,0
96,312,285539,6,8,C|140:307|136:264|184:248,1,120
280,248,286096,2,8,C|324:243|320:200|368:184,1,120,8|8
440,96,286652,6,0,B|393:-3|288:80,3,180
112,72,288321,6,0,B|112:168,1,60
112,192,288599,2,0,B|112:272,1,60
112,312,288877,6,0,B|224:360|264:256,2,180
192,224,289990,5,8
232,184,290129,1,0
272,144,290268,1,8
304,264,290546,5,8
344,224,290685,1,0
384,184,290824,1,8
256,232,291098,1,4
360,136,308836,6,0,B|257:19|152:143,1,240
256,352,309938,2,0,B|372:288|117:254|256:168,1,240
256,40,311040,5,4
400,40,311315,1,8
400,184,311591,1,4
400,328,311866,1,8
256,328,312142,1,4
256,184,312418,1,8
112,184,312693,1,4
104,328,312969,1,12
256,192,313244,12,0,316551
408,72,317653,6,2,B|308:145|223:-1|144:104,1,240
88,104,318480,1,0
56,200,318755,2,2,B|156:273|241:127|320:232,1,240
376,232,319582,1,0
432,336,319857,2,0,B|371:386|320:336,1,120,0|0
216,336,320408,2,0,B|155:386|104:336,1,120,0|0
48,232,320959,6,0,B|112:168,2,60,4|0|0
160,232,321511,2,0,B|224:168,2,60,4|0|0
280,232,322062,6,2,B|416:232,1,120
440,120,322613,2,2,B|320:176,1,120
240,96,323164,2,2,B|384:88,1,120
264,160,323715,2,2,B|152:216,1,120
32,216,324266,2,2,B|152:272,1,120
248,320,324817,2,2,B|312:192,1,120
328,96,325368,6,0,B|248:96,2,60
336,216,325919,2,0,B|408:216,2,60
336,320,326470,5,4
280,320,326608,1,0
224,320,326746,1,0
168,320,326884,1,0
96,232,327159,1,0
152,232,327297,1,0
240,168,327573,1,0
184,168,327710,1,0
104,96,327986,1,0
144,56,328124,1,0
184,96,328261,1,0
224,56,328399,1,0
264,96,328537,1,0
304,56,328675,5,0
344,96,328813,1,0
384,136,328950,1,0
424,176,329088,1,0
368,272,329364,2,0,B|296:272,1,60
200,272,329777,2,0,B|200:208,1,60
104,160,330190,2,0,B|64:208,1,60
32,248,330466,2,0,B|88:296,1,60
120,312,330744,5,4
168,192,330975,5,0
208,232,331106,1,0
256,264,331238,1,4
336,192,331501,5,0
296,152,331633,1,0
256,112,331764,1,4
168,192,332027,5,0
208,232,332158,1,0
256,264,332290,1,4
360,272,332554,6,0,B|408:312,2,60,0|0|4
448,264,333022,6,0,B|448:184,1,60
448,96,333436,2,0,B|376:96,1,60
280,88,333849,1,0
280,144,333987,1,0
224,144,334124,1,0
224,88,334262,1,0
168,88,334400,1,0
112,88,334538,6,0,B|112:152,1,60
112,200,334813,2,0,B|112:272,1,60
216,272,335227,2,0,B|296:272,1,60
384,272,335640,2,0,B|456:328,1,60
448,200,336053,2,0,B|448:136,1,60
392,136,336329,2,0,B|392:200,1,60
336,184,336604,2,0,B|336:120,1,60
280,112,336880,2,0,B|280:176,1,60
216,168,337173,5,4
96,192,337436,5,0
128,232,337568,1,0
160,272,337699,1,4
256,320,337962,5,0
296,288,338094,1,0
336,256,338225,1,4
376,152,338488,5,0
408,192,338620,1,0
440,232,338751,1,4
336,200,339015,5,0
280,200,339146,1,0
224,200,339278,1,4
152,136,339523,5,0
120,184,339661,1,0
144,288,339937,1,0
96,256,340074,1,0
48,152,340350,1,0
88,112,340488,1,0
240,64,340763,2,0,B|304:64,1,60
352,64,341039,2,0,B|304:120,1,60
296,160,341314,2,0,B|312:224,1,60
304,328,341728,6,0,B|216:320,1,60
136,296,342141,2,0,B|192:256,1,60
168,152,342554,2,0,B|112:88,1,60
224,48,342968,2,0,B|304:48,4,60
224,48,343690,5,4
328,56,343953,1,0
328,112,344084,1,0
328,168,344216,1,4
256,248,344479,1,0
256,192,344611,1,0
256,136,344742,1,4
184,56,345005,1,0
184,112,345137,1,0
184,168,345268,1,4
80,192,345532,5,0
104,240,345663,1,0
128,288,345795,1,12
288,296,346204,5,0
416,192,346617,1,0
288,88,347031,1,0
128,80,347444,1,0
160,120,347582,1,0
128,160,347720,1,0
160,200,347857,1,0
128,240,347995,1,0
288,248,348408,5,0
288,64,348822,1,0
440,152,349235,1,0
424,328,349648,1,0
360,328,349786,1,0
296,328,349924,1,0
232,328,350062,1,0
168,328,350199,1,0
112,328,350329,6,0,B|112:256,3,60,4|0|0|0
48,264,350884,2,0,B|48:192,4,60
48,144,351718,6,0,B|126:84|165:248|304:248,1,240
368,248,352552,1,4
440,152,352830,6,0,B|376:104,1,60
368,64,353108,2,0,B|304:112,1,60
360,152,353386,2,0,B|288:184,1,60
264,128,353664,1,0
144,120,353942,2,0,B|208:128,1,60
216,184,354220,2,0,B|128:168,2,60
280,288,354776,6,0,B|280:360,1,60,4|0
336,344,355054,2,0,B|400:344,1,60
400,280,355332,2,0,B|400:192,1,60
336,216,355610,2,0,B|272:216,1,60
344,280,355888,1,0
224,248,356166,1,0
176,288,356305,1,0
112,288,356444,1,0
64,328,356583,1,0
0,328,356722,1,0
40,216,357000,5,4
40,96,357278,6,0,B|128:96,1,60
160,96,357556,2,0,B|224:96,1,60
280,96,357834,1,0
336,96,357973,1,0
392,96,358112,2,0,B|471:141|336:153|416:240,1,120
424,248,358529,2,0,B|328:248,1,60
336,304,358807,2,0,B|432:304,1,60
280,344,359224,5,4
216,336,359363,1,0
160,320,359502,1,0
112,280,359641,1,0
80,224,359780,1,0
64,168,359918,1,0
64,104,360057,1,0
96,48,360196,1,0
152,8,360335,1,0
272,8,360613,5,0
328,24,360752,1,0
376,64,360891,1,0
400,120,361030,1,0
400,176,361169,1,0
256,192,361447,5,4
256,248,361586,6,0,B|256:320,2,60
312,192,362003,6,0,B|384:192,2,60
256,136,362420,6,0,B|256:64,1,60
192,192,362837,5,0
128,192,362976,1,0
64,192,363115,1,0
128,192,363254,1,0
192,192,363393,1,0
256,320,363671,6,0,B|320:320,1,60,4|0
320,256,363949,2,0,B|256:256,1,60
256,192,364227,2,0,B|328:192,1,60
320,128,364505,2,0,B|248:128,2,60
256,0,365061,2,0,B|328:0,1,60
320,64,365339,2,0,B|240:64,2,60
256,192,365895,12,4,368115
256,32,385952,6,0,B|440:28|440:320,1,360
328,336,387064,2,0,B|104:336|104:216,1,240
72,144,387897,2,0,B|152:16|184:208|184:208|200:304|336:168,2,360
64,264,389841,5,8
64,320,389980,1,8
120,320,390119,1,8
120,264,390258,1,8
176,288,390397,6,0,B|320:344|440:280,1,240
404,103,391508,6,0,B|260:47|140:111,1,240
168,152,392202,1,0
112,152,392341,1,0
112,96,392480,1,0
256,192,392619,12,0,394286
376,96,394841,5,0
320,96,394980,1,0
264,96,395119,1,0
208,96,395258,1,0
96,96,395536,1,0
152,96,395675,1,0
152,200,395952,1,0
96,200,396091,1,0
208,200,396369,1,0
264,200,396508,1,8
320,200,396647,1,8
376,200,396786,6,0,B|376:336,1,120,8|0
320,320,397202,1,0
264,320,397341,1,0
208,320,397480,1,0
96,320,397758,1,0
152,320,397897,1,0
152,208,398175,1,0
96,208,398314,1,0
208,208,398591,1,0
264,208,398730,1,8
320,208,398869,1,8
376,208,399008,1,8
360,96,399286,6,0,B|252:-8|146:89,1,240
152,288,400397,6,0,B|260:392|366:295,1,240
128,248,401520,2,0,C|208:112|304:240|384:96,1,480,0|0
377,108,410690,1,4
135,108,411261,5,0
377,276,411833,5,0
135,276,412404,5,0
48,56,412975,5,0
128,56,413166,1,0
208,56,413356,1,0
208,136,413547,1,0
208,216,413737,1,0
208,296,413928,1,0
288,296,414118,5,0
368,296,414309,1,0
448,296,414499,1,0
448,216,414690,1,0
448,96,414975,6,4,B|296:96,1,120
256,192,417547,12,4,425618
