osu file format v7

[General]
AudioFilename: Iron Attack - Sparking.mp3
AudioLeadIn: 0
PreviewTime: -1
Countdown: 1
SampleSet: Soft
StackLeniency: 0.7
Mode: 0
LetterboxInBreaks: 1

[Editor]
DistanceSpacing: 0.800000011920929
BeatDivisor: 6
GridSize: 8

[Metadata]
Title:Sparking
Artist:Iron Attack!
Creator:mycodenameiskai
Version:Hard
Source:
Tags:

[Difficulty]
HPDrainRate:5
CircleSize:5
OverallDifficulty:5
SliderMultiplier:1.4
SliderTickRate:1

[Events]
//Background and Video events
Video,0,"Sparking.avi"
//Break Periods
//Storyboard Layer 0 (Background)
//Storyboard Layer 1 (Fail)
//Storyboard Layer 2 (Pass)
//Storyboard Layer 3 (Foreground)
//Storyboard Sound Samples
//Background Colour Transformations
3,100,163,162,255

[TimingPoints]
0,400,4,2,0,100,1,0

[Colours]
Combo1 : 255,255,255
Combo2 : 255,255,255

[HitObjects]
420,120,1800,1,0
252,195,4133,5,0
252,195,4200,1,0
252,195,4266,1,0
252,195,4333,1,0
252,195,4400,1,0
42,37,5400,1,0
42,37,6133,5,0
62,61,6266,1,0
78,81,6400,1,0
99,103,6533,1,0
118,124,6666,1,0
133,141,6800,1,0
151,158,6933,1,0
176,183,7066,1,0
206,195,7200,1,0
240,181,7333,1,0
265,169,7466,1,0
290,149,7600,1,0
310,134,7733,1,0
333,119,7866,1,0
362,100,8000,1,0
210,125,8400,1,0
209,125,8466,1,0
210,126,8533,1,0
48,328,9266,2,0,L|53:267|103:293|110:236|165:275|172:206|224:246|233:182|287:228|301:158|378:221,1,676.666666666667
371,215,11333,6,0,L|482:217,1,93.3333333333333
464,160,11666,2,0,L|352:160,1,93.3333333333333
368,104,11933,2,0,L|480:104,1,93.3333333333333
464,48,12266,2,0,L|360:48,1,93.3333333333333
312,48,12600,2,0,L|312:144,1,93.3333333333333
256,144,12933,2,0,L|256:240,1,93.3333333333333
312,240,13266,2,0,L|312:336,1,93.3333333333333
368,336,13600,2,0,L|480:336,1,93.3333333333333
464,280,13933,2,0,L|464:176,1,93.3333333333333
464,128,14266,2,0,L|352:128,1,93.3333333333333
368,184,14600,2,0,L|368:280,1,93.3333333333333
312,280,14933,2,0,L|208:280,1,93.3333333333333
224,216,15266,2,0,L|224:112,1,93.3333333333333
160,120,15600,2,0,L|56:120,1,93.3333333333333
64,184,15933,2,0,L|64:280,1,93.3333333333333
120,280,16266,2,0,L|232:280,1,93.3333333333333
272,280,16600,2,0,L|384:280,1,93.3333333333333
368,216,16933,2,0,L|368:112,1,93.3333333333333
304,120,17266,2,0,L|200:120,1,93.3333333333333
208,184,17600,2,0,L|208:280,1,93.3333333333333
144,272,17933,2,0,L|40:272,1,93.3333333333333
48,200,18533,2,0,L|152:200,3,93.3333333333333
256,192,19866,12,0,20866
256,192,22333,12,0,23400
256,192,24800,12,0,25933
256,192,27333,12,0,28600
40,32,30200,6,0,L|144:32,1,93.3333333333333
192,32,30533,2,0,L|296:32,1,93.3333333333333
344,32,30866,2,0,L|448:32,1,93.3333333333333
432,96,31200,2,0,L|432:192,1,93.3333333333333
376,192,31533,2,0,L|272:192,1,93.3333333333333
224,192,31866,2,0,L|128:192,1,93.3333333333333
128,128,32266,2,0,L|392:128,1,256.666666666667
