osu file format v14

[General]
AudioFilename: Change Our MIRAI!.mp3
AudioLeadIn: 0
PreviewTime: 55278
Countdown: 1
SampleSet: None
StackLeniency: 0.7
Mode: 1
LetterboxInBreaks: 1
WidescreenStoryboard: 0

[Editor]
Bookmarks: 1021,8521,16021,25396,40396,70396,85396,104146,119146,137896
DistanceSpacing: 0.8
BeatDivisor: 4
GridSize: 32
TimelineZoom: 3.899998

[Metadata]
Title:Change Our MIRAI!
TitleUnicode:Change Our MIRAI!
Artist:Irodorimidori
ArtistUnicode:イロドリミドリ
Creator:Pulongong
Version:Pulongong's Taiko
Source:SEGA
Tags:明坂芹菜 新田恵海 御形アリシアナ 福原綾香 天王洲なずな 山本彩乃 箱部なる M・A・O 小仏凪 佐倉薫 CHUNITHM チュウニズム maimai yia
BeatmapID:747501
BeatmapSetID:337906

[Difficulty]
HPDrainRate:5
CircleSize:5
OverallDifficulty:5
ApproachRate:5
SliderMultiplier:1.4
SliderTickRate:1

[Events]
//Background and Video events
0,0,"wpA_1920-1200.jpg",0,25
//Break Periods
//Storyboard Layer 0 (Background)
//Storyboard Layer 1 (Fail)
//Storyboard Layer 2 (Pass)
//Storyboard Layer 3 (Foreground)
//Storyboard Sound Samples

[TimingPoints]
1021,234.375,4,1,0,100,1,0
1021,-200,4,1,0,100,0,0
8521,-100,4,1,0,100,0,0
41333,-200,4,1,0,100,0,0
47896,-100,4,1,0,100,0,0
55396,-100,4,1,0,100,0,1
85396,-100,4,1,0,100,0,0
85630,-200,4,1,0,100,0,0
92896,-100,4,1,0,100,0,0
102271,-200,4,1,0,100,0,0
104146,-100,4,1,0,100,0,1
137896,-100,4,1,0,100,0,0

[HitObjects]
256,192,1021,5,2,0:0:0:0:
256,192,1372,1,0,0:0:0:0:
256,192,1606,1,2,0:0:0:0:
256,192,1958,1,2,0:0:0:0:
256,192,2310,1,0,0:0:0:0:
256,192,2544,1,2,0:0:0:0:
256,192,2778,1,0,0:0:0:0:
256,192,2896,1,2,0:0:0:0:
256,192,3247,1,0,0:0:0:0:
256,192,3481,1,2,0:0:0:0:
256,192,3716,1,0,0:0:0:0:
256,192,3833,1,2,0:0:0:0:
256,192,4185,1,0,0:0:0:0:
256,192,4419,1,2,0:0:0:0:
256,192,4771,1,2,0:0:0:0:
256,192,5122,1,0,0:0:0:0:
256,192,5356,1,2,0:0:0:0:
256,192,5708,1,2,0:0:0:0:
256,192,6060,1,0,0:0:0:0:
256,192,6294,1,2,0:0:0:0:
256,192,6528,1,0,0:0:0:0:
256,192,6646,1,2,0:0:0:0:
256,192,6997,1,0,0:0:0:0:
256,192,7231,1,2,0:0:0:0:
256,192,7466,1,0,0:0:0:0:
256,192,7583,1,2,0:0:0:0:
256,192,7700,1,2,0:0:0:0:
256,192,7817,1,0,0:0:0:0:
256,192,8052,1,6,0:0:0:0:
256,192,8521,1,2,0:0:0:0:
256,192,8638,1,0,0:0:0:0:
256,192,8755,1,0,0:0:0:0:
256,192,8872,1,2,0:0:0:0:
256,192,8989,1,0,0:0:0:0:
256,192,9106,1,2,0:0:0:0:
256,192,9224,1,0,0:0:0:0:
256,192,9341,1,0,0:0:0:0:
256,192,9458,1,2,0:0:0:0:
256,192,9575,1,0,0:0:0:0:
256,192,9692,1,2,0:0:0:0:
256,192,9810,1,0,0:0:0:0:
256,192,9927,1,0,0:0:0:0:
256,192,10044,1,2,0:0:0:0:
256,192,10161,1,0,0:0:0:0:
256,192,10278,1,0,0:0:0:0:
256,192,10396,1,2,0:0:0:0:
256,192,10513,1,0,0:0:0:0:
256,192,10630,1,2,0:0:0:0:
256,192,10747,1,0,0:0:0:0:
256,192,10864,1,0,0:0:0:0:
256,192,10981,1,2,0:0:0:0:
256,192,11099,1,0,0:0:0:0:
256,192,11216,1,0,0:0:0:0:
256,192,11333,1,2,0:0:0:0:
256,192,11450,1,0,0:0:0:0:
256,192,11567,1,0,0:0:0:0:
256,192,11685,1,2,0:0:0:0:
256,192,11802,1,0,0:0:0:0:
256,192,11919,1,2,0:0:0:0:
256,192,12036,1,0,0:0:0:0:
256,192,12153,1,2,0:0:0:0:
256,192,12271,1,0,0:0:0:0:
256,192,12388,1,0,0:0:0:0:
256,192,12505,1,2,0:0:0:0:
256,192,12622,1,0,0:0:0:0:
256,192,12739,1,2,0:0:0:0:
256,192,12856,1,0,0:0:0:0:
256,192,12974,1,0,0:0:0:0:
256,192,13091,1,2,0:0:0:0:
256,192,13208,1,0,0:0:0:0:
256,192,13325,1,0,0:0:0:0:
256,192,13442,1,2,0:0:0:0:
256,192,13560,1,0,0:0:0:0:
256,192,13677,1,2,0:0:0:0:
256,192,13794,1,0,0:0:0:0:
256,192,13911,1,0,0:0:0:0:
256,192,14028,1,2,0:0:0:0:
256,192,14146,1,0,0:0:0:0:
256,192,14263,1,0,0:0:0:0:
256,192,14380,1,2,0:0:0:0:
256,192,14497,1,0,0:0:0:0:
256,192,14614,1,0,0:0:0:0:
256,192,14731,1,2,0:0:0:0:
256,192,14849,1,0,0:0:0:0:
256,192,14966,1,0,0:0:0:0:
256,192,15083,2,0,L|256:96,6,70
256,192,16021,1,2,0:0:0:0:
256,192,16138,1,0,0:0:0:0:
256,192,16255,1,0,0:0:0:0:
256,192,16372,1,2,0:0:0:0:
256,192,16431,1,2,0:0:0:0:
256,192,16489,1,0,0:0:0:0:
256,192,16606,1,2,0:0:0:0:
256,192,16724,1,0,0:0:0:0:
256,192,16841,1,0,0:0:0:0:
256,192,16958,1,2,0:0:0:0:
256,192,17075,1,0,0:0:0:0:
256,192,17192,1,2,0:0:0:0:
256,192,17310,1,0,0:0:0:0:
256,192,17368,1,0,0:0:0:0:
256,192,17427,1,0,0:0:0:0:
256,192,17544,1,2,0:0:0:0:
256,192,17661,1,0,0:0:0:0:
256,192,17778,1,0,0:0:0:0:
256,192,17896,1,2,0:0:0:0:
256,192,18013,1,0,0:0:0:0:
256,192,18130,1,2,0:0:0:0:
256,192,18247,1,0,0:0:0:0:
256,192,18306,1,0,0:0:0:0:
256,192,18364,1,0,0:0:0:0:
256,192,18481,1,2,0:0:0:0:
256,192,18599,1,0,0:0:0:0:
256,192,18716,1,0,0:0:0:0:
256,192,18833,1,2,0:0:0:0:
256,192,18950,1,0,0:0:0:0:
256,192,19067,1,0,0:0:0:0:
256,192,19185,1,2,0:0:0:0:
256,192,19243,1,2,0:0:0:0:
256,192,19302,1,0,0:0:0:0:
256,192,19419,1,2,0:0:0:0:
256,192,19536,1,0,0:0:0:0:
256,192,19653,1,2,0:0:0:0:
256,192,19771,1,0,0:0:0:0:
256,192,19888,1,0,0:0:0:0:
256,192,20005,1,2,0:0:0:0:
256,192,20122,1,0,0:0:0:0:
256,192,20181,1,0,0:0:0:0:
256,192,20239,1,2,0:0:0:0:
256,192,20356,1,0,0:0:0:0:
256,192,20474,1,0,0:0:0:0:
256,192,20591,1,2,0:0:0:0:
256,192,20708,1,0,0:0:0:0:
256,192,20825,1,0,0:0:0:0:
256,192,20942,1,2,0:0:0:0:
256,192,21060,1,0,0:0:0:0:
256,192,21118,1,0,0:0:0:0:
256,192,21177,1,2,0:0:0:0:
256,192,21294,1,0,0:0:0:0:
256,192,21411,1,0,0:0:0:0:
256,192,21528,1,2,0:0:0:0:
256,192,21646,1,0,0:0:0:0:
256,192,21763,1,0,0:0:0:0:
256,192,21880,1,0,0:0:0:0:
256,192,21997,1,2,0:0:0:0:
256,192,22114,1,2,0:0:0:0:
256,192,22231,1,2,0:0:0:0:
256,192,22349,1,0,0:0:0:0:
256,192,22466,1,0,0:0:0:0:
256,192,22583,1,2,0:0:0:0:
256,192,22700,1,2,0:0:0:0:
256,192,22817,1,2,0:0:0:0:
256,192,22935,1,0,0:0:0:0:
256,192,23052,1,0,0:0:0:0:
256,192,23169,1,0,0:0:0:0:
256,192,23286,1,2,0:0:0:0:
256,192,23345,1,2,0:0:0:0:
256,192,23403,1,2,0:0:0:0:
256,192,23462,1,2,0:0:0:0:
256,192,23521,1,0,0:0:0:0:
256,192,23638,1,0,0:0:0:0:
256,192,23755,1,2,0:0:0:0:
256,192,23872,1,0,0:0:0:0:
256,192,23989,1,0,0:0:0:0:
256,192,24106,1,2,0:0:0:0:
256,192,24224,1,0,0:0:0:0:
256,192,24341,1,0,0:0:0:0:
256,192,24458,1,2,0:0:0:0:
256,192,24575,1,0,0:0:0:0:
256,192,24692,1,0,0:0:0:0:
256,192,24810,1,0,0:0:0:0:
256,192,24927,1,6,0:0:0:0:
256,192,25396,1,0,0:0:0:0:
256,192,25747,1,2,0:0:0:0:
256,192,25864,1,0,0:0:0:0:
256,192,26099,1,2,0:0:0:0:
256,192,26216,1,0,0:0:0:0:
256,192,26450,1,2,0:0:0:0:
256,192,26685,1,0,0:0:0:0:
256,192,26743,1,0,0:0:0:0:
256,192,26802,1,0,0:0:0:0:
256,192,27036,1,2,0:0:0:0:
256,192,27271,1,0,0:0:0:0:
256,192,27622,1,2,0:0:0:0:
256,192,27739,1,0,0:0:0:0:
256,192,27974,1,0,0:0:0:0:
256,192,28091,1,2,0:0:0:0:
256,192,28325,1,0,0:0:0:0:
256,192,28560,1,0,0:0:0:0:
256,192,28794,1,2,0:0:0:0:
256,192,28853,1,2,0:0:0:0:
256,192,28911,1,2,0:0:0:0:
256,192,28970,1,2,0:0:0:0:
256,192,29028,1,2,0:0:0:0:
256,192,29087,1,2,0:0:0:0:
256,192,29146,1,0,0:0:0:0:
256,192,29497,1,2,0:0:0:0:
256,192,29614,1,0,0:0:0:0:
256,192,29849,1,2,0:0:0:0:
256,192,29966,1,2,0:0:0:0:
256,192,30200,1,0,0:0:0:0:
256,192,30435,1,0,0:0:0:0:
256,192,30669,1,0,0:0:0:0:
256,192,30728,1,0,0:0:0:0:
256,192,30786,1,0,0:0:0:0:
256,192,30845,1,0,0:0:0:0:
256,192,30903,1,0,0:0:0:0:
256,192,31021,1,2,0:0:0:0:
256,192,31372,1,0,0:0:0:0:
256,192,31489,1,2,0:0:0:0:
256,192,31841,1,0,0:0:0:0:
256,192,32192,1,0,0:0:0:0:
256,192,32427,1,0,0:0:0:0:
256,192,32661,1,2,0:0:0:0:
256,192,32720,1,2,0:0:0:0:
256,192,32778,1,2,0:0:0:0:
256,192,32837,1,2,0:0:0:0:
256,192,32896,1,0,0:0:0:0:
256,192,33247,1,2,0:0:0:0:
256,192,33364,1,0,0:0:0:0:
256,192,33599,1,2,0:0:0:0:
256,192,33716,1,0,0:0:0:0:
256,192,33950,1,2,0:0:0:0:
256,192,34185,1,0,0:0:0:0:
256,192,34243,1,0,0:0:0:0:
256,192,34302,1,0,0:0:0:0:
256,192,34536,1,2,0:0:0:0:
256,192,34771,1,0,0:0:0:0:
256,192,35122,1,2,0:0:0:0:
256,192,35239,1,0,0:0:0:0:
256,192,35474,1,0,0:0:0:0:
256,192,35591,1,2,0:0:0:0:
256,192,35825,1,0,0:0:0:0:
256,192,36060,1,0,0:0:0:0:
256,192,36294,1,2,0:0:0:0:
256,192,36353,1,2,0:0:0:0:
256,192,36411,1,2,0:0:0:0:
256,192,36470,1,2,0:0:0:0:
256,192,36528,1,2,0:0:0:0:
256,192,36587,1,2,0:0:0:0:
256,192,36646,1,0,0:0:0:0:
256,192,36997,1,2,0:0:0:0:
256,192,37114,1,0,0:0:0:0:
256,192,37349,1,2,0:0:0:0:
256,192,37466,1,2,0:0:0:0:
256,192,37700,1,0,0:0:0:0:
256,192,37935,1,0,0:0:0:0:
256,192,38169,1,0,0:0:0:0:
256,192,38228,1,0,0:0:0:0:
256,192,38286,1,0,0:0:0:0:
256,192,38345,1,0,0:0:0:0:
256,192,38403,1,0,0:0:0:0:
256,192,38521,1,2,0:0:0:0:
256,192,38872,1,0,0:0:0:0:
256,192,38989,1,0,0:0:0:0:
256,192,39341,1,0,0:0:0:0:
256,192,39458,1,2,0:0:0:0:
256,192,39692,1,0,0:0:0:0:
256,192,39927,1,2,0:0:0:0:
256,192,40161,1,0,0:0:0:0:
256,192,40220,1,0,0:0:0:0:
256,192,40278,1,0,0:0:0:0:
256,192,40337,1,0,0:0:0:0:
256,192,40396,1,0,0:0:0:0:
256,192,41333,1,0,0:0:0:0:
256,192,41685,1,2,0:0:0:0:
256,192,42036,1,0,0:0:0:0:
256,192,42271,1,2,0:0:0:0:
256,192,42974,1,0,0:0:0:0:
256,192,43208,1,0,0:0:0:0:
256,192,43560,1,2,0:0:0:0:
256,192,43911,1,0,0:0:0:0:
256,192,44146,1,0,0:0:0:0:
256,192,44497,1,2,0:0:0:0:
256,192,44849,1,2,0:0:0:0:
256,192,45083,1,0,0:0:0:0:
256,192,45552,1,2,0:0:0:0:
256,192,45669,1,0,0:0:0:0:
256,192,45786,1,0,0:0:0:0:
256,192,46021,1,0,0:0:0:0:
256,192,46372,1,2,0:0:0:0:
256,192,46724,1,2,0:0:0:0:
256,192,46958,1,0,0:0:0:0:
256,192,47427,1,2,0:0:0:0:
256,192,47661,1,2,0:0:0:0:
256,192,47896,1,0,0:0:0:0:
256,192,48130,1,2,0:0:0:0:
256,192,48364,1,0,0:0:0:0:
256,192,48481,1,0,0:0:0:0:
256,192,48599,1,2,0:0:0:0:
256,192,48833,1,0,0:0:0:0:
256,192,49067,1,2,0:0:0:0:
256,192,49185,1,0,0:0:0:0:
256,192,49419,1,0,0:0:0:0:
256,192,49536,1,2,0:0:0:0:
256,192,49771,1,0,0:0:0:0:
256,192,50005,1,2,0:0:0:0:
256,192,50122,1,0,0:0:0:0:
256,192,50356,1,0,0:0:0:0:
256,192,50474,1,2,0:0:0:0:
256,192,50591,1,2,0:0:0:0:
256,192,50708,1,0,0:0:0:0:
256,192,50942,1,2,0:0:0:0:
256,192,51177,1,0,0:0:0:0:
256,192,51411,1,2,0:0:0:0:
256,192,51646,1,0,0:0:0:0:
256,192,51704,1,0,0:0:0:0:
256,192,51763,1,0,0:0:0:0:
256,192,51997,1,0,0:0:0:0:
256,192,52056,1,0,0:0:0:0:
256,192,52114,1,0,0:0:0:0:
256,192,52349,1,0,0:0:0:0:
256,192,52407,1,0,0:0:0:0:
256,192,52466,1,0,0:0:0:0:
256,192,52583,1,2,0:0:0:0:
256,192,52700,1,0,0:0:0:0:
256,192,52935,1,2,0:0:0:0:
256,192,53052,1,0,0:0:0:0:
256,192,53169,1,2,0:0:0:0:
256,192,53286,1,0,0:0:0:0:
256,192,53403,1,0,0:0:0:0:
256,192,53521,1,6,0:0:0:0:
256,192,53872,1,6,0:0:0:0:
256,192,54224,1,6,0:0:0:0:
256,192,54575,1,6,0:0:0:0:
256,192,54927,1,0,0:0:0:0:
256,192,55396,1,0,0:0:0:0:
256,192,55513,1,2,0:0:0:0:
256,192,55571,1,2,0:0:0:0:
256,192,55630,1,2,0:0:0:0:
256,192,55747,1,0,0:0:0:0:
256,192,55864,1,0,0:0:0:0:
256,192,55923,1,0,0:0:0:0:
256,192,55981,1,0,0:0:0:0:
256,192,56099,1,2,0:0:0:0:
256,192,56216,1,2,0:0:0:0:
256,192,56274,1,2,0:0:0:0:
256,192,56333,1,2,0:0:0:0:
256,192,56450,1,0,0:0:0:0:
256,192,56509,1,0,0:0:0:0:
256,192,56567,1,0,0:0:0:0:
256,192,56685,1,0,0:0:0:0:
256,192,56802,1,2,0:0:0:0:
256,192,57036,1,0,0:0:0:0:
256,192,57271,1,0,0:0:0:0:
256,192,57388,1,2,0:0:0:0:
256,192,57446,1,2,0:0:0:0:
256,192,57505,1,2,0:0:0:0:
256,192,57622,1,0,0:0:0:0:
256,192,57739,1,0,0:0:0:0:
256,192,57798,1,0,0:0:0:0:
256,192,57856,1,0,0:0:0:0:
256,192,57974,1,2,0:0:0:0:
256,192,58091,1,0,0:0:0:0:
256,192,58149,1,0,0:0:0:0:
256,192,58208,1,0,0:0:0:0:
256,192,58325,1,2,0:0:0:0:
256,192,58442,1,2,0:0:0:0:
256,192,58560,1,0,0:0:0:0:
256,192,58677,1,2,0:0:0:0:
256,192,58735,1,2,0:0:0:0:
256,192,58794,1,2,0:0:0:0:
256,192,58911,1,0,0:0:0:0:
256,192,59028,1,0,0:0:0:0:
256,192,59146,1,2,0:0:0:0:
256,192,59263,1,0,0:0:0:0:
256,192,59380,1,2,0:0:0:0:
256,192,59438,1,2,0:0:0:0:
256,192,59497,1,2,0:0:0:0:
256,192,59614,1,0,0:0:0:0:
256,192,59731,1,0,0:0:0:0:
256,192,59849,1,2,0:0:0:0:
256,192,59966,1,2,0:0:0:0:
256,192,60024,1,2,0:0:0:0:
256,192,60083,1,0,0:0:0:0:
256,192,60200,1,0,0:0:0:0:
256,192,60317,1,2,0:0:0:0:
256,192,60435,1,0,0:0:0:0:
256,192,60493,1,0,0:0:0:0:
256,192,60552,1,0,0:0:0:0:
256,192,60610,1,0,0:0:0:0:
256,192,60669,1,0,0:0:0:0:
256,192,60786,1,2,0:0:0:0:
256,192,60903,1,2,0:0:0:0:
256,192,61021,1,0,0:0:0:0:
256,192,61489,1,0,0:0:0:0:
256,192,61958,1,2,0:0:0:0:
256,192,62427,1,0,0:0:0:0:
256,192,62544,1,0,0:0:0:0:
256,192,62661,1,2,0:0:0:0:
256,192,62778,1,2,0:0:0:0:
256,192,62896,1,0,0:0:0:0:
256,192,62954,1,0,0:0:0:0:
256,192,63013,1,0,0:0:0:0:
256,192,63130,1,2,0:0:0:0:
256,192,63247,1,0,0:0:0:0:
256,192,63306,1,0,0:0:0:0:
256,192,63364,1,2,0:0:0:0:
256,192,63423,1,2,0:0:0:0:
256,192,63481,1,2,0:0:0:0:
256,192,63599,1,0,0:0:0:0:
256,192,63833,1,0,0:0:0:0:
256,192,64067,1,0,0:0:0:0:
256,192,64185,1,0,0:0:0:0:
256,192,64302,1,2,0:0:0:0:
256,192,64419,1,0,0:0:0:0:
256,192,64536,1,2,0:0:0:0:
256,192,64653,1,0,0:0:0:0:
256,192,64771,1,0,0:0:0:0:
256,192,64829,1,0,0:0:0:0:
256,192,64888,1,0,0:0:0:0:
256,192,65005,1,2,0:0:0:0:
256,192,65122,1,0,0:0:0:0:
256,192,65181,1,0,0:0:0:0:
256,192,65239,1,0,0:0:0:0:
256,192,65356,1,0,0:0:0:0:
256,192,65474,1,2,0:0:0:0:
256,192,65532,1,2,0:0:0:0:
256,192,65591,1,2,0:0:0:0:
256,192,65708,1,0,0:0:0:0:
256,192,65942,1,2,0:0:0:0:
256,192,66001,1,2,0:0:0:0:
256,192,66060,1,2,0:0:0:0:
256,192,66177,1,0,0:0:0:0:
256,192,66411,1,2,0:0:0:0:
256,192,66646,1,0,0:0:0:0:
256,192,66880,1,2,0:0:0:0:
256,192,66938,1,2,0:0:0:0:
256,192,66997,1,0,0:0:0:0:
256,192,67231,1,0,0:0:0:0:
256,192,67349,1,2,0:0:0:0:
256,192,67583,1,0,0:0:0:0:
256,192,67700,1,0,0:0:0:0:
256,192,67817,1,2,0:0:0:0:
256,192,67876,1,2,0:0:0:0:
256,192,67935,1,2,0:0:0:0:
256,192,67993,1,2,0:0:0:0:
256,192,68052,1,0,0:0:0:0:
256,192,68169,1,0,0:0:0:0:
256,192,68286,1,0,0:0:0:0:
256,192,68403,1,0,0:0:0:0:
256,192,68521,1,6,0:0:0:0:
256,192,68872,1,4,0:0:0:0:
256,192,69224,1,4,0:0:0:0:
256,192,69575,1,4,0:0:0:0:
256,192,69927,1,6,0:0:0:0:
256,192,70161,1,0,0:0:0:0:
256,192,70396,1,2,0:0:0:0:
256,192,70513,1,2,0:0:0:0:
256,192,70571,1,2,0:0:0:0:
256,192,70630,1,2,0:0:0:0:
256,192,70747,1,0,0:0:0:0:
256,192,70864,1,0,0:0:0:0:
256,192,70981,1,0,0:0:0:0:
256,192,71099,1,2,0:0:0:0:
256,192,71216,1,2,0:0:0:0:
256,192,71274,1,2,0:0:0:0:
256,192,71333,1,2,0:0:0:0:
256,192,71450,1,0,0:0:0:0:
256,192,71567,1,0,0:0:0:0:
256,192,71685,1,0,0:0:0:0:
256,192,71802,1,2,0:0:0:0:
256,192,71860,1,2,0:0:0:0:
256,192,71919,1,2,0:0:0:0:
256,192,72036,1,0,0:0:0:0:
256,192,72153,1,0,0:0:0:0:
256,192,72271,1,2,0:0:0:0:
256,192,72388,1,2,0:0:0:0:
256,192,72446,1,2,0:0:0:0:
256,192,72505,1,2,0:0:0:0:
256,192,72622,1,0,0:0:0:0:
256,192,72739,1,0,0:0:0:0:
256,192,72798,1,0,0:0:0:0:
256,192,72856,1,0,0:0:0:0:
256,192,72974,1,2,0:0:0:0:
256,192,73091,1,2,0:0:0:0:
256,192,73149,1,2,0:0:0:0:
256,192,73208,1,2,0:0:0:0:
256,192,73325,1,0,0:0:0:0:
256,192,73442,1,0,0:0:0:0:
256,192,73560,1,0,0:0:0:0:
256,192,73677,1,2,0:0:0:0:
256,192,73735,1,2,0:0:0:0:
256,192,73794,1,2,0:0:0:0:
256,192,73911,1,0,0:0:0:0:
256,192,74028,1,0,0:0:0:0:
256,192,74146,1,0,0:0:0:0:
256,192,74263,1,2,0:0:0:0:
256,192,74321,1,2,0:0:0:0:
256,192,74380,1,0,0:0:0:0:
256,192,74497,1,2,0:0:0:0:
256,192,74614,1,0,0:0:0:0:
256,192,74731,1,0,0:0:0:0:
256,192,74849,1,2,0:0:0:0:
256,192,74966,1,2,0:0:0:0:
256,192,75083,1,0,0:0:0:0:
256,192,75200,1,2,0:0:0:0:
256,192,75317,1,0,0:0:0:0:
256,192,75435,1,2,0:0:0:0:
256,192,75552,1,0,0:0:0:0:
256,192,75610,1,0,0:0:0:0:
256,192,75669,1,2,0:0:0:0:
256,192,75728,1,2,0:0:0:0:
256,192,75786,1,2,0:0:0:0:
256,192,75845,1,2,0:0:0:0:
256,192,75903,1,2,0:0:0:0:
256,192,75962,1,2,0:0:0:0:
256,192,76021,1,0,0:0:0:0:
256,192,76489,1,0,0:0:0:0:
256,192,76958,1,0,0:0:0:0:
256,192,77310,1,0,0:0:0:0:
256,192,77427,1,2,0:0:0:0:
256,192,77544,1,2,0:0:0:0:
256,192,77661,1,2,0:0:0:0:
256,192,77778,1,2,0:0:0:0:
256,192,77896,1,0,0:0:0:0:
256,192,77954,1,0,0:0:0:0:
256,192,78013,1,0,0:0:0:0:
256,192,78130,1,0,0:0:0:0:
256,192,78247,1,2,0:0:0:0:
256,192,78306,1,2,0:0:0:0:
256,192,78364,1,2,0:0:0:0:
256,192,78481,1,0,0:0:0:0:
256,192,78599,1,2,0:0:0:0:
256,192,78833,1,0,0:0:0:0:
256,192,79067,1,2,0:0:0:0:
256,192,79126,1,2,0:0:0:0:
256,192,79185,1,2,0:0:0:0:
256,192,79302,1,0,0:0:0:0:
256,192,79419,1,0,0:0:0:0:
256,192,79536,1,0,0:0:0:0:
256,192,79653,1,0,0:0:0:0:
256,192,79771,1,2,0:0:0:0:
256,192,79829,1,2,0:0:0:0:
256,192,79888,1,2,0:0:0:0:
256,192,80005,1,0,0:0:0:0:
256,192,80122,1,2,0:0:0:0:
256,192,80181,1,2,0:0:0:0:
256,192,80239,1,2,0:0:0:0:
256,192,80356,1,2,0:0:0:0:
256,192,80474,1,0,0:0:0:0:
256,192,80708,1,0,0:0:0:0:
256,192,80825,1,0,0:0:0:0:
256,192,80884,1,0,0:0:0:0:
256,192,80942,1,2,0:0:0:0:
256,192,81177,1,0,0:0:0:0:
256,192,81411,1,2,0:0:0:0:
256,192,81646,1,0,0:0:0:0:
256,192,81704,1,0,0:0:0:0:
256,192,81763,1,0,0:0:0:0:
256,192,81997,1,2,0:0:0:0:
256,192,82056,1,2,0:0:0:0:
256,192,82114,1,0,0:0:0:0:
256,192,82349,1,2,0:0:0:0:
256,192,82583,1,0,0:0:0:0:
256,192,82817,1,2,0:0:0:0:
256,192,82935,1,0,0:0:0:0:
256,192,83052,1,2,0:0:0:0:
256,192,83169,1,0,0:0:0:0:
256,192,83286,1,2,0:0:0:0:
256,192,83345,1,2,0:0:0:0:
256,192,83403,1,2,0:0:0:0:
256,192,83521,2,0,L|256:96,15,70
256,192,85396,1,0,0:0:0:0:
256,192,86333,1,0,0:0:0:0:
256,192,86685,1,2,0:0:0:0:
256,192,87036,1,0,0:0:0:0:
256,192,87271,1,2,0:0:0:0:
256,192,88208,1,0,0:0:0:0:
256,192,88560,1,2,0:0:0:0:
256,192,88911,1,0,0:0:0:0:
256,192,89146,1,0,0:0:0:0:
256,192,89497,1,2,0:0:0:0:
256,192,89849,1,2,0:0:0:0:
256,192,90083,1,0,0:0:0:0:
256,192,90786,1,2,0:0:0:0:
256,192,91021,1,0,0:0:0:0:
256,192,91372,1,2,0:0:0:0:
256,192,91724,1,2,0:0:0:0:
256,192,91958,1,0,0:0:0:0:
256,192,92427,1,2,0:0:0:0:
256,192,92661,1,2,0:0:0:0:
256,192,92896,1,0,0:0:0:0:
256,192,93130,1,2,0:0:0:0:
256,192,93364,1,0,0:0:0:0:
256,192,93481,1,0,0:0:0:0:
256,192,93599,1,2,0:0:0:0:
256,192,93833,1,0,0:0:0:0:
256,192,94067,1,2,0:0:0:0:
256,192,94185,1,0,0:0:0:0:
256,192,94419,1,0,0:0:0:0:
256,192,94536,1,2,0:0:0:0:
256,192,94771,1,0,0:0:0:0:
256,192,95005,1,2,0:0:0:0:
256,192,95122,1,0,0:0:0:0:
256,192,95356,1,0,0:0:0:0:
256,192,95474,1,2,0:0:0:0:
256,192,95591,1,2,0:0:0:0:
256,192,95708,1,0,0:0:0:0:
256,192,95942,1,2,0:0:0:0:
256,192,96177,1,0,0:0:0:0:
256,192,96411,1,0,0:0:0:0:
256,192,96646,1,2,0:0:0:0:
256,192,96704,1,2,0:0:0:0:
256,192,96763,1,2,0:0:0:0:
256,192,96997,1,2,0:0:0:0:
256,192,97056,1,2,0:0:0:0:
256,192,97114,1,2,0:0:0:0:
256,192,97349,1,0,0:0:0:0:
256,192,97407,1,0,0:0:0:0:
256,192,97466,1,0,0:0:0:0:
256,192,97700,1,2,0:0:0:0:
256,192,97817,1,0,0:0:0:0:
256,192,97935,1,0,0:0:0:0:
256,192,98052,1,2,0:0:0:0:
256,192,98169,1,2,0:0:0:0:
256,192,98286,1,0,0:0:0:0:
256,192,98403,1,0,0:0:0:0:
256,192,98521,1,6,0:0:0:0:
256,192,98872,1,6,0:0:0:0:
256,192,99224,1,4,0:0:0:0:
256,192,99575,1,6,0:0:0:0:
256,192,99927,1,4,0:0:0:0:
256,192,100396,1,0,0:0:0:0:
256,192,100747,1,0,0:0:0:0:
256,192,101099,1,0,0:0:0:0:
256,192,101450,1,0,0:0:0:0:
256,192,101802,12,0,102271,0:0:0:0:
256,192,102974,5,0,0:0:0:0:
256,192,103208,1,0,0:0:0:0:
256,192,103677,1,2,0:0:0:0:
256,192,104146,5,0,0:0:0:0:
256,192,104263,1,2,0:0:0:0:
256,192,104321,1,2,0:0:0:0:
256,192,104380,1,2,0:0:0:0:
256,192,104497,1,0,0:0:0:0:
256,192,104614,1,0,0:0:0:0:
256,192,104673,1,0,0:0:0:0:
256,192,104731,1,0,0:0:0:0:
256,192,104849,1,2,0:0:0:0:
256,192,104966,1,2,0:0:0:0:
256,192,105024,1,2,0:0:0:0:
256,192,105083,1,2,0:0:0:0:
256,192,105200,1,0,0:0:0:0:
256,192,105259,1,0,0:0:0:0:
256,192,105317,1,0,0:0:0:0:
256,192,105435,1,0,0:0:0:0:
256,192,105552,1,2,0:0:0:0:
256,192,105786,1,0,0:0:0:0:
256,192,106021,1,0,0:0:0:0:
256,192,106138,1,2,0:0:0:0:
256,192,106196,1,2,0:0:0:0:
256,192,106255,1,2,0:0:0:0:
256,192,106372,1,0,0:0:0:0:
256,192,106489,1,0,0:0:0:0:
256,192,106548,1,0,0:0:0:0:
256,192,106606,1,0,0:0:0:0:
256,192,106724,1,2,0:0:0:0:
256,192,106841,1,0,0:0:0:0:
256,192,106899,1,0,0:0:0:0:
256,192,106958,1,0,0:0:0:0:
256,192,107075,1,2,0:0:0:0:
256,192,107192,1,2,0:0:0:0:
256,192,107310,1,0,0:0:0:0:
256,192,107427,1,2,0:0:0:0:
256,192,107485,1,2,0:0:0:0:
256,192,107544,1,2,0:0:0:0:
256,192,107661,1,0,0:0:0:0:
256,192,107778,1,0,0:0:0:0:
256,192,107896,1,2,0:0:0:0:
256,192,108013,1,0,0:0:0:0:
256,192,108130,1,2,0:0:0:0:
256,192,108188,1,2,0:0:0:0:
256,192,108247,1,2,0:0:0:0:
256,192,108364,1,0,0:0:0:0:
256,192,108481,1,0,0:0:0:0:
256,192,108599,1,2,0:0:0:0:
256,192,108716,1,2,0:0:0:0:
256,192,108774,1,2,0:0:0:0:
256,192,108833,1,0,0:0:0:0:
256,192,108950,1,0,0:0:0:0:
256,192,109067,1,2,0:0:0:0:
256,192,109185,1,0,0:0:0:0:
256,192,109243,1,0,0:0:0:0:
256,192,109302,1,0,0:0:0:0:
256,192,109360,1,0,0:0:0:0:
256,192,109419,1,0,0:0:0:0:
256,192,109536,1,2,0:0:0:0:
256,192,109653,1,2,0:0:0:0:
256,192,109771,1,0,0:0:0:0:
256,192,110239,1,0,0:0:0:0:
256,192,110708,1,2,0:0:0:0:
256,192,111177,1,0,0:0:0:0:
256,192,111294,1,0,0:0:0:0:
256,192,111411,1,2,0:0:0:0:
256,192,111528,1,2,0:0:0:0:
256,192,111646,1,0,0:0:0:0:
256,192,111704,1,0,0:0:0:0:
256,192,111763,1,0,0:0:0:0:
256,192,111880,1,2,0:0:0:0:
256,192,111997,1,0,0:0:0:0:
256,192,112056,1,0,0:0:0:0:
256,192,112114,1,2,0:0:0:0:
256,192,112173,1,2,0:0:0:0:
256,192,112231,1,2,0:0:0:0:
256,192,112349,1,0,0:0:0:0:
256,192,112583,1,0,0:0:0:0:
256,192,112817,1,0,0:0:0:0:
256,192,112935,1,0,0:0:0:0:
256,192,113052,1,2,0:0:0:0:
256,192,113169,1,0,0:0:0:0:
256,192,113286,1,2,0:0:0:0:
256,192,113403,1,0,0:0:0:0:
256,192,113521,1,0,0:0:0:0:
256,192,113579,1,0,0:0:0:0:
256,192,113638,1,0,0:0:0:0:
256,192,113755,1,2,0:0:0:0:
256,192,113872,1,0,0:0:0:0:
256,192,113931,1,0,0:0:0:0:
256,192,113989,1,0,0:0:0:0:
256,192,114106,1,0,0:0:0:0:
256,192,114224,1,2,0:0:0:0:
256,192,114282,1,2,0:0:0:0:
256,192,114341,1,2,0:0:0:0:
256,192,114458,1,0,0:0:0:0:
256,192,114692,1,2,0:0:0:0:
256,192,114751,1,2,0:0:0:0:
256,192,114810,1,2,0:0:0:0:
256,192,114927,1,0,0:0:0:0:
256,192,115161,1,2,0:0:0:0:
256,192,115396,1,0,0:0:0:0:
256,192,115630,1,2,0:0:0:0:
256,192,115688,1,2,0:0:0:0:
256,192,115747,1,0,0:0:0:0:
256,192,115981,1,0,0:0:0:0:
256,192,116099,1,2,0:0:0:0:
256,192,116333,1,0,0:0:0:0:
256,192,116450,1,0,0:0:0:0:
256,192,116567,1,2,0:0:0:0:
256,192,116626,1,2,0:0:0:0:
256,192,116685,1,2,0:0:0:0:
256,192,116743,1,2,0:0:0:0:
256,192,116802,1,0,0:0:0:0:
256,192,116919,1,0,0:0:0:0:
256,192,117036,1,0,0:0:0:0:
256,192,117153,1,0,0:0:0:0:
256,192,117271,1,6,0:0:0:0:
256,192,117622,1,4,0:0:0:0:
256,192,117974,1,4,0:0:0:0:
256,192,118325,1,4,0:0:0:0:
256,192,118677,1,6,0:0:0:0:
256,192,118911,1,0,0:0:0:0:
256,192,119146,1,2,0:0:0:0:
256,192,119263,1,2,0:0:0:0:
256,192,119321,1,2,0:0:0:0:
256,192,119380,1,2,0:0:0:0:
256,192,119497,1,0,0:0:0:0:
256,192,119614,1,0,0:0:0:0:
256,192,119731,1,0,0:0:0:0:
256,192,119849,1,2,0:0:0:0:
256,192,119966,1,2,0:0:0:0:
256,192,120024,1,2,0:0:0:0:
256,192,120083,1,2,0:0:0:0:
256,192,120200,1,0,0:0:0:0:
256,192,120317,1,0,0:0:0:0:
256,192,120435,1,0,0:0:0:0:
256,192,120552,1,2,0:0:0:0:
256,192,120610,1,2,0:0:0:0:
256,192,120669,1,2,0:0:0:0:
256,192,120786,1,0,0:0:0:0:
256,192,120903,1,0,0:0:0:0:
256,192,121021,1,2,0:0:0:0:
256,192,121138,1,2,0:0:0:0:
256,192,121196,1,2,0:0:0:0:
256,192,121255,1,2,0:0:0:0:
256,192,121372,1,0,0:0:0:0:
256,192,121489,1,0,0:0:0:0:
256,192,121548,1,0,0:0:0:0:
256,192,121606,1,0,0:0:0:0:
256,192,121724,1,2,0:0:0:0:
256,192,121841,1,2,0:0:0:0:
256,192,121899,1,2,0:0:0:0:
256,192,121958,1,2,0:0:0:0:
256,192,122075,1,0,0:0:0:0:
256,192,122192,1,0,0:0:0:0:
256,192,122310,1,0,0:0:0:0:
256,192,122427,1,2,0:0:0:0:
256,192,122485,1,2,0:0:0:0:
256,192,122544,1,2,0:0:0:0:
256,192,122661,1,0,0:0:0:0:
256,192,122778,1,0,0:0:0:0:
256,192,122896,1,0,0:0:0:0:
256,192,123013,1,2,0:0:0:0:
256,192,123071,1,2,0:0:0:0:
256,192,123130,1,0,0:0:0:0:
256,192,123247,1,2,0:0:0:0:
256,192,123364,1,0,0:0:0:0:
256,192,123481,1,0,0:0:0:0:
256,192,123599,1,2,0:0:0:0:
256,192,123716,1,2,0:0:0:0:
256,192,123833,1,0,0:0:0:0:
256,192,123950,1,2,0:0:0:0:
256,192,124067,1,0,0:0:0:0:
256,192,124185,1,2,0:0:0:0:
256,192,124302,1,0,0:0:0:0:
256,192,124360,1,0,0:0:0:0:
256,192,124419,1,2,0:0:0:0:
256,192,124478,1,2,0:0:0:0:
256,192,124536,1,2,0:0:0:0:
256,192,124595,1,2,0:0:0:0:
256,192,124653,1,2,0:0:0:0:
256,192,124712,1,2,0:0:0:0:
256,192,124771,1,0,0:0:0:0:
256,192,125239,1,0,0:0:0:0:
256,192,125708,1,0,0:0:0:0:
256,192,126060,1,0,0:0:0:0:
256,192,126177,1,2,0:0:0:0:
256,192,126294,1,2,0:0:0:0:
256,192,126411,1,2,0:0:0:0:
256,192,126528,1,2,0:0:0:0:
256,192,126646,1,0,0:0:0:0:
256,192,126704,1,0,0:0:0:0:
256,192,126763,1,0,0:0:0:0:
256,192,126880,1,0,0:0:0:0:
256,192,126997,1,2,0:0:0:0:
256,192,127056,1,2,0:0:0:0:
256,192,127114,1,2,0:0:0:0:
256,192,127231,1,0,0:0:0:0:
256,192,127349,1,2,0:0:0:0:
256,192,127583,1,0,0:0:0:0:
256,192,127817,1,2,0:0:0:0:
256,192,127876,1,2,0:0:0:0:
256,192,127935,1,2,0:0:0:0:
256,192,128052,1,0,0:0:0:0:
256,192,128169,1,0,0:0:0:0:
256,192,128286,1,0,0:0:0:0:
256,192,128403,1,0,0:0:0:0:
256,192,128521,1,2,0:0:0:0:
256,192,128579,1,2,0:0:0:0:
256,192,128638,1,2,0:0:0:0:
256,192,128755,1,0,0:0:0:0:
256,192,128872,1,2,0:0:0:0:
256,192,128931,1,2,0:0:0:0:
256,192,128989,1,2,0:0:0:0:
256,192,129106,1,2,0:0:0:0:
256,192,129224,1,0,0:0:0:0:
256,192,129458,1,0,0:0:0:0:
256,192,129575,1,0,0:0:0:0:
256,192,129634,1,0,0:0:0:0:
256,192,129692,1,2,0:0:0:0:
256,192,129927,1,0,0:0:0:0:
256,192,130161,1,2,0:0:0:0:
256,192,130396,1,0,0:0:0:0:
256,192,130630,1,0,0:0:0:0:
256,192,130688,1,0,0:0:0:0:
256,192,130747,1,2,0:0:0:0:
256,192,130864,1,0,0:0:0:0:
256,192,131099,1,2,0:0:0:0:
256,192,131157,1,2,0:0:0:0:
256,192,131216,1,2,0:0:0:0:
256,192,131333,1,0,0:0:0:0:
256,192,131450,1,0,0:0:0:0:
256,192,131567,1,0,0:0:0:0:
256,192,131685,1,2,0:0:0:0:
256,192,131743,1,2,0:0:0:0:
256,192,131802,1,0,0:0:0:0:
256,192,131919,1,0,0:0:0:0:
256,192,132036,1,2,0:0:0:0:
256,192,132153,1,2,0:0:0:0:
256,192,132271,1,0,0:0:0:0:
256,192,132388,1,0,0:0:0:0:
256,192,132505,1,2,0:0:0:0:
256,192,132622,1,0,0:0:0:0:
256,192,132739,1,0,0:0:0:0:
256,192,132856,1,2,0:0:0:0:
256,192,132974,1,2,0:0:0:0:
256,192,133091,1,0,0:0:0:0:
256,192,133208,1,0,0:0:0:0:
256,192,133325,1,2,0:0:0:0:
256,192,133384,1,2,0:0:0:0:
256,192,133442,1,2,0:0:0:0:
256,192,133501,1,2,0:0:0:0:
256,192,133560,1,2,0:0:0:0:
256,192,133677,1,0,0:0:0:0:
256,192,133911,1,2,0:0:0:0:
256,192,134146,1,4,0:0:0:0:
256,192,134849,1,0,0:0:0:0:
256,192,135083,1,0,0:0:0:0:
256,192,135552,1,2,0:0:0:0:
256,192,136021,1,0,0:0:0:0:
256,192,136138,1,0,0:0:0:0:
256,192,136255,1,2,0:0:0:0:
256,192,136372,1,0,0:0:0:0:
256,192,136431,1,0,0:0:0:0:
256,192,136489,1,0,0:0:0:0:
256,192,136606,1,2,0:0:0:0:
256,192,136724,1,0,0:0:0:0:
256,192,136841,1,2,0:0:0:0:
256,192,136958,1,0,0:0:0:0:
256,192,137017,1,0,0:0:0:0:
256,192,137075,1,0,0:0:0:0:
256,192,137192,1,2,0:0:0:0:
256,192,137310,1,0,0:0:0:0:
256,192,137427,1,0,0:0:0:0:
256,192,137544,1,2,0:0:0:0:
256,192,137661,1,2,0:0:0:0:
256,192,137778,1,2,0:0:0:0:
256,192,137896,1,0,0:0:0:0:
256,192,138013,1,0,0:0:0:0:
256,192,138130,1,2,0:0:0:0:
256,192,138247,1,0,0:0:0:0:
256,192,138364,1,0,0:0:0:0:
256,192,138481,1,2,0:0:0:0:
256,192,138599,1,0,0:0:0:0:
256,192,138716,1,0,0:0:0:0:
256,192,138833,1,2,0:0:0:0:
256,192,138950,1,0,0:0:0:0:
256,192,139067,1,0,0:0:0:0:
256,192,139185,1,2,0:0:0:0:
256,192,139302,1,0,0:0:0:0:
256,192,139419,1,0,0:0:0:0:
256,192,139536,1,2,0:0:0:0:
256,192,139653,1,2,0:0:0:0:
256,192,139771,1,0,0:0:0:0:
256,192,139829,1,0,0:0:0:0:
256,192,139888,1,0,0:0:0:0:
256,192,139946,1,0,0:0:0:0:
256,192,140063,1,2,0:0:0:0:
256,192,140122,1,2,0:0:0:0:
256,192,140181,1,0,0:0:0:0:
256,192,140239,1,0,0:0:0:0:
256,192,140356,1,2,0:0:0:0:
256,192,140474,1,0,0:0:0:0:
256,192,140532,1,0,0:0:0:0:
256,192,140591,1,0,0:0:0:0:
256,192,140649,1,0,0:0:0:0:
256,192,140825,1,2,0:0:0:0:
256,192,140884,1,0,0:0:0:0:
256,192,140942,1,0,0:0:0:0:
256,192,141001,1,0,0:0:0:0:
256,192,141060,1,0,0:0:0:0:
256,192,141177,1,2,0:0:0:0:
256,192,141294,1,0,0:0:0:0:
256,192,141528,1,4,0:0:0:0:
