osu file format v12

[General]
AudioFilename: Belgium's Hata Futte Parade.mp3
AudioLeadIn: 0
PreviewTime: 12358
Countdown: 0
SampleSet: Soft
StackLeniency: 0.7
Mode: 0
LetterboxInBreaks: 0

[Editor]
DistanceSpacing: 0.8
BeatDivisor: 4
GridSize: 8

[Metadata]
Title:Hata Futte Parade
TitleUnicode:
Artist:Irobun
ArtistUnicode:
Creator:sasuke24684
Version:Fun Parade
Source:NicoNicoVideo
Tags:axis powers world series hetalia belgium animelover1432 celeste76 Mint Bunny
BeatmapID:95719
BeatmapSetID:28747

[Difficulty]
HPDrainRate:3
CircleSize:3
OverallDifficulty:2
ApproachRate:3
SliderMultiplier:1.4
SliderTickRate:1

[Events]
//Background and Video events
0,0,"2.png",0,0
Video,0,"Belgium Hata Futte Parade.flv"
//Break Periods
2,34032,47507
//Storyboard Layer 0 (Background)
//Storyboard Layer 1 (Fail)
//Storyboard Layer 2 (Pass)
//Storyboard Layer 3 (Foreground)
//Storyboard Sound Samples
//Background Colour Transformations
3,100,163,162,255

[TimingPoints]
4978,458.015267175572,4,2,0,50,1,0
12291,-100,4,2,0,50,0,1
33817,-100,4,2,0,50,0,0
122214,-100,4,2,0,50,0,1
151526,-100,4,2,0,50,0,0

[Colours]
Combo1 : 240,5,5
Combo2 : 128,128,128
Combo3 : 252,233,3

[HitObjects]
200,40,4977,2,0,B|112:72|40:128|40:232|112:296|200:352,1,420,4|0,0:0|0:0,0:0:0:0:
272,272,6810,1,2,0:0:0:0:
328,176,7268,1,0,0:0:0:0:
384,272,7726,1,2,0:0:0:0:
328,176,8184,1,4,0:0:0:0:
240,112,8642,6,0,B|184:160|160:232|184:304|240:360,1,280,4|0,0:0|0:0,0:0:0:0:
256,192,10016,12,4,11848,0:0:0:0:
80,56,12306,5,4,0:0:0:0:
136,152,12764,1,8,0:0:0:0:
200,56,13222,1,0,0:0:0:0:
248,152,13680,1,8,0:0:0:0:
296,56,14138,6,0,B|448:56,1,140,0|8,0:0|0:0,0:0:0:0:
392,160,15054,1,0,0:0:0:0:
448,256,15512,1,10,0:0:0:0:
336,256,15970,6,0,B|240:256,2,70,0|0|8,0:0|0:0|0:0,0:0:0:0:
256,176,16886,2,0,B|168:176,2,70,0|0|8,0:0|0:0|0:0,0:0:0:0:
232,64,17802,2,0,B|120:112|104:152|168:128|168:128|64:200|64:200,1,280
128,296,19176,1,8,0:0:0:0:
200,208,19634,5,4,0:0:0:0:
272,120,20092,1,8,0:0:0:0:
344,208,20550,1,0,0:0:0:0:
272,296,21008,1,8,0:0:0:0:
160,280,21466,6,0,B|16:280,2,140,0|8|0,0:0|0:0|0:0,0:0:0:0:
160,280,22840,1,8,0:0:0:0:
240,200,23298,6,0,B|336:200,2,70,0|0|8,0:0|0:0|0:0,0:0:0:0:
304,296,24214,2,0,B|392:296,2,70,0|0|8,0:0|0:0|0:0,0:0:0:0:
352,192,25130,2,0,B|280:152|216:144|152:152|80:192,1,280
80,192,26504,1,12,0:0:0:0:
72,304,26962,5,2,0:0:0:0:
152,224,27420,1,8,0:0:0:0:
224,304,27878,1,2,0:0:0:0:
152,224,28336,1,8,0:0:0:0:
224,136,28794,1,2,0:0:0:0:
72,136,29252,1,8,0:0:0:0:
152,224,29710,1,2,0:0:0:0:
264,232,30168,6,0,B|312:256|352:256|400:232,1,140,8|4,0:0|0:0,0:0:0:0:
328,144,31084,2,0,B|376:120|416:120|464:144,1,140,8|0,0:0|0:0,0:0:0:0:
464,256,32000,1,8,0:0:0:0:
408,256,32229,1,0,0:0:0:0:
352,256,32458,1,4,0:0:0:0:
256,192,32916,2,0,B|232:256|192:272|152:280|112:272|64:256|40:184,1,280,0|4,0:0|0:0,0:0:0:0:
440,48,48947,6,0,B|296:48,1,140,4|8,0:0|0:0,0:0:0:0:
296,160,49863,2,0,B|440:160,1,140,0|8,0:0|0:0,0:0:0:0:
368,248,50779,1,2,0:0:0:0:
368,248,51237,1,2,0:0:0:0:
256,248,51695,2,0,B|104:248,1,140
184,336,52611,5,4,0:0:0:0:
72,336,53069,1,8,0:0:0:0:
72,224,53527,1,0,0:0:0:0:
184,224,53985,1,8,0:0:0:0:
184,224,54443,2,0,B|200:184|240:176|280:184|296:224,1,140,2|0,0:0|0:0,0:0:0:0:
296,336,55359,2,0,B|281:372|241:380|201:372|185:332,1,140,2|0,0:0|0:0,0:0:0:0:
144,224,56275,5,4,0:0:0:0:
192,120,56733,1,8,0:0:0:0:
240,224,57191,1,0,0:0:0:0:
192,320,57649,1,8,0:0:0:0:
304,328,58107,2,0,B|336:264|336:264,1,70
392,256,58565,2,0,B|425:175,1,70,8|0,0:0|0:0,0:0:0:0:
384,144,59023,2,0,B|360:104|320:96|280:104|256:144,1,140,0|8,0:0|0:0,0:0:0:0:
160,96,59939,5,0,0:0:0:0:
272,96,60397,1,8,0:0:0:0:
216,192,60855,1,0,0:0:0:0:
272,96,61313,1,8,0:0:0:0:
160,96,61771,2,0,B|168:64|216:48|264:64|272:96,2,140,2|8|4,0:0|0:0|0:0,0:0:0:0:
40,288,63603,6,0,B|120:160,1,140,4|8,0:0|0:0,0:0:0:0:
224,184,64519,2,0,B|152:304,1,140,0|8,0:0|0:0,0:0:0:0:
264,304,65436,2,0,B|344:168,1,140,0|8,0:0|0:0,0:0:0:0:
448,184,66352,2,8,B|376:304,1,140,0|8,0:0|0:0,0:0:0:0:
264,312,67268,6,0,B|184:296|128:216|176:240|208:288|40:152|40:152,1,280
72,104,68413,1,0,0:0:0:0:
120,80,68642,1,8,0:0:0:0:
224,120,69100,1,4,0:0:0:0:
400,264,69558,2,0,B|400:112,1,140,8|4,0:0|0:0,0:0:0:0:
400,124,70245,1,0,0:0:0:0:
400,124,70474,1,4,0:0:0:0:
296,88,70932,5,4,0:0:0:0:
192,120,71390,1,2,0:0:0:0:
88,88,71848,1,0,0:0:0:0:
192,120,72306,1,2,0:0:0:0:
112,200,72764,2,0,B|192:200,2,70,0|0|2,0:0|0:0|0:0,0:0:0:0:
168,296,73680,2,0,B|240:296,2,70,0|0|2,0:0|0:0|0:0,0:0:0:0:
56,296,74596,5,4,0:0:0:0:
136,216,75054,2,0,B|288:216,1,140,2|0,0:0|0:0,0:0:0:0:
216,120,75970,2,0,B|72:120,1,140,2|0,0:0|0:0,0:0:0:0:
48,224,76886,1,2,0:0:0:0:
136,296,77344,1,0,0:0:0:0:
216,224,77802,1,2,0:0:0:0:
296,296,78260,6,0,B|440:296,1,140,4|2,0:0|0:0,0:0:0:0:
464,192,79176,2,0,B|320:192,1,140,0|2,0:0|0:0,0:0:0:0:
216,224,80092,1,0,0:0:0:0:
176,256,80321,1,0,0:0:0:0:
128,288,80550,1,2,0:0:0:0:
56,208,81008,2,0,B|11:183|1:128|35:89,1,140
144,104,81924,5,4,0:0:0:0:
192,208,82382,1,2,0:0:0:0:
264,120,82840,2,0,B|328:144|360:176|368:240,2,140
232,224,84214,1,2,0:0:0:0:
152,304,84672,1,0,0:0:0:0:
104,224,85130,2,0,B|128:200|168:184|208:200|232:224,1,140,0|4,0:0|0:0,0:0:0:0:
256,192,86046,12,0,87420,0:0:0:0:
256,192,87878,5,2,0:0:0:0:
256,192,88336,1,4,0:0:0:0:
256,192,88794,12,0,92000,0:0:0:0:
184,208,92916,6,0,B|160:176|128:144|160:96|184:72,1,140,8|0,0:0|0:0,0:0:0:0:
280,112,93832,1,8,0:0:0:0:
352,200,94290,2,0,B|264:200,2,70,2|0|8,0:0|0:0|0:0,0:0:0:0:
288,288,95207,2,0,B|208:288,2,70,2|0|8,0:0|0:0|0:0,0:0:0:0:
392,256,96123,1,4,0:0:0:0:
392,256,96581,6,0,B|464:208|392:128,1,140,4|2,0:0|0:0,0:0:0:0:
344,136,97268,1,0,0:0:0:0:
320,88,97497,1,8,0:0:0:0:
216,128,97955,2,0,B|286:128,2,70,2|0|8,0:0|0:0|0:0,0:0:0:0:
128,56,98871,2,0,B|40:56,2,70,2|0|8,0:0|0:0|0:0,0:0:0:0:
240,56,99787,1,6,0:0:0:0:
320,136,100245,6,0,B|168:136,1,140,4|2,0:0|0:0,0:0:0:0:
72,176,101161,1,8,0:0:0:0:
160,240,101619,2,0,B|248:240,2,70,2|0|8,0:0|0:0|0:0,0:0:0:0:
232,320,102535,2,0,B|304:320,1,70,2|0,0:0|0:0,0:0:0:0:
360,320,102993,2,0,B|360:248,1,70,8|0,0:0|0:0,0:0:0:0:
360,192,103451,1,2,0:0:0:0:
440,112,103909,6,0,B|296:112,1,140,4|2,0:0|0:0,0:0:0:0:
304,112,104596,1,0,0:0:0:0:
304,112,104825,1,8,0:0:0:0:
192,80,105283,2,0,B|120:80,2,70,2|0|8,0:0|0:0|0:0,0:0:0:0:
112,160,106199,2,0,B|64:200|64:240|104:280,1,140,0|8,0:0|0:0,0:0:0:0:
200,328,107115,1,2,0:0:0:0:
312,328,107573,5,4,0:0:0:0:
200,328,108031,1,2,0:0:0:0:
312,328,108489,2,0,B|312:256,2,70,8|0|2,0:0|0:0|0:0,0:0:0:0:
312,216,109405,2,0,B|280:184|216:184|184:216,1,140,8|0,0:0|0:0,0:0:0:0:
104,136,110321,1,8,0:0:0:0:
192,64,110779,1,2,0:0:0:0:
304,64,111237,6,4,B|304:224,1,140,0|2,0:0|0:0,0:0:0:0:
216,272,112153,2,8,B|144:272,1,70
88,272,112611,2,0,B|8:272,1,70,2|0,0:0|0:0,0:0:0:0:
16,216,113069,5,8,0:0:0:0:
80,120,113527,1,2,0:0:0:0:
144,216,113985,1,8,0:0:0:0:
200,120,114443,1,2,0:0:0:0:
256,192,114901,12,4,116275,0:0:0:0:
256,192,116733,5,4,0:0:0:0:
184,104,117191,2,0,B|328:104,1,140,0|4,0:0|0:0,0:0:0:0:
432,128,118107,1,0,0:0:0:0:
472,232,118565,2,0,B|48:232,1,420,4|0,0:0|0:0,0:0:0:0:
256,192,120397,12,0,121771,0:0:0:0:
32,80,122229,6,4,B|176:80,1,140,0|8,0:0|0:0,0:0:0:0:
280,80,123145,2,0,B|424:80,1,140,0|8,0:0|0:0,0:0:0:0:
424,192,124061,1,0,0:0:0:0:
424,304,124519,1,8,0:0:0:0:
312,304,124977,1,0,0:0:0:0:
312,192,125436,1,8,0:0:0:0:
72,80,125894,6,0,B|224:80,1,140,0|8,0:0|0:0,0:0:0:0:
212,80,126810,1,0,0:0:0:0:
212,80,127268,1,8,0:0:0:0:
320,80,127726,2,0,B|464:80,2,140,0|8|0,0:0|0:0|0:0,0:0:0:0:
320,80,129100,1,8,0:0:0:0:
208,80,129558,5,4,0:0:0:0:
256,184,130016,1,8,0:0:0:0:
144,184,130474,1,0,0:0:0:0:
208,280,130932,1,8,0:0:0:0:
320,280,131390,2,0,B|472:280,2,140,0|8|0,0:0|0:0|0:0,0:0:0:0:
240,200,132764,1,8,0:0:0:0:
184,104,133222,6,0,B|256:104,1,70
312,104,133680,2,0,B|384:104,1,70,8|0,0:0|0:0,0:0:0:0:
408,152,134138,2,0,B|328:152,1,70
280,152,134596,2,0,B|192:152,1,70,8|0,0:0|0:0,0:0:0:0:
152,152,135054,1,0,0:0:0:0:
56,208,135512,1,8,0:0:0:0:
152,264,135970,1,0,0:0:0:0:
152,152,136428,1,8,0:0:0:0:
248,208,136886,5,4,0:0:0:0:
328,280,137344,1,8,0:0:0:0:
416,208,137802,1,4,0:0:0:0:
328,136,138260,1,8,0:0:0:0:
216,136,138718,2,0,B|72:136,2,140,4|8|4,0:0|0:0|0:0,0:0:0:0:
328,136,140092,1,8,0:0:0:0:
416,72,140550,5,0,0:0:0:0:
328,136,141008,1,8,0:0:0:0:
240,72,141466,1,0,0:0:0:0:
152,136,141924,1,8,0:0:0:0:
88,40,142382,2,0,B|32:104,3,70
42,93,143298,2,0,B|73:177,3,70
66,214,144214,6,0,B|218:214,1,140,4|8,0:0|0:0,0:0:0:0:
267,307,145130,2,0,B|107:307,1,140,4|8,0:0|0:0,0:0:0:0:
192,216,146046,2,0,B|224:176|248:168|272:176|304:216,2,140,0|8|0,0:0|0:0|0:0,0:0:0:0:
98,276,147420,1,8,0:0:0:0:
202,319,147878,6,0,B|354:319,1,140,0|8,0:0|0:0,0:0:0:0:
453,320,148794,1,0,0:0:0:0:
453,320,149023,1,0,0:0:0:0:
453,320,149252,1,8,0:0:0:0:
382,233,149710,1,0,0:0:0:0:
256,192,150168,12,0,151542,0:0:0:0:
