osu file format v9

[General]
AudioFilename: Irish Steph - Crush (feat. Eleven) [The Blisters Boyz Remix] [Official].mp3
AudioLeadIn: 0
PreviewTime: 28279
Countdown: 1
SampleSet: Normal
StackLeniency: 0.7
Mode: 0
LetterboxInBreaks: 1

[Editor]
Bookmarks: 8779,17643,28416,45734,52552,63189,65643,83098,91689,109143,118279,137643,139825,155370,157279,172552,192189
DistanceSpacing: 0.8
BeatDivisor: 4
GridSize: 8

[Metadata]
Title:Crush (The Blisters Boyz Remix)
Artist:Irish Steph feat. Eleven
Creator:Hyguys
Version:Hard
Source:
Tags:

[Difficulty]
HPDrainRate:5
CircleSize:4
OverallDifficulty:7
ApproachRate:8
SliderMultiplier:2
SliderTickRate:2

[Events]
//Background and Video events
0,0,"PRK007 - IRISH STEPH - Crush EP (1000).jpg"
//Break Periods
2,46207,52075
2,83298,91075
2,109479,117257
//Storyboard Layer 0 (Background)
//Storyboard Layer 1 (Fail)
//Storyboard Layer 2 (Pass)
//Storyboard Layer 3 (Foreground)
//Storyboard Sound Samples
//Background Colour Transformations
3,100,163,162,255

[TimingPoints]
189,545.454545454546,4,2,0,100,1,0
26916,-100,4,1,0,100,0,0
28416,-100,4,1,0,100,0,1
45734,-100,4,1,0,100,0,0
65507,-100,4,1,0,100,0,1
83098,-100,4,1,0,100,0,0
117598,-100,4,2,0,100,0,0
139689,-80,4,1,0,100,0,1
155098,-100,4,1,0,100,0,0
157143,-80,4,1,0,100,0,1
174734,-80,4,1,0,100,0,1
192189,-80,4,1,0,100,0,0

[Colours]
Combo1 : 43,149,255
Combo2 : 255,230,242
Combo3 : 108,255,108
Combo4 : 123,155,148

[HitObjects]
148,51,8916,2,0,B|206:71|208:166,2,100,2|0|8
115,124,9734,1,0
104,162,9870,1,2
163,216,10143,1,2
171,254,10279,1,0
247,276,10552,2,0,B|307:299|358:264,1,100,8|0
404,219,11098,5,2
409,179,11234,1,2
417,140,11370,2,0,B|419:108|414:84,2,50,0|0|8
338,123,11916,1,0
298,122,12052,2,0,B|232:123|194:81,1,100,2|2
124,97,12598,1,0
124,97,12734,2,0,B|84:219,1,100,8|0
47,258,13279,5,2
85,270,13416,1,0
123,279,13552,2,0,B|176:290|213:328,2,100,0|8|0
128,360,14234,1,2
202,232,14507,2,0,B|288:68,1,150,2|8
327,152,15189,2,0,B|301:206|332:258,1,100,0|2
396,201,15734,5,0
406,290,16007,2,0,B|368:338|280:328,2,100,8|0|2
106,94,16825,2,0,B|144:46|232:56,2,100,2|8|0
54,155,17643,6,0,B|107:319,1,150,2|0
118,333,18189,1,8
135,368,18325,1,8
197,317,18598,2,0,B|189:257|239:215|292:201|345:210|380:258,1,250,0|8
310,298,19552,2,0,B|304:351|376:381,1,100,0|2
472,320,20234,6,0,B|512:224|480:112,1,200,8|8
456,96,20916,1,2
424,80,21052,1,0
392,64,21189,1,0
264,264,22007,6,0,B|176:216|96:240,1,150,2|0
88,256,22552,1,8
56,280,22689,1,8
62,98,22961,2,0,B|93:55|166:55,1,100,2|0
224,80,23370,2,0,B|256:136|224:184|224:184|192:232|232:304,1,200
254,286,24052,1,0
292,298,24189,6,0,B|372:314|417:247,1,100,2|0
387,279,24598,2,0,B|399:92,1,150,8|0
396,89,25143,1,0
260,59,25416,1,8
228,83,25552,2,0,B|191:121|129:116,1,100,0|8
65,192,26098,1,0
65,192,26234,1,8
65,192,26370,1,0
365,303,27461,6,0,B|384:253,1,50,0|0
401,219,27734,2,0,B|409:160,1,50
403,129,28007,2,0,B|392:76,2,50,8|0|4
255,48,28552,6,0,B|255:112|194:112|194:112|119:112|119:192,2,200,2|8|6
329,77,29916,1,0
359,103,30052,1,0
380,137,30189,2,0,B|403:196|369:251,1,100,8|0
353,266,30598,2,0,B|289:227|196:227|133:278|132:328,1,250,0|8
70,263,31552,6,0,B|49:146,1,100,0|2
113,112,32098,2,0,B|136:225,2,100,0|8|0
257,48,32916,6,0,B|257:112|318:112|318:112|393:112|393:192,2,200,2|8|6
183,77,34280,1,0
153,103,34416,1,0
132,137,34553,2,0,B|109:196|143:251,1,100,8|0
160,263,34961,1,0
195,282,35098,6,0,B|241:296,1,50,0|0
282,293,35370,2,0,B|345:284,1,50,8|0
368,270,35643,2,0,B|400:231,1,50,0|8
425,200,35916,2,0,B|442:145,1,50
449,113,36189,2,0,B|450:60,4,50,8|0|8|0|4
449,113,37007,1,0
337,95,37279,6,0,B|321:47|257:31|185:47|178:107,2,200,2|8|6
256,120,38643,1,0
256,120,38779,1,0
256,120,38916,2,0,B|232:176|152:176,1,100,8|0
144,192,39325,2,0,B|96:208|96:272|96:272|96:336|32:352,1,200
43,348,40007,5,8
17,273,40279,2,0,B|23:132,1,100,0|2
89,130,40825,2,0,B|92:16,2,100,0|8|0
175,95,41643,6,0,B|191:47|255:31|327:47|333:107,2,200,2|8|6
256,120,43007,1,0
256,120,43143,1,0
256,120,43280,2,0,B|280:176|360:176,1,100,8|0
373,180,43689,1,0
256,192,43825,12,4,46007
48,48,52825,6,0,B|56:152,1,100
136,152,53370,2,0,B|144:264,1,100
216,280,53916,2,0,B|208:152,2,100,0|8|0
288,312,54734,6,0,B|352:264|344:152,1,150,2|0
336,136,55279,1,8
328,96,55416,1,8
248,80,55689,2,0,B|256:140|206:182|153:196|100:187|65:139,1,250,0|8
136,104,56643,1,0
136,104,56779,1,0
136,104,56916,6,0,B|168:168|136:264,2,150,2|8|0
216,88,58007,1,2
256,80,58143,1,0
296,72,58279,1,4
424,280,59098,6,0,B|408:224|352:222|352:222|284:224|271:274,1,200,2|8
240,295,59779,1,8
208,221,60052,2,0,B|233:37,1,150
68,74,61007,1,0
68,74,61143,1,0
68,74,61279,6,0,B|40:116|76:201,1,100,2|0
64,170,61689,2,0,B|32:328,2,150
104,174,62642,1,0
143,178,62779,1,0
182,183,62916,1,0
261,194,63189,2,0,B|320:197|320:197|320:198,2,50,0|0|8
237,272,63598,6,0,B|188:267,2,50,0|0|8
362,271,64007,2,0,B|366:350,2,50,0|8|0
421,148,64416,1,0
421,148,64552,1,8
285,192,64825,1,0
285,192,64961,1,8
257,316,65234,1,8
257,316,65370,1,2
255,48,65643,6,0,B|255:112|194:112|194:112|119:112|119:192,2,200,2|8|6
329,77,67007,1,0
359,103,67143,1,0
380,137,67280,2,0,B|403:196|369:251,1,100,8|0
353,266,67689,2,0,B|289:227|196:227|133:278|132:328,1,250,0|8
70,263,68643,6,0,B|49:146,1,100,0|2
113,112,69189,2,0,B|136:225,2,100,0|8|0
257,48,70007,6,0,B|257:112|318:112|318:112|393:112|393:192,2,200,2|8|6
183,77,71371,1,0
153,103,71507,1,0
132,137,71644,2,0,B|109:196|143:251,1,100,8|0
160,263,72052,1,0
195,282,72189,6,0,B|241:296,1,50,0|0
282,293,72461,2,0,B|345:284,1,50,8|0
368,270,72734,2,0,B|400:231,1,50,0|8
425,200,73007,2,0,B|442:145,1,50
449,113,73280,2,0,B|450:60,4,50,8|0|8|0|4
449,113,74098,1,0
337,95,74370,6,0,B|321:47|257:31|185:47|178:107,2,200,2|8|6
256,120,75734,1,0
256,120,75870,1,0
256,120,76007,2,0,B|232:176|152:176,1,100,8|0
144,192,76416,2,0,B|96:208|96:272|96:272|96:336|32:352,1,200
43,348,77098,5,8
17,273,77370,2,0,B|23:132,1,100,0|2
89,130,77916,2,0,B|92:16,2,100,0|8|0
175,95,78734,6,0,B|191:47|255:31|327:47|333:107,2,200,2|8|6
256,120,80098,1,0
256,120,80234,1,0
256,120,80371,2,0,B|280:176|360:176,1,100,8|0
373,180,80780,1,0
256,192,80916,12,4,83098
106,50,91825,6,0,B|50:139|108:257,1,200
136,256,92507,2,0,B|272:280,2,100,8|2|2
104,280,93189,2,0,B|80:336|24:352,1,100
406,334,94007,6,0,B|462:245|404:127,1,200
376,128,94689,2,0,B|240:104,2,100,8|2|2
368,168,95370,2,0,B|352:192|344:240,4,50,0|0|8|0|0
106,334,96189,6,0,B|50:245|108:127,1,200
136,128,96871,2,0,B|272:104,2,100,8|2|2
104,104,97553,2,0,B|80:48|24:32,1,100
464,64,98370,5,0
464,104,98507,1,8
448,144,98643,1,8
416,168,98779,1,0
376,184,98916,2,0,B|320:192|296:224,1,50,8|8
296,224,99189,1,0
280,256,99325,1,8
272,296,99461,6,0,B|256:336|272:368,4,50,0|8|0|0|8
192,288,100279,1,0
406,334,100552,6,0,B|462:245|404:127,1,200
376,128,101234,2,0,B|240:104,2,100,8|2|2
408,104,101916,2,0,B|432:48|488:32,1,100
106,50,102734,6,0,B|50:139|108:257,1,200
136,256,103416,2,0,B|272:280,2,100,8|2|2
144,216,104097,2,0,B|160:192|168:144,4,50,0|0|8|0|0
406,50,104916,6,0,B|462:139|404:257,1,200
376,256,105598,2,0,B|240:280,2,100,8|2|2
408,280,106280,2,0,B|432:336|488:352,1,100
48,320,107097,5,0
48,280,107234,1,8
64,240,107370,1,8
96,216,107506,1,0
136,200,107643,2,0,B|192:192|216:160,1,50,8|8
216,160,107916,1,0
232,128,108052,1,8
240,88,108188,6,0,B|256:48|240:16,4,50,0|8|0|0|8
320,96,109006,1,0
256,320,109279,1,4
256,192,118007,12,4,120189
255,48,120734,6,0,B|255:112|194:112|194:112|119:112|119:192,2,200,8|0|8
328,80,122098,1,8
328,80,122234,1,0
328,80,122370,6,0,B|344:128|432:168,1,100,2|0
424,176,122779,2,0,B|464:216|480:304|392:368,1,200,8|8
368,344,123461,1,2
328,336,123598,1,0
288,328,123734,1,0
48,344,124552,6,0,B|88:296|54:253|54:253|19:205|58:145,1,200,2|8
80,136,125234,2,0,B|128:96|208:112,1,100,8|0
296,112,125916,2,0,B|256:160|248:208|256:272|304:296,1,200
336,304,126598,1,0
376,312,126734,6,0,B|432:184,1,100,2|8
440,184,127143,2,0,B|464:120|440:64|360:48,1,150,0|8
312,64,127825,2,0,B|280:96|280:144,4,50,0|0|8|0|0
360,128,128643,1,2
360,128,128779,1,0
360,128,128916,1,0
257,336,129461,6,0,B|257:272|318:272|318:272|393:272|393:192,2,200,8|0|8
184,304,130825,1,8
184,304,130961,1,0
184,304,131097,6,0,B|168:256|80:216,1,100,2|0
88,208,131506,2,0,B|48:168|32:80|120:16,1,200,8|8
144,40,132188,1,2
184,48,132325,1,0
224,56,132461,1,0
464,40,133279,6,0,B|424:88|458:131|458:131|493:179|454:239,1,200,2|8
432,248,133961,2,0,B|384:288|304:272,1,100,8|0
216,272,134643,2,0,B|256:224|264:176|256:112|208:88,1,200
176,80,135325,1,0
136,72,135461,6,0,B|80:200,1,100,2|8
72,200,135870,2,0,B|48:264|72:320|152:336,1,150,0|8
200,320,136552,2,0,B|232:288|232:240,4,50,0|0|8|0|0
152,256,137370,1,8
176,224,137507,1,0
256,192,137643,12,4,139279
430,56,139825,6,0,B|382:112|393:171|393:171|408:240|334:312,2,250,2|8|2
329,64,141189,1,0
304,107,141325,1,0
265,138,141461,2,0,B|200:187|118:165,1,125,8|0
107,141,141870,2,0,B|51:164|32:240|37:324|120:345,1,250
186,319,142552,5,8
278,279,142825,2,0,B|336:247|400:280|400:280|472:312|520:259,2,250
264,184,144189,6,0,B|264:104|96:80|64:176,2,250,2|8|2
344,128,145552,1,0
344,128,145689,1,0
344,128,145825,2,0,B|336:296,1,125,8|0
338,252,146234,1,0
256,192,146370,12,0,148007
72,32,148552,6,0,B|120:72|96:152|96:152|72:232|112:280,2,250,2|8|2
176,40,149916,1,2
176,40,150052,1,0
176,40,150189,2,0,B|208:104|312:96,1,125,8|0
328,96,150598,2,0,B|400:96|464:160|464:240|408:304,1,250
384,304,151279,1,8
320,232,151552,2,0,B|208:288|208:288|48:216,2,250
240,176,152916,6,0,B|216:232|240:304|344:344|400:288,2,250,2|8|2
336,216,154279,1,0
336,216,154416,1,0
336,216,154552,2,0,B|272:288|136:264,1,187.5,8|2
256,192,155098,12,0,156734
88,32,157279,6,0,B|16:168|160:264,1,250
192,240,157961,2,0,B|328:184,2,125,0|2|2
168,280,158643,2,0,B|152:312|168:344,2,62.5
424,352,159461,6,0,B|496:216|352:120,1,250
320,152,160143,1,0
448,48,160416,1,0
320,32,160552,2,0,B|240:32,1,62.5,2|2
160,80,160825,2,0,B|224:120,1,62.5,8|0
176,192,161098,2,0,B|32:192,1,125,2|8
424,352,161643,6,0,B|496:216|352:120,1,250
320,144,162325,2,0,B|184:200,2,125,0|2|2
344,104,163007,2,0,B|360:72|344:40,2,62.5
72,56,163825,6,0,B|56:160,1,62.5,0|8
128,136,164098,2,0,B|144:64,1,62.5,8|0
208,96,164370,2,0,B|192:200,1,62.5,8|8
264,176,164643,2,0,B|280:104,1,62.5,0|8
208,232,164916,6,0,B|112:240,1,62.5,0|8
144,312,165189,2,0,B|224:304,1,62.5
304,152,165461,2,0,B|400:144,1,62.5,8|8
368,72,165734,2,0,B|288:80,1,62.5
424,352,166007,6,0,B|496:216|352:120,1,250
320,144,166689,2,0,B|184:200,2,125,0|2|2
344,104,167371,2,0,B|360:72|344:40,2,62.5
88,32,168189,6,0,B|16:168|160:264,1,250
192,232,168871,1,0
64,336,169144,1,0
192,352,169280,2,0,B|272:352,1,62.5,2|2
352,304,169553,2,0,B|288:264,1,62.5,8|0
336,192,169826,2,0,B|480:192,1,125,2|8
88,32,170371,6,0,B|16:168|160:264,1,250
192,240,171053,2,0,B|328:184,2,125,0|2|2
168,280,171735,2,0,B|152:312|168:344,2,62.5
440,328,172553,6,0,B|456:224,1,62.5,0|8
384,248,172826,2,0,B|368:320,1,62.5,8|0
304,288,173098,2,0,B|320:184,1,62.5,8|8
248,208,173371,2,0,B|232:280,1,62.5,0|8
304,152,173644,6,0,B|400:144,1,62.5,0|8
368,72,173917,2,0,B|288:80,1,62.5
208,232,174189,2,0,B|112:240,1,62.5,8|8
144,312,174462,2,0,B|224:304,1,62.5
80,48,174734,6,0,B|40:112|88:192,2,125
175,76,175552,1,0
223,87,175689,1,0
304,145,175961,1,0
333,185,176098,2,0,B|359:248|297:304,2,125
243,228,176916,6,0,B|208:143|103:112|31:153,1,250,0|8
33,151,177598,1,8
112,212,177870,2,0,B|219:39,2,187.5
81,251,178825,1,0
54,293,178961,1,0
25,334,179098,6,0,B|151:368,1,125
228,340,179507,1,0
264,244,179643,2,0,B|252:214|214:199,1,62.5
182,103,179916,1,0
182,103,180052,2,0,B|248:118|308:77,2,125
67,52,180734,2,0,B|36:225,1,125
64,291,181279,6,0,B|117:260|184:296|184:296|234:326|303:274,1,250,0|8
343,251,181961,1,8
424,312,182234,2,0,B|464:240|440:160|344:144|344:144,1,187.5
304,80,182916,1,0
208,104,183189,1,0
208,104,183325,1,0
208,104,183461,5,0
132,170,183734,1,0
231,180,184007,1,0
158,248,184279,1,0
158,248,184416,2,0,B|248:272|294:243|294:243|324:181,1,187.5
405,157,185098,2,0,B|365:280,1,125
301,351,185643,6,0,B|39:312,1,250,0|8
40,265,186325,2,0,B|21:187|69:124,1,125,8|0
123,70,186870,1,0
173,69,187007,1,0
222,68,187143,1,0
271,67,187279,1,8
321,65,187416,1,0
370,65,187552,1,0
438,137,187825,6,0,B|404:235,1,62.5
378,303,188098,2,8,B|328:248,1,62.5
288,144,188370,2,0,B|249:149|228:201,2,62.5,0|0|8
224,280,188779,2,0,B|67:264,2,125,0|0|8
224,280,189461,1,0
256,64,189734,1,8
256,192,190007,12,0,192189
