osu file format v14

[General]
AudioFilename: ray of bullet.mp3
AudioLeadIn: 1300
PreviewTime: 50288
Countdown: 0
SampleSet: Soft
StackLeniency: 0.7
Mode: 0
LetterboxInBreaks: 0
WidescreenStoryboard: 0

[Editor]
DistanceSpacing: 1.2
BeatDivisor: 4
GridSize: 4
TimelineZoom: 2.3

[Metadata]
Title:Ray of bullet
TitleUnicode:Ray of bullet
Artist:Iris Freyja(CV:Hidaka Rina), Mononobe Mitsuki(CV:Numakura Manami)
ArtistUnicode:イリス・フレイア(CV:日高里菜)、物部深月(CV:沼倉愛美)
Creator:Kibbleru
Version:Insane
Source:銃皇無尽のファフニール
Tags:Juuou Mujin no Fafnir ending ed skystar amamiya yuko CloudSplash16 園田智也 Sonoda Tomoya
BeatmapID:635743
BeatmapSetID:280999

[Difficulty]
HPDrainRate:7
CircleSize:4
OverallDifficulty:7.5
ApproachRate:9
SliderMultiplier:1.6
SliderTickRate:1

[Events]
//Background and Video events
Video,0,"fanfir.flv"
0,0,"Fafnir yey.jpg",0,0
//Break Periods
//Storyboard Layer 0 (Background)
//Storyboard Layer 1 (Fail)
//Storyboard Layer 2 (Pass)
//Storyboard Layer 3 (Foreground)
//Storyboard Sound Samples

[TimingPoints]
383,324.324324324324,4,2,1,60,1,0
383,-166.666666666667,4,2,1,60,0,0
1680,-100,4,2,1,60,0,0
2653,-166.666666666667,4,2,1,60,0,0
4274,-100,4,2,1,60,0,0
5247,-166.666666666667,4,2,1,60,0,0
6220,-100,4,2,1,60,0,0
9464,-100,4,2,1,50,0,0
19842,-133.333333333333,4,2,1,40,0,0
34761,-111.111111111111,4,2,1,50,0,0
48058,-166.666666666666,4,2,1,40,0,0
49355,-100,4,2,1,50,0,0
49680,-166.666666666667,4,2,1,50,0,0
50977,-100,4,2,1,70,0,1
82112,-100,4,2,1,60,0,0
85031,-100,4,2,1,40,0,0
85355,-100,4,2,1,45,0,0
85680,-100,4,2,1,50,0,0
86004,-100,4,2,1,55,0,0
86328,-100,4,2,1,60,0,0
86653,-100,4,2,1,65,0,0
86977,-100,4,2,1,70,0,0

[Colours]
Combo1 : 150,172,214
Combo2 : 57,74,94
Combo3 : 223,57,136

[HitObjects]
216,144,707,6,0,P|168:146|120:150,2,95.9999970703126,2|0|0,0:0|0:0|0:0,0:0:0:0:
216,144,1518,1,0,0:0:0:0:
368,116,1680,6,0,P|352:184|340:276,1,160,4|0,3:2|0:0,0:0:0:0:
240,344,2166,1,8,0:0:0:0:
160,268,2328,1,8,0:0:0:0:
176,248,2653,6,0,P|105:206|4:260,1,191.999994140625,4|0,3:2|0:0,0:0:0:0:
144,120,3626,2,0,L|238:105,1,95.9999970703126,2|0,0:0|0:0,0:0:0:0:
256,80,4274,6,0,B|284:108|284:108|292:228,1,160,4|0,3:2|0:0,0:0:0:0:
144,320,4761,1,8,0:0:0:0:
176,208,4923,1,8,0:0:0:0:
151,219,5247,6,0,P|199:259|292:244,1,143.999995605469,4|8,3:2|0:0,0:0:0:0:
380,172,5896,2,0,L|296:148,1,71.9999978027344,0|8,3:0|0:0,0:0:0:0:
284,76,6220,5,10,0:0:0:0:
180,196,6382,1,8,0:0:0:0:
108,56,6545,1,10,0:0:0:0:
72,184,6707,2,0,L|66:223,1,40,8|8,0:0|0:0,0:0:0:0:
176,116,6869,6,0,P|226:174|304:175,1,160,4|2,3:2|3:0,0:0:0:0:
420,44,7355,1,10,0:0:0:0:
304,60,7518,1,8,0:0:0:0:
404,228,7680,1,8,0:0:0:0:
480,152,7842,1,10,0:0:0:0:
296,100,8004,6,0,B|276:144|276:144|289:254,1,160,4|0,3:2|3:0,0:0:0:0:
396,364,8491,2,0,L|389:324,1,40,10|0,0:0|0:0,0:0:0:0:
276,268,8653,6,0,B|232:252|232:252|200:296|144:292|144:292|139:280,1,160,4|8,3:2|0:0,0:0:0:0:
376,164,9139,2,0,L|368:256,1,80,10|8,0:0|0:0,0:0:0:0:
440,296,9382,1,8,0:0:0:0:
440,296,9464,5,4,3:2:0:0:
484,200,9626,1,0,0:0:0:0:
288,104,9788,1,10,0:0:0:0:
320,244,9950,1,0,0:0:0:0:
484,200,10112,5,0,3:2:0:0:
392,128,10274,1,0,0:0:0:0:
268,320,10437,1,10,0:0:0:0:
308,208,10599,1,0,0:0:0:0:
128,112,10761,6,0,P|128:160|156:200,1,80,2|0,3:2|0:0,0:0:0:0:
292,64,11085,2,0,P|262:37|224:28,1,80,10|0,0:0|0:0,0:0:0:0:
264,196,11410,1,0,3:2:0:0:
364,144,11572,1,0,0:0:0:0:
242,176,11734,2,0,P|224:211|226:250,1,80,10|0,0:0|0:0,0:0:0:0:
328,336,12058,6,0,L|416:320,1,80,2|0,3:2|0:0,0:0:0:0:
240,272,12382,2,0,L|161:286,1,80,8|2,0:0|0:0,0:0:0:0:
336,224,12707,1,2,3:2:0:0:
392,156,12869,1,0,0:0:0:0:
168,100,13031,1,8,0:0:0:0:
168,100,13193,1,0,0:0:0:0:
284,127,13355,6,0,P|293:89|301:49,1,80,2|0,3:2|0:0,0:0:0:0:
236,248,13680,1,10,0:0:0:0:
180,128,13842,1,0,0:0:0:0:
124,252,14004,2,0,P|128:291|133:331,1,80,2|0,3:2|0:0,0:0:0:0:
148,116,14328,1,8,0:0:0:0:
216,236,14491,1,0,0:0:0:0:
298,95,14653,6,0,B|332:92|368:112|368:112|416:104|427:55,1,160,4|8,3:2|0:0,0:0:0:0:
448,180,15139,1,0,0:0:0:0:
335,240,15301,2,0,P|333:279|347:316,1,80,2|0,3:2|0:0,0:0:0:0:
247,192,15626,2,0,P|211:208|186:238,1,80,10|0,0:2|0:0,0:0:0:0:
300,64,15950,6,0,P|332:104|336:160,1,80,2|0,3:2|0:0,0:0:0:0:
196,88,16274,1,8,0:0:0:0:
80,56,16437,1,0,0:0:0:0:
36,184,16599,2,0,L|132:172,1,80,2|0,3:2|0:0,0:0:0:0:
232,228,16923,2,0,P|240:272|220:320,1,80,8|0,0:0|0:0,0:0:0:0:
188,48,17247,5,10,3:2:0:0:
256,216,17410,1,10,0:2:0:0:
304,128,17572,1,0,3:0:0:0:
360,244,17734,2,0,L|356:300,1,40,0|8,0:0|0:0,0:0:0:0:
424,168,17896,5,10,0:0:0:0:
144,168,18058,1,8,0:0:0:0:
340,144,18220,1,10,0:0:0:0:
140,256,18382,1,4,3:2:0:0:
168,276,18707,5,8,0:0:0:0:
232,184,18869,1,8,0:0:0:0:
408,296,19031,2,0,L|288:284,1,120,4|0,3:2|0:0,0:0:0:0:
243,192,19355,2,0,P|192:244|196:327,1,160,4|8,3:2|0:3,0:0:0:0:
352,199,19842,6,0,P|379:147|373:88,1,120.000004577637,4|8,3:2|0:0,0:0:0:0:
280,24,20328,2,0,P|252:36|224:45,1,60.0000022888184,2|0,0:0|3:0,0:0:0:0:
160,120,20653,1,0,0:0:0:0:
56,72,20815,2,0,P|52:28|60:4,1,60.0000022888184,10|0,0:0|0:0,0:0:0:0:
143,144,21139,6,0,P|126:201|101:255,1,120.000004577637,2|8,3:2|0:0,0:0:0:0:
191,312,21626,2,0,P|219:300|248:291,1,60.0000022888184,2|0,0:0|3:2,0:0:0:0:
324,220,21950,1,0,0:0:0:0:
252,164,22112,1,10,0:0:0:0:
352,316,22274,6,0,P|392:332|424:328,1,60.0000022888184,2|0,0:0|3:0,0:0:0:0:
500,264,22599,2,0,L|496:196,1,60.0000022888184,0|10,0:0|0:0,0:0:0:0:
396,152,22923,2,0,L|399:211,1,60.0000022888184,2|0,0:2|3:0,0:0:0:0:
304,244,23247,1,0,0:0:0:0:
248,84,23410,1,10,0:0:0:0:
167,155,23572,6,0,P|159:183|160:213,1,60.0000022888184,2|0,0:0|3:0,0:0:0:0:
252,304,23896,1,0,0:0:0:0:
304,216,24058,1,10,0:0:0:0:
400,272,24220,1,0,0:0:0:0:
280,112,24382,5,2,3:2:0:0:
204,196,24545,1,0,0:0:0:0:
392,152,24707,1,10,0:0:0:0:
272,16,24869,1,8,0:0:0:0:
272,16,24950,1,8,0:0:0:0:
272,16,25031,6,0,P|228:40|148:24,1,120.000004577637,2|8,3:2|0:0,0:0:0:0:
76,96,25518,1,2,0:0:0:0:
176,140,25680,1,0,3:0:0:0:
164,248,25842,1,2,0:0:0:0:
60,268,26004,1,8,0:0:0:0:
4,176,26166,1,2,0:0:0:0:
176,120,26328,6,0,L|234:131,1,60.0000022888184,2|0,3:2|0:0,0:0:0:0:
400,80,26653,2,0,P|373:93|345:104,1,60.0000022888184,10|0,0:0|0:0,0:0:0:0:
248,244,26977,1,2,3:2:0:0:
312,184,27139,1,0,0:0:0:0:
400,248,27301,2,0,P|400:288|380:320,1,60.0000022888184,10|0,0:0|0:0,0:0:0:0:
284,348,27626,6,0,P|228:320|168:322,1,120.000004577637,2|8,3:2|0:0,0:0:0:0:
84,200,28112,2,0,P|76:240|88:276,1,60.0000022888184,2|0,0:0|3:0,0:0:0:0:
180,196,28437,1,2,0:0:0:0:
140,48,28599,1,8,0:0:0:0:
224,112,28761,1,0,0:0:0:0:
56,108,28923,5,2,3:2:0:0:
192,224,29085,2,0,L|251:220,1,60.0000022888184,2|8,0:0|0:0,0:0:0:0:
352,240,29410,1,0,0:0:0:0:
352,240,29491,1,8,0:0:0:0:
352,240,29572,2,0,P|364:200|352:164,1,60.0000022888184,2|0,3:2|0:0,0:0:0:0:
268,32,29896,2,0,L|273:91,1,60.0000022888184,12|0,0:0|0:0,0:0:0:0:
176,252,30220,6,0,L|164:116,1,120.000004577637,4|8,3:2|0:0,0:0:0:0:
92,28,30707,2,0,P|116:45|145:50,1,60.0000022888184,2|0,0:0|3:0,0:0:0:0:
64,136,31031,2,0,P|40:164|36:200,1,60.0000022888184,0|10,0:0|0:0,0:0:0:0:
152,252,31355,1,0,0:0:0:0:
152,252,31437,1,2,0:0:0:0:
152,252,31518,6,0,P|180:212|172:140,1,120.000004577637,2|8,3:2|0:0,0:0:0:0:
248,76,32004,2,0,P|276:86|304:95,1,60.0000022888184,2|0,0:0|3:0,0:0:0:0:
488,36,32328,1,0,0:0:0:0:
400,108,32491,6,0,P|365:156|367:214,1,120.000004577637,8|2,0:2|3:2,0:0:0:0:
504,144,32977,2,0,P|514:115|512:86,1,60.0000022888184,0|10,0:0|0:0,0:0:0:0:
388,88,33301,2,0,P|356:72|320:76,1,60.0000022888184,2|0,0:0|3:0,0:0:0:0:
192,136,33626,1,0,0:0:0:0:
220,276,33788,1,10,0:0:0:0:
292,220,33950,1,0,0:0:0:0:
192,264,34112,6,0,P|176:300|184:340,1,60.0000022888184,0|2,3:0|0:0,0:0:0:0:
316,192,34437,2,0,L|428:176,1,90.0000034332277,10|0,0:0|0:0,0:0:0:0:
488,120,34761,6,0,P|499:153|489:188,1,71.9999978027344,4|8,3:2|0:0,0:0:0:0:
448,264,35004,2,0,L|452:300,1,35.9999989013672,8|8,0:0|0:0,0:0:0:0:
372,60,35247,2,0,L|376:96,1,35.9999989013672,8|8,0:0|0:0,0:0:0:0:
320,172,35410,6,0,B|284:204|232:188|232:188|220:160|192:144,1,143.999995605469,4|8,3:2|0:0,0:0:0:0:
212,56,35896,1,0,0:0:0:0:
136,232,36058,2,0,L|142:303,1,71.9999978027344,2|0,3:2|0:0,0:0:0:0:
36,172,36382,6,0,B|26:63|26:63|42:31,1,143.999995605469,12|0,0:0|3:0,0:0:0:0:
140,16,36869,1,0,0:0:0:0:
283,128,37031,2,0,P|255:150|221:159,1,71.9999978027344,10|0,0:0|0:0,0:0:0:0:
352,39,37355,2,0,P|387:41|420:55,1,71.9999978027344,2|0,3:2|0:0,0:0:0:0:
392,168,37680,6,0,P|402:238|368:300,2,143.999995605469,12|0|8,0:0|3:0|0:0,0:0:0:0:
268,104,38491,1,0,0:0:0:0:
268,104,38653,1,0,3:0:0:0:
188,244,38815,1,0,0:0:0:0:
364,176,38977,1,8,0:0:0:0:
272,188,39139,1,0,0:0:0:0:
424,272,39301,5,4,3:2:0:0:
148,120,39464,1,4,3:2:0:0:
164,152,39788,5,4,3:2:0:0:
292,80,40112,1,4,3:2:0:0:
400,172,40437,5,8,0:0:0:0:
400,172,40518,1,8,0:0:0:0:
400,172,40599,6,0,P|387:224|380:278,1,107.999996704102,12|0,0:0|0:0,0:0:0:0:
308,244,40923,2,0,B|276:228|276:228|205:242,1,107.999996704102,10|0,0:0|0:0,0:0:0:0:
172,332,41247,2,0,B|140:300|140:300|41:289,1,143.999995605469,10|8,0:0|0:0,0:0:0:0:
272,280,41734,6,0,L|272:352,1,71.9999978027344,10|0,0:0|3:0,0:0:0:0:
176,184,42058,2,0,L|176:112,1,71.9999978027344,10|0,0:0|3:0,0:0:0:0:
144,280,42382,1,8,0:0:0:0:
292,171,42545,2,0,P|327:166|361:177,1,71.9999978027344,10|0,0:0|0:0,0:0:0:0:
160,300,42869,2,0,P|124:305|90:294,1,71.9999978027344,2|0,3:2|0:0,0:0:0:0:
272,271,43193,6,0,P|323:285|360:323,1,107.999996704102,4|0,0:0|0:0,0:0:0:0:
456,287,43518,2,0,P|488:245|487:192,1,107.999996704102,10|0,0:0|0:0,0:0:0:0:
504,84,43842,2,0,P|433:97|362:109,1,143.999995605469,10|8,0:0|0:0,0:0:0:0:
180,52,44328,6,0,P|215:56|251:62,1,71.9999978027344,10|0,0:0|3:0,0:0:0:0:
276,192,44653,2,0,P|268:226|244:252,1,71.9999978027344,10|0,0:0|3:0,0:0:0:0:
336,108,44977,1,8,0:0:0:0:
484,192,45139,2,0,L|412:180,1,71.9999978027344,10|0,0:0|0:0,0:0:0:0:
348,268,45464,2,0,L|420:280,1,71.9999978027344,10|8,0:0|0:0,0:0:0:0:
352,356,45707,1,8,0:0:0:0:
352,356,45788,6,0,P|282:340|211:329,1,143.999995605469,4|8,3:2|0:0,0:0:0:0:
416,240,46274,2,0,P|345:224|274:213,1,143.999995605469,4|8,3:2|0:0,0:0:0:0:
480,116,46761,2,0,P|409:100|338:89,1,143.999995605469,4|0,3:2|3:0,0:0:0:0:
220,40,47301,5,8,0:0:0:0:
244,75,47410,1,8,0:0:0:0:
253,117,47518,1,8,0:0:0:0:
244,159,47626,1,8,0:0:0:0:
219,194,47734,6,0,L|163:199,1,47.9999985351563,8|8,0:3|0:3,0:0:0:0:
288,264,47950,1,8,0:3:0:0:
184,300,48058,6,0,B|128:324|52:292|52:292|68:268|95:257,1,191.999994140625,4|8,3:2|0:0,0:0:0:0:
208,208,48869,5,2,0:0:0:0:
208,208,48950,1,2,0:0:0:0:
208,208,49031,1,10,0:0:0:0:
116,128,49193,1,10,0:0:0:0:
116,128,49274,1,2,0:0:0:0:
116,128,49355,6,0,L|120:88,1,40,2|0,3:2|0:0,0:0:0:0:
180,208,49518,2,0,L|175:247,1,40,2|0,3:2|0:0,0:0:0:0:
216,108,49680,6,0,L|408:124,1,191.999994140625,4|2,3:2|0:0,0:0:0:0:
428,108,50977,5,4,3:2:0:0:
468,208,51139,1,0,0:0:0:0:
348,272,51301,2,0,P|308:268|276:244,1,80,10|0,0:0|0:0,0:0:0:0:
108,176,51626,2,0,P|146:165|185:155,1,80,2|0,3:2|0:0,0:0:0:0:
348,48,51950,2,0,L|309:58|270:68,1,80,10|0,0:0|0:0,0:0:0:0:
384,140,52274,5,2,3:2:0:0:
436,232,52437,1,0,0:0:0:0:
271,323,52599,2,0,P|270:284|284:247,1,80,10|0,0:0|0:0,0:0:0:0:
472,264,52923,1,2,3:2:0:0:
368,344,53085,1,0,0:0:0:0:
248,136,53247,2,0,L|388:156,1,120,10|8,0:0|0:0,0:0:0:0:
456,92,53572,6,0,P|506:151|497:228,1,160,2|8,3:2|0:0,0:0:0:0:
352,320,54058,1,2,0:0:0:0:
352,320,54220,1,0,3:0:0:0:
279,256,54382,2,0,P|241:266|203:278,1,80,2|8,0:0|0:0,0:0:0:0:
368,128,54707,1,0,0:0:0:0:
240,48,54869,6,0,L|232:140,1,80,2|0,3:2|0:0,0:0:0:0:
36,104,55193,2,0,B|76:72|132:80|132:80|133:97,1,120,8|8,0:0|0:0,0:0:0:0:
163,196,55518,2,0,P|150:232|117:254,1,80,2|0,3:2|0:0,0:0:0:0:
368,116,55842,2,0,L|248:100,1,120,12|0,0:0|0:0,0:0:0:0:
244,184,56166,5,4,3:2:0:0:
304,288,56328,1,0,0:0:0:0:
456,148,56491,2,0,P|460:96|440:56,1,80,10|0,0:0|0:0,0:0:0:0:
232,224,56815,2,0,P|212:264|220:320,1,80,2|0,3:2|0:0,0:0:0:0:
460,240,57139,1,10,0:0:0:0:
364,200,57301,1,0,0:0:0:0:
144,128,57464,6,0,L|236:116,1,80,2|0,3:2|0:0,0:0:0:0:
356,240,57788,2,0,L|276:250,1,80,10|0,0:0|0:0,0:0:0:0:
208,340,58112,1,2,3:2:0:0:
208,340,58274,1,0,0:0:0:0:
100,148,58437,2,0,P|72:188|72:264,1,120,10|8,0:0|0:0,0:0:0:0:
168,224,58761,6,0,L|332:204,1,160,2|8,3:2|0:0,0:0:0:0:
456,100,59247,1,2,0:0:0:0:
500,188,59410,2,0,P|500:240|480:280,1,80,0|2,3:2|0:0,0:0:0:0:
379,164,59734,2,0,P|344:184|306:193,1,80,8|0,0:0|0:0,0:0:0:0:
436,24,60058,6,0,P|483:86|474:163,1,160,2|8,3:2|0:0,0:0:0:0:
320,64,60545,2,0,L|256:48,1,40,8|8,0:0|0:0,0:0:0:0:
180,104,60707,2,0,L|56:112,1,120,2|0,3:2|0:0,0:0:0:0:
20,216,61031,2,0,L|99:211,1,80,12|0,0:0|0:0,0:0:0:0:
232,320,61355,6,0,P|268:280|264:168,1,160,4|8,3:2|0:0,0:0:0:0:
132,72,61842,2,0,P|168:92|220:84,1,80,2|0,0:0|3:0,0:0:0:0:
368,20,62166,1,2,0:0:0:0:
432,112,62328,6,0,P|421:191|408:270,1,160,12|0,0:0|3:2,0:0:0:0:
328,200,62815,1,0,0:0:0:0:
152,264,62977,2,0,L|231:260,1,80,10|0,0:0|0:0,0:0:0:0:
328,112,63301,2,0,L|248:115,1,80,2|0,3:2|0:0,0:0:0:0:
36,168,63626,2,0,L|155:163,1,120,10|0,0:0|0:0,0:0:0:0:
236,220,63950,5,4,3:2:0:0:
152,296,64112,1,0,3:0:0:0:
208,96,64274,1,8,0:0:0:0:
208,96,64437,1,0,3:0:0:0:
360,200,64599,5,10,0:0:0:0:
352,304,64761,1,0,3:0:0:0:
156,176,64923,1,8,0:0:0:0:
156,176,65085,1,0,3:0:0:0:
252,352,65247,6,0,L|267:273,1,80,4|0,3:2|0:0,0:0:0:0:
252,84,65572,1,8,0:0:0:0:
176,192,65734,1,0,3:0:0:0:
384,308,65896,6,0,L|376:220,1,80,12|8,0:0|0:0,0:0:0:0:
308,168,66139,2,0,P|313:149|322:132,1,40,8|8,0:0|0:0,0:0:0:0:
256,344,66382,2,0,P|251:324|241:307,1,40,8|8,0:0|0:0,0:0:0:0:
224,216,66545,6,0,P|164:192|72:220,1,160,4|10,3:2|0:0,0:0:0:0:
44,320,67031,1,0,0:0:0:0:
16,84,67193,2,0,P|54:94|93:103,1,80,2|0,3:2|0:0,0:0:0:0:
272,48,67518,2,0,P|238:69|203:88,1,80,10|0,0:0|0:0,0:0:0:0:
356,120,67842,6,0,P|380:151|388:190,1,80,2|0,3:2|0:0,0:0:0:0:
135,164,68166,2,0,P|110:194|103:233,1,80,10|0,0:0|0:0,0:0:0:0:
344,308,68491,1,2,3:2:0:0:
288,220,68653,1,0,0:0:0:0:
144,340,68815,2,0,P|182:329|221:318,1,80,10|0,0:0|0:0,0:0:0:0:
32,168,69139,6,0,B|68:196|120:180|120:180|152:200|153:235,1,160,2|8,3:2|0:0,0:0:0:0:
84,80,69626,1,2,0:0:0:0:
268,44,69788,2,0,P|257:82|244:120,1,80,0|2,3:2|0:0,0:0:0:0:
152,236,70112,1,8,0:0:0:0:
152,236,70274,1,0,0:0:0:0:
352,156,70437,6,0,P|431:146|511:140,1,160,2|8,3:2|0:0,0:0:0:0:
400,280,70923,1,0,0:0:0:0:
400,280,71004,1,8,0:0:0:0:
400,280,71085,2,0,P|361:272|322:266,1,80,2|0,3:2|0:0,0:0:0:0:
224,180,71410,2,0,P|184:188|146:198,1,80,10|0,0:0|0:0,0:0:0:0:
356,116,71734,6,0,B|336:80|336:80|284:52|219:63,1,160,4|10,3:2|0:0,0:0:0:0:
316,204,72220,1,0,0:0:0:0:
467,48,72382,2,0,P|455:85|453:125,1,80,2|0,3:2|0:0,0:0:0:0:
440,316,72707,2,0,P|429:277|406:245,1,80,10|0,0:0|0:0,0:0:0:0:
328,152,73031,6,0,P|249:154|189:205,1,160,2|10,3:2|0:0,0:0:0:0:
248,288,73518,1,0,0:0:0:0:
160,88,73680,1,2,3:2:0:0:
88,204,73842,1,0,0:0:0:0:
232,192,74004,1,10,0:0:0:0:
232,192,74166,1,0,0:0:0:0:
48,324,74328,6,0,B|164:312|164:312|199:287,1,160,2|8,3:2|0:0,0:0:0:0:
64,168,74815,2,0,L|72:128,2,40,2|8|0,0:0|0:0|3:0,0:0:0:0:
188,92,75139,1,2,0:0:0:0:
232,192,75301,1,8,0:0:0:0:
432,112,75464,6,0,L|344:104,1,80,4|2,0:0|3:2,0:0:0:0:
312,208,75788,1,0,0:0:0:0:
312,208,75950,1,8,0:0:0:0:
112,40,76112,2,0,P|100:88|112:140,1,80,4|2,0:0|3:2,0:0:0:0:
212,208,76437,1,8,0:0:0:0:
236,60,76599,1,8,0:0:0:0:
60,204,76761,1,8,0:0:0:0:
60,204,76842,1,8,0:0:0:0:
60,204,76923,6,0,B|88:232|88:232|128:208|184:208|184:208|190:226,1,160,4|8,3:2|0:0,0:0:0:0:
320,88,77410,2,0,P|324:136|304:180,1,80,2|0,0:0|3:2,0:0:0:0:
216,124,77734,1,0,3:2:0:0:
276,292,77896,6,0,P|355:280|434:270,1,160,12|0,0:0|3:2,0:0:0:0:
476,180,78382,1,0,0:0:0:0:
312,84,78545,2,0,P|294:119|293:159,1,80,10|0,0:0|0:0,0:0:0:0:
455,67,78869,2,0,P|439:32|408:6,1,80,2|0,3:2|0:0,0:0:0:0:
384,204,79193,1,10,0:0:0:0:
492,156,79355,1,0,0:0:0:0:
246,144,79518,6,0,B|201:146|201:146|172:160|172:160|136:132|93:148,1,160,4|8,3:2|0:0,0:0:0:0:
252,240,80004,2,0,P|264:288|248:336,1,80,2|0,0:0|3:2,0:0:0:0:
172,344,80328,1,0,3:0:0:0:
208,152,80491,6,0,P|264:208|352:200,1,160,12|0,0:0|3:2,0:0:0:0:
392,128,80977,1,0,0:0:0:0:
300,312,81139,1,8,0:0:0:0:
300,312,81301,1,0,0:0:0:0:
488,216,81464,5,2,3:2:0:0:
316,176,81626,1,8,0:0:0:0:
428,376,81788,1,12,0:0:0:0:
412,284,81950,1,0,0:0:0:0:
304,204,82112,6,0,B|184:208|184:208|152:236,1,160,4|8,3:2|0:0,0:0:0:0:
112,140,82599,2,0,L|33:124,1,80,2|0,0:0|3:2,0:0:0:0:
180,52,82923,1,0,0:0:0:0:
248,132,83085,1,10,0:0:0:0:
412,56,83247,6,0,P|375:41|335:41,1,80,4|0,0:0|3:2,0:0:0:0:
288,128,83572,1,0,0:0:0:0:
468,152,83734,2,0,P|465:171|461:191,1,40,10|0,0:0|0:0,0:0:0:0:
380,264,83896,6,0,P|387:303|395:342,1,80,4|0,0:0|3:2,0:0:0:0:
148,160,84220,1,8,0:0:0:0:
148,160,84301,1,8,0:0:0:0:
148,160,84382,1,8,0:0:0:0:
248,248,84545,6,0,P|224:284|104:308,1,160,4|0,3:2|0:0,0:0:0:0:
32,152,85031,2,0,P|69:166|105:183,1,80,10|8,0:0|0:0,0:0:0:0:
252,40,85355,5,10,0:0:0:0:
144,76,85518,1,8,0:0:0:0:
184,172,85680,1,10,0:0:0:0:
280,144,85842,1,8,0:0:0:0:
208,268,86004,5,10,0:0:0:0:
272,96,86166,1,8,0:0:0:0:
332,272,86328,1,10,0:0:0:0:
172,160,86491,1,8,0:0:0:0:
372,164,86653,5,10,0:0:0:0:
116,224,86815,1,8,0:0:0:0:
412,248,86977,1,10,0:0:0:0:
112,56,87139,1,10,0:0:0:0:
