osu file format v14

[General]
AudioFilename: Rina Hidaka & Manami Numakura - Ray of bullet.mp3
AudioLeadIn: 0
PreviewTime: 50424
Countdown: 0
SampleSet: Normal
StackLeniency: 0.7
Mode: 1
LetterboxInBreaks: 0
WidescreenStoryboard: 0

[Editor]
DistanceSpacing: 1
BeatDivisor: 4
GridSize: 16
TimelineZoom: 1.25

[Metadata]
Title:Ray of bullet
TitleUnicode:Ray of bullet
Artist:Iris Freyja (CV: Hidaka Rina), Mononobe Mitsuki (CV: Numakura Manami)
ArtistUnicode:イリス・フレイア (CV: 日高里菜)、物部深月 (CV: 沼倉愛美)
Creator:Nardoxyribonucleic
Version:Oni
Source:銃皇無尽のファフニール
Tags:Taiko Juuou Mujin no Fafnir Ending
BeatmapID:657360
BeatmapSetID:291984

[Difficulty]
HPDrainRate:5
CircleSize:5
OverallDifficulty:5
ApproachRate:7
SliderMultiplier:1.4
SliderTickRate:1

[Events]
//Background and Video events
0,0,"Iris2.jpg",0,105
//Break Periods
//Storyboard Layer 0 (Background)
//Storyboard Layer 1 (Fail)
//Storyboard Layer 2 (Pass)
//Storyboard Layer 3 (Foreground)
//Storyboard Sound Samples

[TimingPoints]
1776,324.324324324324,4,1,0,70,1,0
9559,-100,4,1,0,80,0,0
19938,-100,4,1,0,70,0,0
40694,-100,4,1,0,80,0,0
51073,-100,4,1,0,90,0,1
84803,-100,4,1,0,80,0,0
89992,-100,4,1,0,70,0,0
110748,-100,4,1,0,80,0,0
121127,-100,4,1,0,90,0,1
154857,-100,4,1,0,80,0,0
193775,-100,4,1,0,50,0,0
196370,-133.333333333333,4,1,0,50,0,0
206100,-111.111111111111,4,1,0,50,0,0
206748,-100,4,1,0,80,0,0
212911,-100,4,1,0,90,0,1
230100,-100,4,1,0,80,0,0

[HitObjects]
256,192,803,5,8,0:0:0:0:
256,192,1127,1,8,0:0:0:0:
256,192,1451,1,8,0:0:0:0:
256,192,1776,1,12,0:0:0:0:
256,192,2262,1,0,0:0:0:0:
256,192,2424,1,0,0:0:0:0:
256,192,2586,1,0,0:0:0:0:
256,192,2748,1,12,0:0:0:0:
256,192,3397,1,8,0:0:0:0:
256,192,3721,1,8,0:0:0:0:
256,192,4046,1,8,0:0:0:0:
256,192,4370,1,12,0:0:0:0:
256,192,4857,1,8,0:0:0:0:
256,192,5019,1,8,0:0:0:0:
256,192,5181,1,0,0:0:0:0:
256,192,5343,1,12,0:0:0:0:
256,192,5830,1,8,0:0:0:0:
256,192,5992,1,0,0:0:0:0:
256,192,6073,1,0,0:0:0:0:
256,192,6154,1,0,0:0:0:0:
256,192,6316,1,8,0:0:0:0:
256,192,6478,1,0,0:0:0:0:
256,192,6559,1,0,0:0:0:0:
256,192,6640,1,8,0:0:0:0:
256,192,6721,1,8,0:0:0:0:
256,192,6803,1,0,0:0:0:0:
256,192,6965,1,4,0:0:0:0:
256,192,7289,1,0,0:0:0:0:
256,192,7451,1,8,0:0:0:0:
256,192,7613,1,8,0:0:0:0:
256,192,7775,1,0,0:0:0:0:
256,192,7857,1,0,0:0:0:0:
256,192,7938,1,8,0:0:0:0:
256,192,8100,1,4,0:0:0:0:
256,192,8424,1,0,0:0:0:0:
256,192,8586,1,8,0:0:0:0:
256,192,8748,1,4,0:0:0:0:
256,192,9073,1,0,0:0:0:0:
256,192,9235,1,8,0:0:0:0:
256,192,9397,1,8,0:0:0:0:
256,192,9559,1,4,0:0:0:0:
256,192,9884,1,8,0:0:0:0:
256,192,10208,1,0,0:0:0:0:
256,192,10370,1,8,0:0:0:0:
256,192,10532,1,8,0:0:0:0:
256,192,10694,1,0,0:0:0:0:
256,192,10857,1,8,0:0:0:0:
256,192,11181,1,8,0:0:0:0:
256,192,11505,1,0,0:0:0:0:
256,192,11667,1,0,0:0:0:0:
256,192,11830,1,8,0:0:0:0:
256,192,11992,1,0,0:0:0:0:
256,192,12154,1,8,0:0:0:0:
256,192,12478,1,8,0:0:0:0:
256,192,12640,1,0,0:0:0:0:
256,192,12803,1,8,0:0:0:0:
256,192,12965,1,0,0:0:0:0:
256,192,13127,1,8,0:0:0:0:
256,192,13289,1,8,0:0:0:0:
256,192,13451,1,0,0:0:0:0:
256,192,13775,1,8,0:0:0:0:
256,192,13938,1,0,0:0:0:0:
256,192,14100,1,0,0:0:0:0:
256,192,14262,1,8,0:0:0:0:
256,192,14424,1,8,0:0:0:0:
256,192,14586,1,0,0:0:0:0:
256,192,14748,1,4,0:0:0:0:
256,192,15073,1,8,0:0:0:0:
256,192,15235,1,0,0:0:0:0:
256,192,15397,1,8,0:0:0:0:
256,192,15721,1,8,0:0:0:0:
256,192,15884,1,0,0:0:0:0:
256,192,16046,1,0,0:0:0:0:
256,192,16208,1,8,0:0:0:0:
256,192,16532,1,0,0:0:0:0:
256,192,16694,1,8,0:0:0:0:
256,192,16857,1,0,0:0:0:0:
256,192,17019,1,8,0:0:0:0:
256,192,17181,1,8,0:0:0:0:
256,192,17343,1,0,0:0:0:0:
256,192,17505,1,8,0:0:0:0:
256,192,17586,1,8,0:0:0:0:
256,192,17667,1,8,0:0:0:0:
256,192,17911,1,0,0:0:0:0:
256,192,17992,1,8,0:0:0:0:
256,192,18154,1,8,0:0:0:0:
256,192,18316,1,8,0:0:0:0:
256,192,18478,1,4,0:0:0:0:
256,192,18803,1,8,0:0:0:0:
256,192,18965,1,0,0:0:0:0:
256,192,19127,1,8,0:0:0:0:
256,192,19451,1,8,0:0:0:0:
256,192,19775,1,0,0:0:0:0:
256,192,19938,1,4,0:0:0:0:
256,192,20262,1,8,0:0:0:0:
256,192,20424,1,8,0:0:0:0:
256,192,20505,1,8,0:0:0:0:
256,192,20586,1,0,0:0:0:0:
256,192,20748,1,0,0:0:0:0:
256,192,20911,1,8,0:0:0:0:
256,192,21073,1,0,0:0:0:0:
256,192,21397,1,0,0:0:0:0:
256,192,21559,1,8,0:0:0:0:
256,192,21721,1,0,0:0:0:0:
256,192,21803,1,0,0:0:0:0:
256,192,21884,1,8,0:0:0:0:
256,192,22046,1,0,0:0:0:0:
256,192,22208,1,8,0:0:0:0:
256,192,22370,1,8,0:0:0:0:
256,192,22694,1,0,0:0:0:0:
256,192,22857,1,8,0:0:0:0:
256,192,23019,1,0,0:0:0:0:
256,192,23100,1,0,0:0:0:0:
256,192,23181,1,0,0:0:0:0:
256,192,23343,1,0,0:0:0:0:
256,192,23505,1,8,0:0:0:0:
256,192,23667,1,0,0:0:0:0:
256,192,23992,1,0,0:0:0:0:
256,192,24154,1,8,0:0:0:0:
256,192,24316,1,0,0:0:0:0:
256,192,24397,1,0,0:0:0:0:
256,192,24478,1,8,0:0:0:0:
256,192,24640,1,0,0:0:0:0:
256,192,24803,1,8,0:0:0:0:
256,192,24965,1,0,0:0:0:0:
256,192,25046,1,8,0:0:0:0:
256,192,25127,1,8,0:0:0:0:
256,192,25289,1,0,0:0:0:0:
256,192,25451,1,8,0:0:0:0:
256,192,25613,1,8,0:0:0:0:
256,192,25694,1,8,0:0:0:0:
256,192,25775,1,0,0:0:0:0:
256,192,25938,1,0,0:0:0:0:
256,192,26100,1,8,0:0:0:0:
256,192,26262,1,0,0:0:0:0:
256,192,26343,1,0,0:0:0:0:
256,192,26424,1,0,0:0:0:0:
256,192,26586,1,8,0:0:0:0:
256,192,26748,1,8,0:0:0:0:
256,192,26911,1,0,0:0:0:0:
256,192,27073,1,8,0:0:0:0:
256,192,27397,1,8,0:0:0:0:
256,192,27559,1,0,0:0:0:0:
256,192,27721,1,8,0:0:0:0:
256,192,27884,1,0,0:0:0:0:
256,192,28046,1,8,0:0:0:0:
256,192,28208,1,8,0:0:0:0:
256,192,28289,1,8,0:0:0:0:
256,192,28370,1,0,0:0:0:0:
256,192,28532,1,0,0:0:0:0:
256,192,28694,1,8,0:0:0:0:
256,192,28857,1,0,0:0:0:0:
256,192,28938,1,0,0:0:0:0:
256,192,29019,1,0,0:0:0:0:
256,192,29181,1,8,0:0:0:0:
256,192,29343,1,8,0:0:0:0:
256,192,29505,1,0,0:0:0:0:
256,192,29586,1,8,0:0:0:0:
256,192,29667,1,8,0:0:0:0:
256,192,29830,1,0,0:0:0:0:
256,192,29992,1,8,0:0:0:0:
256,192,30154,1,0,0:0:0:0:
256,192,30316,1,4,0:0:0:0:
256,192,30640,1,8,0:0:0:0:
256,192,30803,1,8,0:0:0:0:
256,192,30884,1,8,0:0:0:0:
256,192,30965,1,0,0:0:0:0:
256,192,31127,1,0,0:0:0:0:
256,192,31289,1,8,0:0:0:0:
256,192,31451,1,0,0:0:0:0:
256,192,31532,1,0,0:0:0:0:
256,192,31613,1,8,0:0:0:0:
256,192,31775,1,0,0:0:0:0:
256,192,31938,1,8,0:0:0:0:
256,192,32100,1,0,0:0:0:0:
256,192,32424,1,0,0:0:0:0:
256,192,32586,1,8,0:0:0:0:
256,192,32748,1,0,0:0:0:0:
256,192,32830,1,0,0:0:0:0:
256,192,32911,1,8,0:0:0:0:
256,192,33073,1,0,0:0:0:0:
256,192,33235,1,8,0:0:0:0:
256,192,33397,1,0,0:0:0:0:
256,192,33478,1,0,0:0:0:0:
256,192,33559,1,0,0:0:0:0:
256,192,33721,1,0,0:0:0:0:
256,192,33884,1,8,0:0:0:0:
256,192,34046,1,0,0:0:0:0:
256,192,34370,1,0,0:0:0:0:
256,192,34532,1,8,0:0:0:0:
256,192,34694,1,8,0:0:0:0:
256,192,34857,1,0,0:0:0:0:
256,192,34938,1,0,0:0:0:0:
256,192,35019,1,0,0:0:0:0:
256,192,35100,1,0,0:0:0:0:
256,192,35181,1,8,0:0:0:0:
256,192,35343,1,8,0:0:0:0:
256,192,35424,1,8,0:0:0:0:
256,192,35505,1,0,0:0:0:0:
256,192,35830,1,8,0:0:0:0:
256,192,35992,1,8,0:0:0:0:
256,192,36154,1,0,0:0:0:0:
256,192,36478,1,12,0:0:0:0:
256,192,36803,1,0,0:0:0:0:
256,192,36965,1,0,0:0:0:0:
256,192,37127,1,8,0:0:0:0:
256,192,37289,1,8,0:0:0:0:
256,192,37451,1,0,0:0:0:0:
256,192,37775,1,12,0:0:0:0:
256,192,38100,1,0,0:0:0:0:
256,192,38262,1,0,0:0:0:0:
256,192,38424,1,8,0:0:0:0:
256,192,38586,1,8,0:0:0:0:
256,192,38748,1,0,0:0:0:0:
256,192,38911,1,0,0:0:0:0:
256,192,38992,1,0,0:0:0:0:
256,192,39073,1,8,0:0:0:0:
256,192,39235,1,0,0:0:0:0:
256,192,39397,1,12,0:0:0:0:
256,192,39559,1,12,0:0:0:0:
256,192,39884,1,4,0:0:0:0:
256,192,40208,1,12,0:0:0:0:
256,192,40532,1,8,0:0:0:0:
256,192,40613,1,8,0:0:0:0:
256,192,40694,1,0,0:0:0:0:
256,192,41019,1,8,0:0:0:0:
256,192,41343,1,8,0:0:0:0:
256,192,41667,1,0,0:0:0:0:
256,192,41830,1,8,0:0:0:0:
256,192,42154,1,8,0:0:0:0:
256,192,42478,1,0,0:0:0:0:
256,192,42640,1,8,0:0:0:0:
256,192,42803,1,0,0:0:0:0:
256,192,42965,1,8,0:0:0:0:
256,192,43127,1,8,0:0:0:0:
256,192,43289,1,0,0:0:0:0:
256,192,43613,1,8,0:0:0:0:
256,192,43938,1,8,0:0:0:0:
256,192,44262,1,0,0:0:0:0:
256,192,44424,1,8,0:0:0:0:
256,192,44748,1,8,0:0:0:0:
256,192,45073,1,0,0:0:0:0:
256,192,45235,1,8,0:0:0:0:
256,192,45397,1,0,0:0:0:0:
256,192,45559,1,8,0:0:0:0:
256,192,45721,1,0,0:0:0:0:
256,192,45803,1,0,0:0:0:0:
256,192,45884,1,8,0:0:0:0:
256,192,46208,1,8,0:0:0:0:
256,192,46370,1,4,0:0:0:0:
256,192,46694,1,8,0:0:0:0:
256,192,46857,1,4,0:0:0:0:
256,192,47181,1,8,0:0:0:0:
256,192,47397,1,0,0:0:0:0:
256,192,47505,1,8,0:0:0:0:
256,192,47613,1,8,0:0:0:0:
256,192,47721,1,0,0:0:0:0:
256,192,47830,1,8,0:0:0:0:
256,192,47938,1,8,0:0:0:0:
256,192,48046,1,0,0:0:0:0:
256,192,48154,1,8,0:0:0:0:
256,192,48803,1,8,0:0:0:0:
256,192,49127,1,0,0:0:0:0:
256,192,49289,1,8,0:0:0:0:
256,192,49451,1,8,0:0:0:0:
256,192,49613,1,8,0:0:0:0:
256,192,49775,1,4,0:0:0:0:
256,192,50424,1,8,0:0:0:0:
256,192,50748,1,0,0:0:0:0:
256,192,51073,1,4,0:0:0:0:
256,192,51397,1,8,0:0:0:0:
256,192,51559,1,0,0:0:0:0:
256,192,51640,1,0,0:0:0:0:
256,192,51721,1,8,0:0:0:0:
256,192,51884,1,0,0:0:0:0:
256,192,52046,1,8,0:0:0:0:
256,192,52208,1,0,0:0:0:0:
256,192,52289,1,0,0:0:0:0:
256,192,52370,1,8,0:0:0:0:
256,192,52532,1,0,0:0:0:0:
256,192,52694,1,8,0:0:0:0:
256,192,52857,1,8,0:0:0:0:
256,192,52938,1,8,0:0:0:0:
256,192,53019,1,0,0:0:0:0:
256,192,53100,1,0,0:0:0:0:
256,192,53181,1,0,0:0:0:0:
256,192,53343,1,8,0:0:0:0:
256,192,53505,1,0,0:0:0:0:
256,192,53586,1,0,0:0:0:0:
256,192,53667,1,8,0:0:0:0:
256,192,53830,1,0,0:0:0:0:
256,192,53992,1,8,0:0:0:0:
256,192,54154,1,8,0:0:0:0:
256,192,54478,1,8,0:0:0:0:
256,192,54640,1,0,0:0:0:0:
256,192,54803,1,0,0:0:0:0:
256,192,54884,1,0,0:0:0:0:
256,192,54965,1,8,0:0:0:0:
256,192,55127,1,0,0:0:0:0:
256,192,55289,1,8,0:0:0:0:
256,192,55451,1,8,0:0:0:0:
256,192,55532,1,8,0:0:0:0:
256,192,55613,1,0,0:0:0:0:
256,192,55775,1,0,0:0:0:0:
256,192,55938,1,8,0:0:0:0:
256,192,56100,1,0,0:0:0:0:
256,192,56262,1,4,0:0:0:0:
256,192,56586,1,8,0:0:0:0:
256,192,56748,1,0,0:0:0:0:
256,192,56830,1,0,0:0:0:0:
256,192,56911,1,8,0:0:0:0:
256,192,57073,1,0,0:0:0:0:
256,192,57235,1,8,0:0:0:0:
256,192,57397,1,0,0:0:0:0:
256,192,57559,1,8,0:0:0:0:
256,192,57640,1,8,0:0:0:0:
256,192,57721,1,0,0:0:0:0:
256,192,57803,1,0,0:0:0:0:
256,192,57884,1,8,0:0:0:0:
256,192,58046,1,0,0:0:0:0:
256,192,58127,1,0,0:0:0:0:
256,192,58208,1,0,0:0:0:0:
256,192,58370,1,0,0:0:0:0:
256,192,58532,1,8,0:0:0:0:
256,192,58694,1,0,0:0:0:0:
256,192,58775,1,0,0:0:0:0:
256,192,58857,1,8,0:0:0:0:
256,192,59019,1,8,0:0:0:0:
256,192,59181,1,0,0:0:0:0:
256,192,59343,1,8,0:0:0:0:
256,192,59667,1,0,0:0:0:0:
256,192,59830,1,8,0:0:0:0:
256,192,59992,1,0,0:0:0:0:
256,192,60073,1,0,0:0:0:0:
256,192,60154,1,8,0:0:0:0:
256,192,60316,1,0,0:0:0:0:
256,192,60478,1,8,0:0:0:0:
256,192,60640,1,8,0:0:0:0:
256,192,60721,1,8,0:0:0:0:
256,192,60803,1,0,0:0:0:0:
256,192,60965,1,0,0:0:0:0:
256,192,61127,1,8,0:0:0:0:
256,192,61289,1,8,0:0:0:0:
256,192,61451,1,4,0:0:0:0:
256,192,61775,1,8,0:0:0:0:
256,192,61938,1,8,0:0:0:0:
256,192,62019,1,8,0:0:0:0:
256,192,62100,1,0,0:0:0:0:
256,192,62262,1,0,0:0:0:0:
256,192,62424,1,8,0:0:0:0:
256,192,62748,1,0,0:0:0:0:
256,192,62911,1,0,0:0:0:0:
256,192,62992,1,0,0:0:0:0:
256,192,63073,1,8,0:0:0:0:
256,192,63235,1,8,0:0:0:0:
256,192,63397,1,0,0:0:0:0:
256,192,63559,1,0,0:0:0:0:
256,192,63721,1,8,0:0:0:0:
256,192,64046,1,8,0:0:0:0:
256,192,64208,1,0,0:0:0:0:
256,192,64370,1,8,0:0:0:0:
256,192,64532,1,8,0:0:0:0:
256,192,64613,1,8,0:0:0:0:
256,192,64694,1,0,0:0:0:0:
256,192,64857,1,0,0:0:0:0:
256,192,65019,1,8,0:0:0:0:
256,192,65181,1,0,0:0:0:0:
256,192,65262,1,0,0:0:0:0:
256,192,65343,1,8,0:0:0:0:
256,192,65505,1,0,0:0:0:0:
256,192,65667,1,8,0:0:0:0:
256,192,65830,1,8,0:0:0:0:
256,192,65992,1,0,0:0:0:0:
256,192,66154,1,8,0:0:0:0:
256,192,66235,1,8,0:0:0:0:
256,192,66316,1,0,0:0:0:0:
256,192,66478,1,8,0:0:0:0:
256,192,66640,1,4,0:0:0:0:
256,192,66965,1,8,0:0:0:0:
256,192,67127,1,0,0:0:0:0:
256,192,67208,1,0,0:0:0:0:
256,192,67289,1,8,0:0:0:0:
256,192,67451,1,0,0:0:0:0:
256,192,67613,1,8,0:0:0:0:
256,192,67775,1,0,0:0:0:0:
256,192,67857,1,0,0:0:0:0:
256,192,67938,1,8,0:0:0:0:
256,192,68019,1,8,0:0:0:0:
256,192,68100,1,0,0:0:0:0:
256,192,68262,1,8,0:0:0:0:
256,192,68424,1,0,0:0:0:0:
256,192,68505,1,0,0:0:0:0:
256,192,68586,1,0,0:0:0:0:
256,192,68748,1,0,0:0:0:0:
256,192,68911,1,8,0:0:0:0:
256,192,69073,1,0,0:0:0:0:
256,192,69154,1,8,0:0:0:0:
256,192,69235,1,8,0:0:0:0:
256,192,69397,1,0,0:0:0:0:
256,192,69559,1,8,0:0:0:0:
256,192,69721,1,8,0:0:0:0:
256,192,70046,1,8,0:0:0:0:
256,192,70208,1,0,0:0:0:0:
256,192,70370,1,0,0:0:0:0:
256,192,70451,1,0,0:0:0:0:
256,192,70532,1,8,0:0:0:0:
256,192,70694,1,0,0:0:0:0:
256,192,70857,1,8,0:0:0:0:
256,192,71019,1,8,0:0:0:0:
256,192,71100,1,8,0:0:0:0:
256,192,71181,1,0,0:0:0:0:
256,192,71343,1,0,0:0:0:0:
256,192,71505,1,8,0:0:0:0:
256,192,71667,1,0,0:0:0:0:
256,192,71830,1,4,0:0:0:0:
256,192,72154,1,8,0:0:0:0:
256,192,72316,1,0,0:0:0:0:
256,192,72397,1,0,0:0:0:0:
256,192,72478,1,8,0:0:0:0:
256,192,72640,1,0,0:0:0:0:
256,192,72803,1,8,0:0:0:0:
256,192,72965,1,0,0:0:0:0:
256,192,73127,1,8,0:0:0:0:
256,192,73208,1,8,0:0:0:0:
256,192,73289,1,0,0:0:0:0:
256,192,73370,1,0,0:0:0:0:
256,192,73451,1,8,0:0:0:0:
256,192,73613,1,8,0:0:0:0:
256,192,73694,1,8,0:0:0:0:
256,192,73775,1,0,0:0:0:0:
256,192,73938,1,0,0:0:0:0:
256,192,74100,1,8,0:0:0:0:
256,192,74262,1,0,0:0:0:0:
256,192,74343,1,0,0:0:0:0:
256,192,74424,1,8,0:0:0:0:
256,192,74586,1,8,0:0:0:0:
256,192,74748,1,0,0:0:0:0:
256,192,74911,1,8,0:0:0:0:
256,192,75235,1,0,0:0:0:0:
256,192,75397,1,8,0:0:0:0:
256,192,75559,1,0,0:0:0:0:
256,192,75640,1,0,0:0:0:0:
256,192,75721,1,8,0:0:0:0:
256,192,75884,1,0,0:0:0:0:
256,192,76046,1,8,0:0:0:0:
256,192,76208,1,8,0:0:0:0:
256,192,76289,1,0,0:0:0:0:
256,192,76370,1,8,0:0:0:0:
256,192,76451,1,8,0:0:0:0:
256,192,76532,1,0,0:0:0:0:
256,192,76694,1,8,0:0:0:0:
256,192,76857,1,8,0:0:0:0:
256,192,77019,1,4,0:0:0:0:
256,192,77343,1,8,0:0:0:0:
256,192,77505,1,8,0:0:0:0:
256,192,77586,1,8,0:0:0:0:
256,192,77667,1,0,0:0:0:0:
256,192,77830,1,0,0:0:0:0:
256,192,77992,1,12,0:0:0:0:
256,192,78316,1,0,0:0:0:0:
256,192,78478,1,0,0:0:0:0:
256,192,78559,1,0,0:0:0:0:
256,192,78640,1,8,0:0:0:0:
256,192,78803,1,8,0:0:0:0:
256,192,78965,1,0,0:0:0:0:
256,192,79046,1,0,0:0:0:0:
256,192,79127,1,0,0:0:0:0:
256,192,79289,1,8,0:0:0:0:
256,192,79613,1,4,0:0:0:0:
256,192,79938,1,8,0:0:0:0:
256,192,80100,1,8,0:0:0:0:
256,192,80181,1,8,0:0:0:0:
256,192,80262,1,0,0:0:0:0:
256,192,80424,1,0,0:0:0:0:
256,192,80586,1,12,0:0:0:0:
256,192,80911,1,0,0:0:0:0:
256,192,81073,1,0,0:0:0:0:
256,192,81235,1,8,0:0:0:0:
256,192,81397,1,8,0:0:0:0:
256,192,81559,1,0,0:0:0:0:
256,192,81721,1,8,0:0:0:0:
256,192,81803,1,8,0:0:0:0:
256,192,81884,1,0,0:0:0:0:
256,192,82046,1,8,0:0:0:0:
256,192,82208,1,4,0:0:0:0:
256,192,82532,1,8,0:0:0:0:
256,192,82694,1,8,0:0:0:0:
256,192,82857,1,0,0:0:0:0:
256,192,83019,1,0,0:0:0:0:
256,192,83100,1,0,0:0:0:0:
256,192,83181,1,8,0:0:0:0:
256,192,83343,1,4,0:0:0:0:
256,192,83667,1,0,0:0:0:0:
256,192,83830,1,8,0:0:0:0:
256,192,83992,1,4,0:0:0:0:
256,192,84316,1,8,0:0:0:0:
256,192,84397,1,8,0:0:0:0:
256,192,84478,1,0,0:0:0:0:
256,192,84640,1,8,0:0:0:0:
256,192,84721,1,0,0:0:0:0:
256,192,84803,1,8,0:0:0:0:
256,192,85127,1,8,0:0:0:0:
256,192,85289,1,4,0:0:0:0:
256,192,85613,1,0,0:0:0:0:
256,192,85775,1,12,0:0:0:0:
256,192,86100,1,0,0:0:0:0:
256,192,86262,1,8,0:0:0:0:
256,192,86424,1,4,0:0:0:0:
256,192,86586,1,0,0:0:0:0:
256,192,86667,1,0,0:0:0:0:
256,192,86748,1,8,0:0:0:0:
256,192,86911,1,8,0:0:0:0:
256,192,87073,1,4,0:0:0:0:
256,192,87559,1,0,0:0:0:0:
256,192,87721,1,8,0:0:0:0:
256,192,88046,1,0,0:0:0:0:
256,192,88208,1,0,0:0:0:0:
256,192,88289,1,0,0:0:0:0:
256,192,88370,1,8,0:0:0:0:
256,192,88532,1,0,0:0:0:0:
256,192,88694,1,12,0:0:0:0:
256,192,89343,1,4,0:0:0:0:
256,192,89667,1,8,0:0:0:0:
256,192,89830,1,0,0:0:0:0:
256,192,89992,1,8,0:0:0:0:
256,192,90316,1,8,0:0:0:0:
256,192,90478,1,8,0:0:0:0:
256,192,90640,1,0,0:0:0:0:
256,192,90803,1,0,0:0:0:0:
256,192,90965,1,8,0:0:0:0:
256,192,91127,1,0,0:0:0:0:
256,192,91451,1,0,0:0:0:0:
256,192,91613,1,8,0:0:0:0:
256,192,91775,1,0,0:0:0:0:
256,192,91857,1,0,0:0:0:0:
256,192,91938,1,8,0:0:0:0:
256,192,92100,1,0,0:0:0:0:
256,192,92262,1,8,0:0:0:0:
256,192,92424,1,8,0:0:0:0:
256,192,92748,1,0,0:0:0:0:
256,192,92911,1,8,0:0:0:0:
256,192,93073,1,0,0:0:0:0:
256,192,93154,1,0,0:0:0:0:
256,192,93235,1,0,0:0:0:0:
256,192,93397,1,0,0:0:0:0:
256,192,93559,1,8,0:0:0:0:
256,192,93721,1,0,0:0:0:0:
256,192,94046,1,0,0:0:0:0:
256,192,94208,1,8,0:0:0:0:
256,192,94370,1,0,0:0:0:0:
256,192,94451,1,0,0:0:0:0:
256,192,94532,1,8,0:0:0:0:
256,192,94694,1,0,0:0:0:0:
256,192,94857,1,8,0:0:0:0:
256,192,95019,1,0,0:0:0:0:
256,192,95100,1,8,0:0:0:0:
256,192,95181,1,8,0:0:0:0:
256,192,95343,1,0,0:0:0:0:
256,192,95505,1,8,0:0:0:0:
256,192,95667,1,8,0:0:0:0:
256,192,95830,1,0,0:0:0:0:
256,192,95992,1,0,0:0:0:0:
256,192,96154,1,8,0:0:0:0:
256,192,96316,1,0,0:0:0:0:
256,192,96397,1,0,0:0:0:0:
256,192,96478,1,0,0:0:0:0:
256,192,96640,1,8,0:0:0:0:
256,192,96803,1,8,0:0:0:0:
256,192,96965,1,0,0:0:0:0:
256,192,97046,1,0,0:0:0:0:
256,192,97127,1,8,0:0:0:0:
256,192,97451,1,8,0:0:0:0:
256,192,97613,1,0,0:0:0:0:
256,192,97775,1,8,0:0:0:0:
256,192,97938,1,0,0:0:0:0:
256,192,98100,1,8,0:0:0:0:
256,192,98262,1,8,0:0:0:0:
256,192,98343,1,8,0:0:0:0:
256,192,98424,1,0,0:0:0:0:
256,192,98586,1,0,0:0:0:0:
256,192,98748,1,8,0:0:0:0:
256,192,98911,1,0,0:0:0:0:
256,192,99073,1,0,0:0:0:0:
256,192,99235,1,8,0:0:0:0:
256,192,99397,1,8,0:0:0:0:
256,192,99559,1,0,0:0:0:0:
256,192,99640,1,8,0:0:0:0:
256,192,99721,1,8,0:0:0:0:
256,192,99803,1,0,0:0:0:0:
256,192,99884,1,0,0:0:0:0:
256,192,99965,1,0,0:0:0:0:
256,192,100046,1,8,0:0:0:0:
256,192,100208,1,0,0:0:0:0:
256,192,100370,1,4,0:0:0:0:
256,192,100694,1,8,0:0:0:0:
256,192,100857,1,8,0:0:0:0:
256,192,100938,1,0,0:0:0:0:
256,192,101019,1,8,0:0:0:0:
256,192,101181,1,0,0:0:0:0:
256,192,101343,1,8,0:0:0:0:
256,192,101505,1,0,0:0:0:0:
256,192,101586,1,0,0:0:0:0:
256,192,101667,1,0,0:0:0:0:
256,192,101830,1,0,0:0:0:0:
256,192,101992,1,8,0:0:0:0:
256,192,102154,1,0,0:0:0:0:
256,192,102235,1,0,0:0:0:0:
256,192,102316,1,8,0:0:0:0:
256,192,102478,1,0,0:0:0:0:
256,192,102640,1,8,0:0:0:0:
256,192,102803,1,8,0:0:0:0:
256,192,102884,1,8,0:0:0:0:
256,192,102965,1,0,0:0:0:0:
256,192,103127,1,0,0:0:0:0:
256,192,103289,1,8,0:0:0:0:
256,192,103451,1,0,0:0:0:0:
256,192,103532,1,0,0:0:0:0:
256,192,103613,1,8,0:0:0:0:
256,192,103775,1,0,0:0:0:0:
256,192,103938,1,8,0:0:0:0:
256,192,104100,1,0,0:0:0:0:
256,192,104424,1,0,0:0:0:0:
256,192,104586,1,8,0:0:0:0:
256,192,104748,1,8,0:0:0:0:
256,192,104911,1,0,0:0:0:0:
256,192,104992,1,0,0:0:0:0:
256,192,105073,1,0,0:0:0:0:
256,192,105154,1,0,0:0:0:0:
256,192,105235,1,8,0:0:0:0:
256,192,105397,1,8,0:0:0:0:
256,192,105478,1,8,0:0:0:0:
256,192,105559,1,0,0:0:0:0:
256,192,105884,1,8,0:0:0:0:
256,192,106046,1,8,0:0:0:0:
256,192,106208,1,0,0:0:0:0:
256,192,106532,1,12,0:0:0:0:
256,192,106857,1,0,0:0:0:0:
256,192,107019,1,0,0:0:0:0:
256,192,107181,1,8,0:0:0:0:
256,192,107343,1,8,0:0:0:0:
256,192,107505,1,0,0:0:0:0:
256,192,107830,1,12,0:0:0:0:
256,192,108154,1,0,0:0:0:0:
256,192,108235,1,0,0:0:0:0:
256,192,108316,1,0,0:0:0:0:
256,192,108478,1,8,0:0:0:0:
256,192,108640,1,8,0:0:0:0:
256,192,108803,1,0,0:0:0:0:
256,192,108884,1,0,0:0:0:0:
256,192,108965,1,0,0:0:0:0:
256,192,109046,1,0,0:0:0:0:
256,192,109127,1,8,0:0:0:0:
256,192,109289,1,0,0:0:0:0:
256,192,109451,1,12,0:0:0:0:
256,192,109775,1,0,0:0:0:0:
256,192,109938,1,12,0:0:0:0:
256,192,110262,1,0,0:0:0:0:
256,192,110424,1,12,0:0:0:0:
256,192,110586,1,8,0:0:0:0:
256,192,110667,1,8,0:0:0:0:
256,192,110748,1,0,0:0:0:0:
256,192,110911,1,0,0:0:0:0:
256,192,111073,1,8,0:0:0:0:
256,192,111235,1,0,0:0:0:0:
256,192,111397,1,8,0:0:0:0:
256,192,111721,1,0,0:0:0:0:
256,192,111884,1,8,0:0:0:0:
256,192,112208,1,8,0:0:0:0:
256,192,112532,1,0,0:0:0:0:
256,192,112694,1,8,0:0:0:0:
256,192,113019,1,8,0:0:0:0:
256,192,113343,1,0,0:0:0:0:
256,192,113505,1,0,0:0:0:0:
256,192,113667,1,8,0:0:0:0:
256,192,113830,1,0,0:0:0:0:
256,192,113992,1,8,0:0:0:0:
256,192,114316,1,0,0:0:0:0:
256,192,114478,1,8,0:0:0:0:
256,192,114803,1,8,0:0:0:0:
256,192,115127,1,0,0:0:0:0:
256,192,115289,1,8,0:0:0:0:
256,192,115451,1,0,0:0:0:0:
256,192,115532,1,0,0:0:0:0:
256,192,115613,1,8,0:0:0:0:
256,192,115694,1,8,0:0:0:0:
256,192,115775,1,0,0:0:0:0:
256,192,115857,1,0,0:0:0:0:
256,192,115938,1,8,0:0:0:0:
256,192,116262,1,8,0:0:0:0:
256,192,116424,1,4,0:0:0:0:
256,192,116748,1,8,0:0:0:0:
256,192,116911,1,4,0:0:0:0:
256,192,117235,1,8,0:0:0:0:
256,192,117397,1,0,0:0:0:0:
256,192,117559,1,8,0:0:0:0:
256,192,117721,1,8,0:0:0:0:
256,192,117803,1,8,0:0:0:0:
256,192,117884,1,0,0:0:0:0:
256,192,118046,1,0,0:0:0:0:
256,192,118208,1,12,0:0:0:0:
256,192,118532,1,8,0:0:0:0:
256,192,118694,1,0,0:0:0:0:
256,192,118857,1,8,0:0:0:0:
256,192,119181,1,0,0:0:0:0:
256,192,119343,1,8,0:0:0:0:
256,192,119505,1,8,0:0:0:0:
256,192,119586,1,8,0:0:0:0:
256,192,119667,1,8,0:0:0:0:
256,192,119830,1,4,0:0:0:0:
256,192,119992,1,4,0:0:0:0:
256,192,120478,1,8,0:0:0:0:
256,192,120640,1,8,0:0:0:0:
256,192,120721,1,8,0:0:0:0:
256,192,120803,1,0,0:0:0:0:
256,192,120965,1,8,0:0:0:0:
256,192,121127,1,4,0:0:0:0:
256,192,121451,1,8,0:0:0:0:
256,192,121613,1,0,0:0:0:0:
256,192,121694,1,0,0:0:0:0:
256,192,121775,1,8,0:0:0:0:
256,192,121938,1,0,0:0:0:0:
256,192,122100,1,8,0:0:0:0:
256,192,122262,1,0,0:0:0:0:
256,192,122343,1,0,0:0:0:0:
256,192,122424,1,8,0:0:0:0:
256,192,122505,1,8,0:0:0:0:
256,192,122586,1,0,0:0:0:0:
256,192,122748,1,8,0:0:0:0:
256,192,122911,1,8,0:0:0:0:
256,192,122992,1,0,0:0:0:0:
256,192,123073,1,8,0:0:0:0:
256,192,123154,1,8,0:0:0:0:
256,192,123235,1,0,0:0:0:0:
256,192,123397,1,8,0:0:0:0:
256,192,123559,1,0,0:0:0:0:
256,192,123640,1,0,0:0:0:0:
256,192,123721,1,8,0:0:0:0:
256,192,123884,1,0,0:0:0:0:
256,192,124046,1,8,0:0:0:0:
256,192,124208,1,8,0:0:0:0:
256,192,124532,1,8,0:0:0:0:
256,192,124694,1,0,0:0:0:0:
256,192,124857,1,0,0:0:0:0:
256,192,124938,1,0,0:0:0:0:
256,192,125019,1,8,0:0:0:0:
256,192,125181,1,0,0:0:0:0:
256,192,125343,1,8,0:0:0:0:
256,192,125505,1,8,0:0:0:0:
256,192,125586,1,8,0:0:0:0:
256,192,125667,1,0,0:0:0:0:
256,192,125830,1,0,0:0:0:0:
256,192,125992,1,8,0:0:0:0:
256,192,126154,1,0,0:0:0:0:
256,192,126316,1,4,0:0:0:0:
256,192,126640,1,8,0:0:0:0:
256,192,126803,1,0,0:0:0:0:
256,192,126884,1,0,0:0:0:0:
256,192,126965,1,8,0:0:0:0:
256,192,127127,1,0,0:0:0:0:
256,192,127289,1,8,0:0:0:0:
256,192,127451,1,0,0:0:0:0:
256,192,127613,1,8,0:0:0:0:
256,192,127694,1,8,0:0:0:0:
256,192,127775,1,0,0:0:0:0:
256,192,127857,1,0,0:0:0:0:
256,192,127938,1,8,0:0:0:0:
256,192,128100,1,0,0:0:0:0:
256,192,128181,1,0,0:0:0:0:
256,192,128262,1,0,0:0:0:0:
256,192,128424,1,0,0:0:0:0:
256,192,128586,1,8,0:0:0:0:
256,192,128748,1,0,0:0:0:0:
256,192,128830,1,0,0:0:0:0:
256,192,128911,1,8,0:0:0:0:
256,192,129073,1,8,0:0:0:0:
256,192,129235,1,0,0:0:0:0:
256,192,129397,1,8,0:0:0:0:
256,192,129721,1,0,0:0:0:0:
256,192,129884,1,8,0:0:0:0:
256,192,130046,1,0,0:0:0:0:
256,192,130127,1,0,0:0:0:0:
256,192,130208,1,8,0:0:0:0:
256,192,130370,1,0,0:0:0:0:
256,192,130532,1,8,0:0:0:0:
256,192,130694,1,8,0:0:0:0:
256,192,130775,1,0,0:0:0:0:
256,192,130857,1,8,0:0:0:0:
256,192,130938,1,8,0:0:0:0:
256,192,131019,1,0,0:0:0:0:
256,192,131181,1,8,0:0:0:0:
256,192,131343,1,8,0:0:0:0:
256,192,131505,1,4,0:0:0:0:
256,192,131830,1,8,0:0:0:0:
256,192,131992,1,8,0:0:0:0:
256,192,132073,1,8,0:0:0:0:
256,192,132154,1,0,0:0:0:0:
256,192,132316,1,0,0:0:0:0:
256,192,132478,1,8,0:0:0:0:
256,192,132803,1,0,0:0:0:0:
256,192,132965,1,0,0:0:0:0:
256,192,133046,1,0,0:0:0:0:
256,192,133127,1,8,0:0:0:0:
256,192,133289,1,8,0:0:0:0:
256,192,133451,1,0,0:0:0:0:
256,192,133613,1,0,0:0:0:0:
256,192,133775,1,8,0:0:0:0:
256,192,134100,1,8,0:0:0:0:
256,192,134262,1,0,0:0:0:0:
256,192,134424,1,8,0:0:0:0:
256,192,134586,1,8,0:0:0:0:
256,192,134667,1,8,0:0:0:0:
256,192,134748,1,0,0:0:0:0:
256,192,134911,1,0,0:0:0:0:
256,192,135073,1,8,0:0:0:0:
256,192,135235,1,0,0:0:0:0:
256,192,135316,1,0,0:0:0:0:
256,192,135397,1,8,0:0:0:0:
256,192,135478,1,8,0:0:0:0:
256,192,135559,1,0,0:0:0:0:
256,192,135721,1,8,0:0:0:0:
256,192,135884,1,8,0:0:0:0:
256,192,136046,1,0,0:0:0:0:
256,192,136208,1,8,0:0:0:0:
256,192,136289,1,8,0:0:0:0:
256,192,136370,1,0,0:0:0:0:
256,192,136532,1,8,0:0:0:0:
256,192,136694,1,4,0:0:0:0:
256,192,137019,1,8,0:0:0:0:
256,192,137181,1,0,0:0:0:0:
256,192,137262,1,0,0:0:0:0:
256,192,137343,1,8,0:0:0:0:
256,192,137505,1,0,0:0:0:0:
256,192,137667,1,8,0:0:0:0:
256,192,137830,1,0,0:0:0:0:
256,192,137911,1,0,0:0:0:0:
256,192,137992,1,8,0:0:0:0:
256,192,138073,1,8,0:0:0:0:
256,192,138154,1,0,0:0:0:0:
256,192,138316,1,8,0:0:0:0:
256,192,138478,1,0,0:0:0:0:
256,192,138559,1,8,0:0:0:0:
256,192,138640,1,0,0:0:0:0:
256,192,138803,1,0,0:0:0:0:
256,192,138965,1,8,0:0:0:0:
256,192,139127,1,8,0:0:0:0:
256,192,139208,1,0,0:0:0:0:
256,192,139289,1,8,0:0:0:0:
256,192,139451,1,0,0:0:0:0:
256,192,139613,1,8,0:0:0:0:
256,192,139775,1,8,0:0:0:0:
256,192,140100,1,8,0:0:0:0:
256,192,140262,1,0,0:0:0:0:
256,192,140424,1,0,0:0:0:0:
256,192,140505,1,0,0:0:0:0:
256,192,140586,1,8,0:0:0:0:
256,192,140748,1,0,0:0:0:0:
256,192,140911,1,8,0:0:0:0:
256,192,141073,1,8,0:0:0:0:
256,192,141154,1,8,0:0:0:0:
256,192,141235,1,0,0:0:0:0:
256,192,141397,1,0,0:0:0:0:
256,192,141559,1,8,0:0:0:0:
256,192,141721,1,0,0:0:0:0:
256,192,141884,1,4,0:0:0:0:
256,192,142208,1,8,0:0:0:0:
256,192,142370,1,0,0:0:0:0:
256,192,142451,1,0,0:0:0:0:
256,192,142532,1,8,0:0:0:0:
256,192,142694,1,0,0:0:0:0:
256,192,142857,1,8,0:0:0:0:
256,192,143019,1,0,0:0:0:0:
256,192,143181,1,8,0:0:0:0:
256,192,143262,1,8,0:0:0:0:
256,192,143343,1,0,0:0:0:0:
256,192,143424,1,0,0:0:0:0:
256,192,143505,1,8,0:0:0:0:
256,192,143667,1,8,0:0:0:0:
256,192,143748,1,8,0:0:0:0:
256,192,143830,1,0,0:0:0:0:
256,192,143992,1,0,0:0:0:0:
256,192,144154,1,8,0:0:0:0:
256,192,144316,1,0,0:0:0:0:
256,192,144397,1,0,0:0:0:0:
256,192,144478,1,8,0:0:0:0:
256,192,144640,1,8,0:0:0:0:
256,192,144803,1,0,0:0:0:0:
256,192,144965,1,8,0:0:0:0:
256,192,145046,1,8,0:0:0:0:
256,192,145127,1,0,0:0:0:0:
256,192,145289,1,0,0:0:0:0:
256,192,145451,1,8,0:0:0:0:
256,192,145613,1,0,0:0:0:0:
256,192,145694,1,0,0:0:0:0:
256,192,145775,1,8,0:0:0:0:
256,192,145938,1,0,0:0:0:0:
256,192,146100,1,8,0:0:0:0:
256,192,146262,1,8,0:0:0:0:
256,192,146343,1,0,0:0:0:0:
256,192,146424,1,8,0:0:0:0:
256,192,146505,1,8,0:0:0:0:
256,192,146586,1,0,0:0:0:0:
256,192,146748,1,8,0:0:0:0:
256,192,146911,1,8,0:0:0:0:
256,192,147073,1,4,0:0:0:0:
256,192,147397,1,8,0:0:0:0:
256,192,147559,1,8,0:0:0:0:
256,192,147640,1,8,0:0:0:0:
256,192,147721,1,0,0:0:0:0:
256,192,147884,1,0,0:0:0:0:
256,192,148046,1,12,0:0:0:0:
256,192,148370,1,0,0:0:0:0:
256,192,148532,1,0,0:0:0:0:
256,192,148613,1,0,0:0:0:0:
256,192,148694,1,8,0:0:0:0:
256,192,148857,1,8,0:0:0:0:
256,192,149019,1,0,0:0:0:0:
256,192,149100,1,0,0:0:0:0:
256,192,149181,1,0,0:0:0:0:
256,192,149343,1,8,0:0:0:0:
256,192,149667,1,4,0:0:0:0:
256,192,149992,1,8,0:0:0:0:
256,192,150154,1,8,0:0:0:0:
256,192,150235,1,8,0:0:0:0:
256,192,150316,1,0,0:0:0:0:
256,192,150478,1,0,0:0:0:0:
256,192,150640,1,12,0:0:0:0:
256,192,150965,1,0,0:0:0:0:
256,192,151127,1,0,0:0:0:0:
256,192,151289,1,8,0:0:0:0:
256,192,151451,1,8,0:0:0:0:
256,192,151613,1,0,0:0:0:0:
256,192,151775,1,8,0:0:0:0:
256,192,151857,1,8,0:0:0:0:
256,192,151938,1,0,0:0:0:0:
256,192,152100,1,8,0:0:0:0:
256,192,152262,1,4,0:0:0:0:
256,192,152586,1,8,0:0:0:0:
256,192,152748,1,8,0:0:0:0:
256,192,152911,1,0,0:0:0:0:
256,192,153073,1,0,0:0:0:0:
256,192,153154,1,0,0:0:0:0:
256,192,153235,1,8,0:0:0:0:
256,192,153397,1,4,0:0:0:0:
256,192,153721,1,0,0:0:0:0:
256,192,153884,1,8,0:0:0:0:
256,192,154046,1,4,0:0:0:0:
256,192,154370,1,8,0:0:0:0:
256,192,154451,1,8,0:0:0:0:
256,192,154532,1,0,0:0:0:0:
256,192,154694,1,8,0:0:0:0:
256,192,154775,1,8,0:0:0:0:
256,192,154857,1,0,0:0:0:0:
256,192,155181,1,8,0:0:0:0:
256,192,155343,1,0,0:0:0:0:
256,192,155505,1,8,0:0:0:0:
256,192,155830,1,0,0:0:0:0:
256,192,155992,1,0,0:0:0:0:
256,192,156154,1,8,0:0:0:0:
256,192,156316,1,8,0:0:0:0:
256,192,156478,1,0,0:0:0:0:
256,192,156640,1,0,0:0:0:0:
256,192,156721,1,0,0:0:0:0:
256,192,156803,1,8,0:0:0:0:
256,192,156965,1,8,0:0:0:0:
256,192,157127,1,0,0:0:0:0:
256,192,157451,1,8,0:0:0:0:
256,192,157613,1,0,0:0:0:0:
256,192,157775,1,8,0:0:0:0:
256,192,157938,1,8,0:0:0:0:
256,192,158100,1,0,0:0:0:0:
256,192,158262,1,0,0:0:0:0:
256,192,158343,1,0,0:0:0:0:
256,192,158424,1,8,0:0:0:0:
256,192,158586,1,0,0:0:0:0:
256,192,158748,1,8,0:0:0:0:
256,192,158911,1,8,0:0:0:0:
256,192,159073,1,0,0:0:0:0:
256,192,159397,1,8,0:0:0:0:
256,192,159721,1,8,0:0:0:0:
256,192,159884,1,0,0:0:0:0:
256,192,160046,1,8,0:0:0:0:
256,192,160370,1,8,0:0:0:0:
256,192,160532,1,8,0:0:0:0:
256,192,160694,1,8,0:0:0:0:
256,192,160857,1,0,0:0:0:0:
256,192,161181,1,8,0:0:0:0:
256,192,161343,1,0,0:0:0:0:
256,192,161505,1,8,0:0:0:0:
256,192,161667,1,8,0:0:0:0:
256,192,161830,1,0,0:0:0:0:
256,192,161992,1,8,0:0:0:0:
256,192,162235,1,8,0:0:0:0:
256,192,162316,1,0,0:0:0:0:
256,192,162478,1,8,0:0:0:0:
256,192,162559,1,8,0:0:0:0:
256,192,162640,1,0,0:0:0:0:
256,192,162803,1,0,0:0:0:0:
256,192,162965,1,8,0:0:0:0:
256,192,163127,1,8,0:0:0:0:
256,192,163289,1,0,0:0:0:0:
256,192,163451,1,0,0:0:0:0:
256,192,163613,1,8,0:0:0:0:
256,192,163775,1,0,0:0:0:0:
256,192,163938,1,0,0:0:0:0:
256,192,164100,1,0,0:0:0:0:
256,192,164262,1,8,0:0:0:0:
256,192,164424,1,8,0:0:0:0:
256,192,164586,1,0,0:0:0:0:
256,192,164748,1,0,0:0:0:0:
256,192,164911,1,8,0:0:0:0:
256,192,165073,1,0,0:0:0:0:
256,192,165235,1,0,0:0:0:0:
256,192,165397,1,0,0:0:0:0:
256,192,165559,1,8,0:0:0:0:
256,192,165721,1,8,0:0:0:0:
256,192,165884,1,0,0:0:0:0:
256,192,166046,1,0,0:0:0:0:
256,192,166208,1,8,0:0:0:0:
256,192,166370,1,0,0:0:0:0:
256,192,166451,1,0,0:0:0:0:
256,192,166532,1,8,0:0:0:0:
256,192,166694,1,0,0:0:0:0:
256,192,166857,1,8,0:0:0:0:
256,192,167019,1,8,0:0:0:0:
256,192,167181,1,12,0:0:0:0:
256,192,167424,1,0,0:0:0:0:
256,192,167505,1,8,0:0:0:0:
256,192,167667,1,8,0:0:0:0:
256,192,167830,1,4,0:0:0:0:
256,192,168154,1,8,0:0:0:0:
256,192,168316,1,0,0:0:0:0:
256,192,168397,1,0,0:0:0:0:
256,192,168478,1,0,0:0:0:0:
256,192,168640,1,0,0:0:0:0:
256,192,168803,1,12,0:0:0:0:
256,192,169127,1,0,0:0:0:0:
256,192,169289,1,8,0:0:0:0:
256,192,169451,1,0,0:0:0:0:
256,192,169613,1,0,0:0:0:0:
256,192,169775,1,8,0:0:0:0:
256,192,169938,1,0,0:0:0:0:
256,192,170019,1,0,0:0:0:0:
256,192,170100,1,8,0:0:0:0:
256,192,170262,1,8,0:0:0:0:
256,192,170424,1,4,0:0:0:0:
256,192,170748,1,8,0:0:0:0:
256,192,170911,1,8,0:0:0:0:
256,192,171073,1,0,0:0:0:0:
256,192,171397,1,8,0:0:0:0:
256,192,171559,1,0,0:0:0:0:
256,192,171721,1,8,0:0:0:0:
256,192,171884,1,0,0:0:0:0:
256,192,171965,1,0,0:0:0:0:
256,192,172046,1,8,0:0:0:0:
256,192,172208,1,0,0:0:0:0:
256,192,172370,1,8,0:0:0:0:
256,192,172451,1,8,0:0:0:0:
256,192,172532,1,0,0:0:0:0:
256,192,172613,1,0,0:0:0:0:
256,192,172694,1,8,0:0:0:0:
256,192,172857,1,4,0:0:0:0:
256,192,173343,1,8,0:0:0:0:
256,192,173667,1,0,0:0:0:0:
256,192,173992,1,0,0:0:0:0:
256,192,174154,1,8,0:0:0:0:
256,192,174478,1,0,0:0:0:0:
256,192,174640,1,8,0:0:0:0:
256,192,174803,1,0,0:0:0:0:
256,192,174965,1,8,0:0:0:0:
256,192,175127,1,8,0:0:0:0:
256,192,175451,1,8,0:0:0:0:
256,192,175532,1,8,0:0:0:0:
256,192,175613,1,0,0:0:0:0:
256,192,175938,1,8,0:0:0:0:
256,192,176262,1,0,0:0:0:0:
256,192,176424,1,0,0:0:0:0:
256,192,176748,1,8,0:0:0:0:
256,192,177073,1,0,0:0:0:0:
256,192,177397,1,8,0:0:0:0:
256,192,177721,1,8,0:0:0:0:
256,192,177884,1,8,0:0:0:0:
256,192,178046,1,0,0:0:0:0:
256,192,178127,1,0,0:0:0:0:
256,192,178208,1,0,0:0:0:0:
256,192,178532,1,8,0:0:0:0:
256,192,178857,1,0,0:0:0:0:
256,192,179019,1,0,0:0:0:0:
256,192,179181,1,8,0:0:0:0:
256,192,179343,1,0,0:0:0:0:
256,192,179505,1,8,0:0:0:0:
256,192,179667,1,8,0:0:0:0:
256,192,179992,1,8,0:0:0:0:
256,192,180316,1,0,0:0:0:0:
256,192,180478,1,8,0:0:0:0:
256,192,180640,1,0,0:0:0:0:
256,192,180721,1,0,0:0:0:0:
256,192,180803,1,0,0:0:0:0:
256,192,181127,1,8,0:0:0:0:
256,192,181451,1,0,0:0:0:0:
256,192,181532,1,0,0:0:0:0:
256,192,181613,1,0,0:0:0:0:
256,192,181694,1,0,0:0:0:0:
256,192,181775,1,8,0:0:0:0:
256,192,181938,1,0,0:0:0:0:
256,192,182019,1,0,0:0:0:0:
256,192,182100,1,8,0:0:0:0:
256,192,182262,1,0,0:0:0:0:
256,192,182343,1,0,0:0:0:0:
256,192,182424,1,8,0:0:0:0:
256,192,182586,1,0,0:0:0:0:
256,192,182667,1,0,0:0:0:0:
256,192,182748,1,8,0:0:0:0:
256,192,182830,1,8,0:0:0:0:
256,192,182911,1,0,0:0:0:0:
256,192,182992,1,0,0:0:0:0:
256,192,183073,1,8,0:0:0:0:
256,192,183235,1,8,0:0:0:0:
256,192,183316,1,8,0:0:0:0:
256,192,183397,1,0,0:0:0:0:
256,192,183721,1,8,0:0:0:0:
256,192,183884,1,8,0:0:0:0:
256,192,184046,1,0,0:0:0:0:
256,192,184208,1,0,0:0:0:0:
256,192,184370,1,8,0:0:0:0:
256,192,184694,1,0,0:0:0:0:
256,192,184857,1,0,0:0:0:0:
256,192,185019,1,8,0:0:0:0:
256,192,185181,1,8,0:0:0:0:
256,192,185343,1,0,0:0:0:0:
256,192,185667,1,0,0:0:0:0:
256,192,185992,1,8,0:0:0:0:
256,192,186316,1,8,0:0:0:0:
256,192,186478,1,0,0:0:0:0:
256,192,186803,1,0,0:0:0:0:
256,192,186965,1,8,0:0:0:0:
256,192,187289,1,8,0:0:0:0:
256,192,187532,1,8,0:0:0:0:
256,192,187775,1,0,0:0:0:0:
256,192,187938,1,8,0:0:0:0:
256,192,188100,1,0,0:0:0:0:
256,192,188181,1,8,0:0:0:0:
256,192,188262,1,8,0:0:0:0:
256,192,188424,1,0,0:0:0:0:
256,192,188505,1,0,0:0:0:0:
256,192,188586,1,0,0:0:0:0:
256,192,188911,1,8,0:0:0:0:
256,192,189073,1,8,0:0:0:0:
256,192,189235,1,0,0:0:0:0:
256,192,189397,1,0,0:0:0:0:
256,192,189559,1,12,0:0:0:0:
256,192,189884,1,0,0:0:0:0:
256,192,190046,1,8,0:0:0:0:
256,192,190208,1,8,0:0:0:0:
256,192,190451,1,8,0:0:0:0:
256,192,190532,1,0,0:0:0:0:
256,192,190694,1,8,0:0:0:0:
256,192,190857,1,0,0:0:0:0:
256,192,191019,1,0,0:0:0:0:
256,192,191181,1,8,0:0:0:0:
256,192,191505,1,8,0:0:0:0:
256,192,191667,1,8,0:0:0:0:
256,192,191830,1,0,0:0:0:0:
256,192,191992,1,0,0:0:0:0:
256,192,192154,1,12,0:0:0:0:
256,192,192803,1,8,0:0:0:0:
256,192,193451,1,8,0:0:0:0:
256,192,193775,1,0,0:0:0:0:
256,192,196370,1,0,0:0:0:0:
256,192,196694,1,8,0:0:0:0:
256,192,197019,1,8,0:0:0:0:
256,192,197343,1,0,0:0:0:0:
256,192,197667,1,8,0:0:0:0:
256,192,197992,1,8,0:0:0:0:
256,192,198316,1,0,0:0:0:0:
256,192,198640,1,0,0:0:0:0:
256,192,198965,1,8,0:0:0:0:
256,192,199289,1,0,0:0:0:0:
256,192,199451,1,8,0:0:0:0:
256,192,199775,1,8,0:0:0:0:
256,192,200100,1,0,0:0:0:0:
256,192,200911,1,8,0:0:0:0:
256,192,201235,1,8,0:0:0:0:
256,192,201559,1,0,0:0:0:0:
256,192,201884,1,8,0:0:0:0:
256,192,202208,1,8,0:0:0:0:
256,192,202532,1,0,0:0:0:0:
256,192,202857,1,8,0:0:0:0:
256,192,203181,1,8,0:0:0:0:
256,192,203505,1,0,0:0:0:0:
256,192,203830,1,8,0:0:0:0:
256,192,204154,1,8,0:0:0:0:
256,192,204478,1,0,0:0:0:0:
256,192,204640,1,8,0:0:0:0:
256,192,204965,1,0,0:0:0:0:
256,192,205289,1,0,0:0:0:0:
256,192,206100,1,0,0:0:0:0:
256,192,206262,1,0,0:0:0:0:
256,192,206343,1,0,0:0:0:0:
256,192,206424,1,8,0:0:0:0:
256,192,206748,1,4,0:0:0:0:
256,192,207235,1,8,0:0:0:0:
256,192,207397,1,8,0:0:0:0:
256,192,207559,1,0,0:0:0:0:
256,192,207721,1,4,0:0:0:0:
256,192,208208,1,8,0:0:0:0:
256,192,208370,1,0,0:0:0:0:
256,192,208451,1,0,0:0:0:0:
256,192,208532,1,0,0:0:0:0:
256,192,208694,1,8,0:0:0:0:
256,192,208857,1,0,0:0:0:0:
256,192,209019,1,8,0:0:0:0:
256,192,209181,1,8,0:0:0:0:
256,192,209343,1,12,0:0:0:0:
256,192,209667,1,0,0:0:0:0:
256,192,209830,1,8,0:0:0:0:
256,192,209992,1,4,0:0:0:0:
256,192,210316,1,8,0:0:0:0:
256,192,210478,1,0,0:0:0:0:
256,192,210640,1,12,0:0:0:0:
256,192,210965,1,8,0:0:0:0:
256,192,211127,1,0,0:0:0:0:
256,192,211289,1,8,0:0:0:0:
256,192,211451,1,8,0:0:0:0:
256,192,211613,1,0,0:0:0:0:
256,192,211694,1,0,0:0:0:0:
256,192,211775,1,0,0:0:0:0:
256,192,211938,1,8,0:0:0:0:
256,192,212154,1,0,0:0:0:0:
256,192,212262,1,8,0:0:0:0:
256,192,212370,1,8,0:0:0:0:
256,192,212478,1,8,0:0:0:0:
256,192,212586,1,0,0:0:0:0:
256,192,212911,1,12,0:0:0:0:
256,192,213235,1,8,0:0:0:0:
256,192,213397,1,0,0:0:0:0:
256,192,213559,1,8,0:0:0:0:
256,192,213721,1,0,0:0:0:0:
256,192,213803,1,0,0:0:0:0:
256,192,213884,1,8,0:0:0:0:
256,192,213965,1,8,0:0:0:0:
256,192,214046,1,0,0:0:0:0:
256,192,214208,1,8,0:0:0:0:
256,192,214370,1,0,0:0:0:0:
256,192,214451,1,0,0:0:0:0:
256,192,214532,1,8,0:0:0:0:
256,192,214694,1,0,0:0:0:0:
256,192,214857,1,8,0:0:0:0:
256,192,215019,1,8,0:0:0:0:
256,192,215100,1,8,0:0:0:0:
256,192,215181,1,0,0:0:0:0:
256,192,215343,1,8,0:0:0:0:
256,192,215505,1,0,0:0:0:0:
256,192,215667,1,0,0:0:0:0:
256,192,215748,1,0,0:0:0:0:
256,192,215830,1,8,0:0:0:0:
256,192,215992,1,0,0:0:0:0:
256,192,216154,1,8,0:0:0:0:
256,192,216316,1,8,0:0:0:0:
256,192,216397,1,8,0:0:0:0:
256,192,216478,1,0,0:0:0:0:
256,192,216640,1,0,0:0:0:0:
256,192,216803,1,8,0:0:0:0:
256,192,216965,1,0,0:0:0:0:
256,192,217127,1,4,0:0:0:0:
256,192,217451,1,8,0:0:0:0:
256,192,217613,1,0,0:0:0:0:
256,192,217694,1,0,0:0:0:0:
256,192,217775,1,8,0:0:0:0:
256,192,217938,1,0,0:0:0:0:
256,192,218100,1,8,0:0:0:0:
256,192,218262,1,0,0:0:0:0:
256,192,218424,1,8,0:0:0:0:
256,192,218505,1,8,0:0:0:0:
256,192,218586,1,0,0:0:0:0:
256,192,218667,1,0,0:0:0:0:
256,192,218748,1,8,0:0:0:0:
256,192,218911,1,8,0:0:0:0:
256,192,218992,1,8,0:0:0:0:
256,192,219073,1,0,0:0:0:0:
256,192,219235,1,0,0:0:0:0:
256,192,219397,1,8,0:0:0:0:
256,192,219559,1,0,0:0:0:0:
256,192,219640,1,0,0:0:0:0:
256,192,219721,1,8,0:0:0:0:
256,192,219884,1,8,0:0:0:0:
256,192,220046,1,0,0:0:0:0:
256,192,220208,1,8,0:0:0:0:
256,192,220289,1,8,0:0:0:0:
256,192,220370,1,0,0:0:0:0:
256,192,220532,1,0,0:0:0:0:
256,192,220694,1,8,0:0:0:0:
256,192,220857,1,0,0:0:0:0:
256,192,220938,1,0,0:0:0:0:
256,192,221019,1,8,0:0:0:0:
256,192,221181,1,0,0:0:0:0:
256,192,221343,1,8,0:0:0:0:
256,192,221505,1,8,0:0:0:0:
256,192,221586,1,0,0:0:0:0:
256,192,221667,1,8,0:0:0:0:
256,192,221748,1,8,0:0:0:0:
256,192,221830,1,0,0:0:0:0:
256,192,221992,1,8,0:0:0:0:
256,192,222154,1,8,0:0:0:0:
256,192,222316,1,4,0:0:0:0:
256,192,222640,1,8,0:0:0:0:
256,192,222803,1,8,0:0:0:0:
256,192,222884,1,8,0:0:0:0:
256,192,222965,1,0,0:0:0:0:
256,192,223127,1,0,0:0:0:0:
256,192,223289,1,12,0:0:0:0:
256,192,223613,1,0,0:0:0:0:
256,192,223775,1,0,0:0:0:0:
256,192,223857,1,0,0:0:0:0:
256,192,223938,1,8,0:0:0:0:
256,192,224100,1,8,0:0:0:0:
256,192,224262,1,0,0:0:0:0:
256,192,224343,1,0,0:0:0:0:
256,192,224424,1,0,0:0:0:0:
256,192,224586,1,8,0:0:0:0:
256,192,224911,1,4,0:0:0:0:
256,192,225235,1,8,0:0:0:0:
256,192,225397,1,8,0:0:0:0:
256,192,225478,1,8,0:0:0:0:
256,192,225559,1,0,0:0:0:0:
256,192,225721,1,0,0:0:0:0:
256,192,225884,1,12,0:0:0:0:
256,192,226208,1,0,0:0:0:0:
256,192,226370,1,0,0:0:0:0:
256,192,226532,1,8,0:0:0:0:
256,192,226694,1,8,0:0:0:0:
256,192,226857,1,0,0:0:0:0:
256,192,227019,1,8,0:0:0:0:
256,192,227100,1,8,0:0:0:0:
256,192,227181,1,0,0:0:0:0:
256,192,227343,1,8,0:0:0:0:
256,192,227505,1,4,0:0:0:0:
256,192,227830,1,8,0:0:0:0:
256,192,227992,1,8,0:0:0:0:
256,192,228154,1,0,0:0:0:0:
256,192,228316,1,0,0:0:0:0:
256,192,228397,1,0,0:0:0:0:
256,192,228478,1,8,0:0:0:0:
256,192,228640,1,4,0:0:0:0:
256,192,228965,1,0,0:0:0:0:
256,192,229127,1,8,0:0:0:0:
256,192,229289,1,4,0:0:0:0:
256,192,229613,1,8,0:0:0:0:
256,192,229694,1,8,0:0:0:0:
256,192,229775,1,0,0:0:0:0:
256,192,229938,1,8,0:0:0:0:
256,192,230019,1,8,0:0:0:0:
256,192,230100,1,0,0:0:0:0:
256,192,230424,1,8,0:0:0:0:
256,192,230586,1,4,0:0:0:0:
256,192,230911,1,0,0:0:0:0:
256,192,231073,1,12,0:0:0:0:
256,192,231397,1,0,0:0:0:0:
256,192,231559,1,8,0:0:0:0:
256,192,231721,1,8,0:0:0:0:
256,192,231884,1,0,0:0:0:0:
256,192,231965,1,0,0:0:0:0:
256,192,232046,1,8,0:0:0:0:
256,192,232208,1,8,0:0:0:0:
256,192,232370,1,8,0:0:0:0:
256,192,232532,1,0,0:0:0:0:
256,192,232694,1,4,0:0:0:0:
256,192,233019,1,0,0:0:0:0:
256,192,233181,1,8,0:0:0:0:
256,192,233343,1,8,0:0:0:0:
256,192,233505,1,0,0:0:0:0:
256,192,233586,1,0,0:0:0:0:
256,192,233667,1,8,0:0:0:0:
256,192,233830,1,4,0:0:0:0:
256,192,234154,1,0,0:0:0:0:
256,192,234316,1,8,0:0:0:0:
256,192,234478,1,4,0:0:0:0:
256,192,234803,1,0,0:0:0:0:
256,192,234965,1,8,0:0:0:0:
256,192,235127,1,12,0:0:0:0:
256,192,235451,1,0,0:0:0:0:
256,192,235613,1,8,0:0:0:0:
256,192,235775,1,8,0:0:0:0:
256,192,235938,1,0,0:0:0:0:
256,192,236100,1,0,0:0:0:0:
256,192,236262,1,8,0:0:0:0:
256,192,236424,1,0,0:0:0:0:
256,192,236586,1,0,0:0:0:0:
256,192,236748,1,0,0:0:0:0:
256,192,236911,1,8,0:0:0:0:
256,192,237073,1,0,0:0:0:0:
256,192,237235,1,8,0:0:0:0:
256,192,237397,1,0,0:0:0:0:
256,192,237559,1,8,0:0:0:0:
256,192,237721,1,12,0:0:0:0:
