osu file format v14

[General]
AudioFilename: Rina Hidaka & Manami Numakura - Ray of bullet.mp3
AudioLeadIn: 0
PreviewTime: 50424
Countdown: 0
SampleSet: Normal
StackLeniency: 0.7
Mode: 1
LetterboxInBreaks: 0
WidescreenStoryboard: 0

[Editor]
DistanceSpacing: 1
BeatDivisor: 4
GridSize: 16
TimelineZoom: 1.25

[Metadata]
Title:Ray of bullet
TitleUnicode:Ray of bullet
Artist:Iris Freyja (CV: Hidaka Rina), Mononobe Mitsuki (CV: Numakura Manami)
ArtistUnicode:イリス・フレイア (CV: 日高里菜)、物部深月 (CV: 沼倉愛美)
Creator:Nardoxyribonucleic
Version:Muzukashii
Source:銃皇無尽のファフニール
Tags:Taiko Juuou Mujin no Fafnir Ending
BeatmapID:666186
BeatmapSetID:291984

[Difficulty]
HPDrainRate:5
CircleSize:5
OverallDifficulty:4
ApproachRate:5
SliderMultiplier:1.4
SliderTickRate:1

[Events]
//Background and Video events
0,0,"Iris_Mitsuki.jpg",0,-165
//Break Periods
//Storyboard Layer 0 (Background)
//Storyboard Layer 1 (Fail)
//Storyboard Layer 2 (Pass)
//Storyboard Layer 3 (Foreground)
//Storyboard Sound Samples

[TimingPoints]
1776,324.324324324324,4,1,0,70,1,0
9559,-100,4,1,0,80,0,0
19938,-100,4,1,0,70,0,0
40694,-100,4,1,0,80,0,0
51073,-100,4,1,0,90,0,1
84803,-100,4,1,0,80,0,0
89992,-100,4,1,0,70,0,0
110748,-100,4,1,0,80,0,0
121127,-100,4,1,0,90,0,1
154857,-100,4,1,0,80,0,0
193775,-100,4,1,0,50,0,0
206748,-100,4,1,0,80,0,0
212911,-100,4,1,0,90,0,1
230100,-100,4,1,0,80,0,0

[HitObjects]
256,192,803,5,8,0:0:0:0:
256,192,1127,1,8,0:0:0:0:
256,192,1451,1,8,0:0:0:0:
256,192,1776,1,12,0:0:0:0:
256,192,2262,1,0,0:0:0:0:
256,192,2748,1,12,0:0:0:0:
256,192,3397,1,8,0:0:0:0:
256,192,3721,1,8,0:0:0:0:
256,192,4046,1,8,0:0:0:0:
256,192,4370,1,12,0:0:0:0:
256,192,4857,1,0,0:0:0:0:
256,192,5343,1,12,0:0:0:0:
256,192,5992,1,0,0:0:0:0:
256,192,6316,1,8,0:0:0:0:
256,192,6478,1,8,0:0:0:0:
256,192,6559,1,8,0:0:0:0:
256,192,6640,1,8,0:0:0:0:
256,192,6803,1,0,0:0:0:0:
256,192,6965,1,4,0:0:0:0:
256,192,7289,1,8,0:0:0:0:
256,192,7451,1,8,0:0:0:0:
256,192,7775,1,0,0:0:0:0:
256,192,7938,1,8,0:0:0:0:
256,192,8100,1,4,0:0:0:0:
256,192,8424,1,0,0:0:0:0:
256,192,8586,1,8,0:0:0:0:
256,192,8748,1,4,0:0:0:0:
256,192,9073,1,0,0:0:0:0:
256,192,9235,1,8,0:0:0:0:
256,192,9397,1,8,0:0:0:0:
256,192,9559,1,4,0:0:0:0:
256,192,9884,1,8,0:0:0:0:
256,192,10208,1,0,0:0:0:0:
256,192,10370,1,8,0:0:0:0:
256,192,10694,1,8,0:0:0:0:
256,192,10857,1,0,0:0:0:0:
256,192,11181,1,8,0:0:0:0:
256,192,11505,1,0,0:0:0:0:
256,192,12154,1,0,0:0:0:0:
256,192,12478,1,8,0:0:0:0:
256,192,12803,1,0,0:0:0:0:
256,192,13127,1,8,0:0:0:0:
256,192,13289,1,0,0:0:0:0:
256,192,13451,1,8,0:0:0:0:
256,192,13775,1,8,0:0:0:0:
256,192,14100,1,0,0:0:0:0:
256,192,14748,1,4,0:0:0:0:
256,192,15073,1,8,0:0:0:0:
256,192,15397,1,0,0:0:0:0:
256,192,15559,1,8,0:0:0:0:
256,192,15884,1,8,0:0:0:0:
256,192,16046,1,0,0:0:0:0:
256,192,16370,1,8,0:0:0:0:
256,192,16694,1,0,0:0:0:0:
256,192,17343,1,8,0:0:0:0:
256,192,17505,1,8,0:0:0:0:
256,192,17992,1,8,0:0:0:0:
256,192,18154,1,8,0:0:0:0:
256,192,18316,1,8,0:0:0:0:
256,192,18478,1,4,0:0:0:0:
256,192,18803,1,8,0:0:0:0:
256,192,18965,1,0,0:0:0:0:
256,192,19127,1,8,0:0:0:0:
256,192,19451,1,8,0:0:0:0:
256,192,19938,1,4,0:0:0:0:
256,192,20262,1,8,0:0:0:0:
256,192,20424,1,8,0:0:0:0:
256,192,20586,1,0,0:0:0:0:
256,192,20911,1,8,0:0:0:0:
256,192,21073,1,0,0:0:0:0:
256,192,21397,1,0,0:0:0:0:
256,192,21559,1,8,0:0:0:0:
256,192,21721,1,8,0:0:0:0:
256,192,21884,1,0,0:0:0:0:
256,192,22208,1,8,0:0:0:0:
256,192,22370,1,0,0:0:0:0:
256,192,22694,1,0,0:0:0:0:
256,192,22857,1,8,0:0:0:0:
256,192,23019,1,0,0:0:0:0:
256,192,23181,1,0,0:0:0:0:
256,192,23505,1,8,0:0:0:0:
256,192,23667,1,0,0:0:0:0:
256,192,23992,1,0,0:0:0:0:
256,192,24154,1,8,0:0:0:0:
256,192,24316,1,0,0:0:0:0:
256,192,24478,1,8,0:0:0:0:
256,192,24803,1,8,0:0:0:0:
256,192,24965,1,8,0:0:0:0:
256,192,25127,1,0,0:0:0:0:
256,192,25451,1,8,0:0:0:0:
256,192,25775,1,0,0:0:0:0:
256,192,26100,1,8,0:0:0:0:
256,192,26262,1,0,0:0:0:0:
256,192,26586,1,0,0:0:0:0:
256,192,26748,1,8,0:0:0:0:
256,192,27073,1,8,0:0:0:0:
256,192,27721,1,0,0:0:0:0:
256,192,28046,1,8,0:0:0:0:
256,192,28370,1,0,0:0:0:0:
256,192,28694,1,8,0:0:0:0:
256,192,28857,1,0,0:0:0:0:
256,192,29181,1,0,0:0:0:0:
256,192,29343,1,8,0:0:0:0:
256,192,29667,1,8,0:0:0:0:
256,192,29830,1,0,0:0:0:0:
256,192,29992,1,8,0:0:0:0:
256,192,30316,1,4,0:0:0:0:
256,192,30640,1,8,0:0:0:0:
256,192,30803,1,8,0:0:0:0:
256,192,30965,1,0,0:0:0:0:
256,192,31289,1,8,0:0:0:0:
256,192,31451,1,0,0:0:0:0:
256,192,31613,1,8,0:0:0:0:
256,192,31938,1,8,0:0:0:0:
256,192,32100,1,0,0:0:0:0:
256,192,32424,1,0,0:0:0:0:
256,192,32586,1,8,0:0:0:0:
256,192,32748,1,0,0:0:0:0:
256,192,32911,1,0,0:0:0:0:
256,192,33235,1,8,0:0:0:0:
256,192,33397,1,0,0:0:0:0:
256,192,33721,1,0,0:0:0:0:
256,192,33884,1,8,0:0:0:0:
256,192,34208,1,0,0:0:0:0:
256,192,34532,1,8,0:0:0:0:
256,192,34857,1,8,0:0:0:0:
256,192,35019,1,0,0:0:0:0:
256,192,35100,1,0,0:0:0:0:
256,192,35181,1,0,0:0:0:0:
256,192,35343,1,8,0:0:0:0:
256,192,35505,1,4,0:0:0:0:
256,192,35830,1,8,0:0:0:0:
256,192,35992,1,8,0:0:0:0:
256,192,36154,1,0,0:0:0:0:
256,192,36478,1,12,0:0:0:0:
256,192,37127,1,8,0:0:0:0:
256,192,37451,1,0,0:0:0:0:
256,192,37775,1,12,0:0:0:0:
256,192,38424,1,8,0:0:0:0:
256,192,38748,1,0,0:0:0:0:
256,192,38911,1,0,0:0:0:0:
256,192,39073,1,8,0:0:0:0:
256,192,39397,1,12,0:0:0:0:
256,192,39559,1,12,0:0:0:0:
256,192,39884,1,4,0:0:0:0:
256,192,40208,1,12,0:0:0:0:
256,192,40694,1,0,0:0:0:0:
256,192,41019,1,8,0:0:0:0:
256,192,41343,1,8,0:0:0:0:
256,192,41667,1,0,0:0:0:0:
256,192,41830,1,8,0:0:0:0:
256,192,42154,1,8,0:0:0:0:
256,192,42478,1,0,0:0:0:0:
256,192,42640,1,8,0:0:0:0:
256,192,42965,1,8,0:0:0:0:
256,192,43289,1,0,0:0:0:0:
256,192,43613,1,8,0:0:0:0:
256,192,43938,1,8,0:0:0:0:
256,192,44262,1,0,0:0:0:0:
256,192,44424,1,8,0:0:0:0:
256,192,44748,1,8,0:0:0:0:
256,192,45073,1,0,0:0:0:0:
256,192,45235,1,8,0:0:0:0:
256,192,45559,1,8,0:0:0:0:
256,192,45721,1,8,0:0:0:0:
256,192,45803,1,8,0:0:0:0:
256,192,45884,1,8,0:0:0:0:
256,192,46208,1,8,0:0:0:0:
256,192,46370,1,4,0:0:0:0:
256,192,46694,1,8,0:0:0:0:
256,192,46857,1,4,0:0:0:0:
256,192,47505,1,8,0:0:0:0:
256,192,47830,1,0,0:0:0:0:
256,192,48154,1,12,0:0:0:0:
256,192,48803,1,8,0:0:0:0:
256,192,49127,1,0,0:0:0:0:
256,192,49289,1,8,0:0:0:0:
256,192,49451,1,8,0:0:0:0:
256,192,49613,1,8,0:0:0:0:
256,192,49775,1,4,0:0:0:0:
256,192,51073,1,4,0:0:0:0:
256,192,51397,1,8,0:0:0:0:
256,192,51721,1,8,0:0:0:0:
256,192,52046,1,8,0:0:0:0:
256,192,52208,1,0,0:0:0:0:
256,192,52370,1,8,0:0:0:0:
256,192,52694,1,8,0:0:0:0:
256,192,53019,1,0,0:0:0:0:
256,192,53181,1,0,0:0:0:0:
256,192,53343,1,8,0:0:0:0:
256,192,53505,1,8,0:0:0:0:
256,192,53586,1,8,0:0:0:0:
256,192,53667,1,8,0:0:0:0:
256,192,53992,1,0,0:0:0:0:
256,192,54154,1,8,0:0:0:0:
256,192,54478,1,8,0:0:0:0:
256,192,54640,1,8,0:0:0:0:
256,192,54803,1,0,0:0:0:0:
256,192,54965,1,8,0:0:0:0:
256,192,55613,1,8,0:0:0:0:
256,192,55938,1,8,0:0:0:0:
256,192,56262,1,4,0:0:0:0:
256,192,56586,1,8,0:0:0:0:
256,192,56911,1,8,0:0:0:0:
256,192,57073,1,0,0:0:0:0:
256,192,57235,1,8,0:0:0:0:
256,192,57559,1,8,0:0:0:0:
256,192,57884,1,8,0:0:0:0:
256,192,58208,1,0,0:0:0:0:
256,192,58370,1,0,0:0:0:0:
256,192,58532,1,8,0:0:0:0:
256,192,58694,1,0,0:0:0:0:
256,192,58775,1,0,0:0:0:0:
256,192,58857,1,0,0:0:0:0:
256,192,59181,1,0,0:0:0:0:
256,192,59343,1,8,0:0:0:0:
256,192,59667,1,0,0:0:0:0:
256,192,59830,1,8,0:0:0:0:
256,192,59992,1,0,0:0:0:0:
256,192,60154,1,8,0:0:0:0:
256,192,60803,1,0,0:0:0:0:
256,192,60965,1,0,0:0:0:0:
256,192,61127,1,8,0:0:0:0:
256,192,61451,1,4,0:0:0:0:
256,192,61775,1,8,0:0:0:0:
256,192,61938,1,8,0:0:0:0:
256,192,62100,1,0,0:0:0:0:
256,192,62424,1,8,0:0:0:0:
256,192,63073,1,8,0:0:0:0:
256,192,63397,1,0,0:0:0:0:
256,192,63559,1,0,0:0:0:0:
256,192,63721,1,8,0:0:0:0:
256,192,64046,1,8,0:0:0:0:
256,192,64370,1,8,0:0:0:0:
256,192,64532,1,8,0:0:0:0:
256,192,64694,1,0,0:0:0:0:
256,192,65019,1,8,0:0:0:0:
256,192,65181,1,0,0:0:0:0:
256,192,65343,1,8,0:0:0:0:
256,192,65667,1,8,0:0:0:0:
256,192,65992,1,0,0:0:0:0:
256,192,66154,1,8,0:0:0:0:
256,192,66235,1,8,0:0:0:0:
256,192,66316,1,8,0:0:0:0:
256,192,66478,1,8,0:0:0:0:
256,192,66640,1,4,0:0:0:0:
256,192,66965,1,8,0:0:0:0:
256,192,67289,1,8,0:0:0:0:
256,192,67451,1,0,0:0:0:0:
256,192,67613,1,8,0:0:0:0:
256,192,67938,1,8,0:0:0:0:
256,192,68262,1,8,0:0:0:0:
256,192,68587,1,0,0:0:0:0:
256,192,68748,1,0,0:0:0:0:
256,192,68911,1,8,0:0:0:0:
256,192,69073,1,0,0:0:0:0:
256,192,69235,1,8,0:0:0:0:
256,192,69559,1,0,0:0:0:0:
256,192,69721,1,8,0:0:0:0:
256,192,70046,1,8,0:0:0:0:
256,192,70208,1,8,0:0:0:0:
256,192,70370,1,0,0:0:0:0:
256,192,70532,1,8,0:0:0:0:
256,192,71181,1,0,0:0:0:0:
256,192,71343,1,0,0:0:0:0:
256,192,71505,1,8,0:0:0:0:
256,192,71830,1,4,0:0:0:0:
256,192,72154,1,8,0:0:0:0:
256,192,72316,1,8,0:0:0:0:
256,192,72479,1,0,0:0:0:0:
256,192,72803,1,8,0:0:0:0:
256,192,72965,1,0,0:0:0:0:
256,192,73127,1,8,0:0:0:0:
256,192,73451,1,8,0:0:0:0:
256,192,73613,1,8,0:0:0:0:
256,192,73775,1,0,0:0:0:0:
256,192,73938,1,0,0:0:0:0:
256,192,74100,1,8,0:0:0:0:
256,192,74425,1,8,0:0:0:0:
256,192,74748,1,0,0:0:0:0:
256,192,74911,1,8,0:0:0:0:
256,192,74992,1,8,0:0:0:0:
256,192,75073,1,8,0:0:0:0:
256,192,75235,1,0,0:0:0:0:
256,192,75559,1,8,0:0:0:0:
256,192,75884,1,0,0:0:0:0:
256,192,76046,1,8,0:0:0:0:
256,192,76370,1,0,0:0:0:0:
256,192,76532,1,8,0:0:0:0:
256,192,76694,1,8,0:0:0:0:
256,192,76857,1,0,0:0:0:0:
256,192,76938,1,0,0:0:0:0:
256,192,77019,1,0,0:0:0:0:
256,192,77343,1,8,0:0:0:0:
256,192,77505,1,0,0:0:0:0:
256,192,77830,1,0,0:0:0:0:
256,192,77992,1,12,0:0:0:0:
256,192,78640,1,8,0:0:0:0:
256,192,78965,1,0,0:0:0:0:
256,192,79127,1,0,0:0:0:0:
256,192,79289,1,8,0:0:0:0:
256,192,79613,1,4,0:0:0:0:
256,192,79938,1,8,0:0:0:0:
256,192,80100,1,0,0:0:0:0:
256,192,80424,1,0,0:0:0:0:
256,192,80586,1,12,0:0:0:0:
256,192,81235,1,0,0:0:0:0:
256,192,81560,1,8,0:0:0:0:
256,192,81721,1,8,0:0:0:0:
256,192,81803,1,8,0:0:0:0:
256,192,81884,1,8,0:0:0:0:
256,192,82046,1,0,0:0:0:0:
256,192,82208,1,4,0:0:0:0:
256,192,82532,1,8,0:0:0:0:
256,192,82694,1,8,0:0:0:0:
256,192,83019,1,0,0:0:0:0:
256,192,83181,1,8,0:0:0:0:
256,192,83343,1,4,0:0:0:0:
256,192,83667,1,0,0:0:0:0:
256,192,83830,1,8,0:0:0:0:
256,192,83992,1,4,0:0:0:0:
256,192,84316,1,8,0:0:0:0:
256,192,84397,1,8,0:0:0:0:
256,192,84478,1,8,0:0:0:0:
256,192,84640,1,8,0:0:0:0:
256,192,84803,1,4,0:0:0:0:
256,192,85289,1,4,0:0:0:0:
256,192,85775,1,12,0:0:0:0:
256,192,86424,1,12,0:0:0:0:
256,192,87073,1,4,0:0:0:0:
256,192,87559,1,0,0:0:0:0:
256,192,87721,1,8,0:0:0:0:
256,192,88046,1,0,0:0:0:0:
256,192,88208,1,0,0:0:0:0:
256,192,88370,1,8,0:0:0:0:
256,192,88532,1,0,0:0:0:0:
256,192,88694,1,12,0:0:0:0:
256,192,89343,1,4,0:0:0:0:
256,192,89992,1,8,0:0:0:0:
256,192,90316,1,8,0:0:0:0:
256,192,90478,1,8,0:0:0:0:
256,192,90640,1,0,0:0:0:0:
256,192,90965,1,8,0:0:0:0:
256,192,91127,1,0,0:0:0:0:
256,192,91289,1,8,0:0:0:0:
256,192,91613,1,8,0:0:0:0:
256,192,91775,1,0,0:0:0:0:
256,192,91857,1,0,0:0:0:0:
256,192,91938,1,0,0:0:0:0:
256,192,92100,1,0,0:0:0:0:
256,192,92262,1,8,0:0:0:0:
256,192,92586,1,8,0:0:0:0:
256,192,92911,1,8,0:0:0:0:
256,192,93073,1,0,0:0:0:0:
256,192,93397,1,0,0:0:0:0:
256,192,93559,1,8,0:0:0:0:
256,192,93721,1,0,0:0:0:0:
256,192,94046,1,0,0:0:0:0:
256,192,94208,1,8,0:0:0:0:
256,192,94370,1,0,0:0:0:0:
256,192,94451,1,0,0:0:0:0:
256,192,94532,1,0,0:0:0:0:
256,192,94694,1,0,0:0:0:0:
256,192,94857,1,8,0:0:0:0:
256,192,95181,1,0,0:0:0:0:
256,192,95505,1,8,0:0:0:0:
256,192,95830,1,0,0:0:0:0:
256,192,95992,1,0,0:0:0:0:
256,192,96154,1,8,0:0:0:0:
256,192,96478,1,0,0:0:0:0:
256,192,96640,1,8,0:0:0:0:
256,192,96803,1,8,0:0:0:0:
256,192,96965,1,0,0:0:0:0:
256,192,97046,1,0,0:0:0:0:
256,192,97127,1,0,0:0:0:0:
256,192,97775,1,0,0:0:0:0:
256,192,98100,1,8,0:0:0:0:
256,192,98424,1,0,0:0:0:0:
256,192,98586,1,0,0:0:0:0:
256,192,98748,1,8,0:0:0:0:
256,192,99073,1,8,0:0:0:0:
256,192,99235,1,0,0:0:0:0:
256,192,99397,1,8,0:0:0:0:
256,192,99559,1,8,0:0:0:0:
256,192,99640,1,8,0:0:0:0:
256,192,99721,1,8,0:0:0:0:
256,192,99884,1,0,0:0:0:0:
256,192,100046,1,8,0:0:0:0:
256,192,100370,1,4,0:0:0:0:
256,192,100694,1,8,0:0:0:0:
256,192,100857,1,0,0:0:0:0:
256,192,101019,1,8,0:0:0:0:
256,192,101343,1,8,0:0:0:0:
256,192,101505,1,8,0:0:0:0:
256,192,101667,1,0,0:0:0:0:
256,192,101830,1,0,0:0:0:0:
256,192,101992,1,8,0:0:0:0:
256,192,102154,1,0,0:0:0:0:
256,192,102316,1,8,0:0:0:0:
256,192,102640,1,8,0:0:0:0:
256,192,102803,1,8,0:0:0:0:
256,192,102965,1,0,0:0:0:0:
256,192,103289,1,8,0:0:0:0:
256,192,103451,1,0,0:0:0:0:
256,192,103613,1,8,0:0:0:0:
256,192,103938,1,8,0:0:0:0:
256,192,104100,1,0,0:0:0:0:
256,192,104424,1,0,0:0:0:0:
256,192,104586,1,8,0:0:0:0:
256,192,104911,1,8,0:0:0:0:
256,192,105073,1,0,0:0:0:0:
256,192,105154,1,0,0:0:0:0:
256,192,105235,1,0,0:0:0:0:
256,192,105397,1,8,0:0:0:0:
256,192,105559,1,4,0:0:0:0:
256,192,105884,1,8,0:0:0:0:
256,192,106046,1,8,0:0:0:0:
256,192,106208,1,0,0:0:0:0:
256,192,106532,1,12,0:0:0:0:
256,192,107181,1,8,0:0:0:0:
256,192,107505,1,0,0:0:0:0:
256,192,107829,1,12,0:0:0:0:
256,192,108478,1,8,0:0:0:0:
256,192,108803,1,0,0:0:0:0:
256,192,108965,1,0,0:0:0:0:
256,192,109127,1,8,0:0:0:0:
256,192,109289,1,8,0:0:0:0:
256,192,109451,1,4,0:0:0:0:
256,192,109938,1,12,0:0:0:0:
256,192,110424,1,12,0:0:0:0:
256,192,110748,1,0,0:0:0:0:
256,192,110911,1,8,0:0:0:0:
256,192,111235,1,8,0:0:0:0:
256,192,111397,1,0,0:0:0:0:
256,192,111721,1,0,0:0:0:0:
256,192,111884,1,8,0:0:0:0:
256,192,112208,1,8,0:0:0:0:
256,192,112532,1,0,0:0:0:0:
256,192,112694,1,8,0:0:0:0:
256,192,113019,1,8,0:0:0:0:
256,192,113343,1,0,0:0:0:0:
256,192,113505,1,8,0:0:0:0:
256,192,113830,1,8,0:0:0:0:
256,192,113992,1,0,0:0:0:0:
256,192,114316,1,0,0:0:0:0:
256,192,114478,1,8,0:0:0:0:
256,192,114803,1,8,0:0:0:0:
256,192,115127,1,0,0:0:0:0:
256,192,115289,1,8,0:0:0:0:
256,192,115613,1,8,0:0:0:0:
256,192,115775,1,8,0:0:0:0:
256,192,115857,1,8,0:0:0:0:
256,192,115938,1,8,0:0:0:0:
256,192,116262,1,8,0:0:0:0:
256,192,116424,1,4,0:0:0:0:
256,192,116748,1,8,0:0:0:0:
256,192,116911,1,4,0:0:0:0:
256,192,117559,1,8,0:0:0:0:
256,192,117721,1,8,0:0:0:0:
256,192,117884,1,0,0:0:0:0:
256,192,118046,1,0,0:0:0:0:
256,192,118208,1,12,0:0:0:0:
256,192,118857,1,8,0:0:0:0:
256,192,119181,1,0,0:0:0:0:
256,192,119343,1,0,0:0:0:0:
256,192,119505,1,8,0:0:0:0:
256,192,119667,1,0,0:0:0:0:
256,192,119829,1,12,0:0:0:0:
256,192,119992,1,12,0:0:0:0:
256,192,121127,1,4,0:0:0:0:
256,192,121451,1,8,0:0:0:0:
256,192,121775,1,8,0:0:0:0:
256,192,121938,1,0,0:0:0:0:
256,192,122100,1,8,0:0:0:0:
256,192,122424,1,8,0:0:0:0:
256,192,122748,1,8,0:0:0:0:
256,192,123073,1,0,0:0:0:0:
256,192,123235,1,0,0:0:0:0:
256,192,123397,1,8,0:0:0:0:
256,192,123559,1,8,0:0:0:0:
256,192,123640,1,8,0:0:0:0:
256,192,123721,1,8,0:0:0:0:
256,192,124046,1,0,0:0:0:0:
256,192,124208,1,8,0:0:0:0:
256,192,124532,1,8,0:0:0:0:
256,192,124694,1,8,0:0:0:0:
256,192,124857,1,0,0:0:0:0:
256,192,125019,1,8,0:0:0:0:
256,192,125667,1,8,0:0:0:0:
256,192,125992,1,8,0:0:0:0:
256,192,126316,1,4,0:0:0:0:
256,192,126640,1,8,0:0:0:0:
256,192,126965,1,8,0:0:0:0:
256,192,127127,1,0,0:0:0:0:
256,192,127289,1,8,0:0:0:0:
256,192,127613,1,8,0:0:0:0:
256,192,127938,1,8,0:0:0:0:
256,192,128262,1,0,0:0:0:0:
256,192,128424,1,0,0:0:0:0:
256,192,128586,1,8,0:0:0:0:
256,192,128748,1,0,0:0:0:0:
256,192,128830,1,0,0:0:0:0:
256,192,128911,1,0,0:0:0:0:
256,192,129235,1,0,0:0:0:0:
256,192,129397,1,8,0:0:0:0:
256,192,129721,1,0,0:0:0:0:
256,192,129884,1,8,0:0:0:0:
256,192,130046,1,0,0:0:0:0:
256,192,130208,1,8,0:0:0:0:
256,192,130857,1,0,0:0:0:0:
256,192,131019,1,0,0:0:0:0:
256,192,131181,1,8,0:0:0:0:
256,192,131505,1,4,0:0:0:0:
256,192,131829,1,8,0:0:0:0:
256,192,131992,1,8,0:0:0:0:
256,192,132154,1,0,0:0:0:0:
256,192,132478,1,8,0:0:0:0:
256,192,133127,1,8,0:0:0:0:
256,192,133451,1,0,0:0:0:0:
256,192,133613,1,0,0:0:0:0:
256,192,133775,1,8,0:0:0:0:
256,192,134100,1,8,0:0:0:0:
256,192,134424,1,8,0:0:0:0:
256,192,134586,1,8,0:0:0:0:
256,192,134748,1,0,0:0:0:0:
256,192,135073,1,8,0:0:0:0:
256,192,135235,1,0,0:0:0:0:
256,192,135397,1,8,0:0:0:0:
256,192,135721,1,8,0:0:0:0:
256,192,136046,1,0,0:0:0:0:
256,192,136208,1,8,0:0:0:0:
256,192,136289,1,8,0:0:0:0:
256,192,136370,1,8,0:0:0:0:
256,192,136532,1,8,0:0:0:0:
256,192,136694,1,4,0:0:0:0:
256,192,137019,1,8,0:0:0:0:
256,192,137343,1,8,0:0:0:0:
256,192,137505,1,0,0:0:0:0:
256,192,137667,1,8,0:0:0:0:
256,192,137992,1,8,0:0:0:0:
256,192,138316,1,8,0:0:0:0:
256,192,138641,1,0,0:0:0:0:
256,192,138802,1,0,0:0:0:0:
256,192,138965,1,8,0:0:0:0:
256,192,139127,1,0,0:0:0:0:
256,192,139289,1,8,0:0:0:0:
256,192,139613,1,0,0:0:0:0:
256,192,139775,1,8,0:0:0:0:
256,192,140100,1,8,0:0:0:0:
256,192,140262,1,8,0:0:0:0:
256,192,140424,1,0,0:0:0:0:
256,192,140586,1,8,0:0:0:0:
256,192,141235,1,0,0:0:0:0:
256,192,141397,1,0,0:0:0:0:
256,192,141559,1,8,0:0:0:0:
256,192,141884,1,4,0:0:0:0:
256,192,142208,1,8,0:0:0:0:
256,192,142370,1,8,0:0:0:0:
256,192,142533,1,0,0:0:0:0:
256,192,142857,1,8,0:0:0:0:
256,192,143019,1,0,0:0:0:0:
256,192,143181,1,8,0:0:0:0:
256,192,143505,1,8,0:0:0:0:
256,192,143667,1,8,0:0:0:0:
256,192,143829,1,0,0:0:0:0:
256,192,143992,1,0,0:0:0:0:
256,192,144154,1,8,0:0:0:0:
256,192,144479,1,8,0:0:0:0:
256,192,144802,1,0,0:0:0:0:
256,192,144965,1,8,0:0:0:0:
256,192,145046,1,8,0:0:0:0:
256,192,145127,1,8,0:0:0:0:
256,192,145289,1,0,0:0:0:0:
256,192,145613,1,8,0:0:0:0:
256,192,145938,1,0,0:0:0:0:
256,192,146100,1,8,0:0:0:0:
256,192,146424,1,0,0:0:0:0:
256,192,146586,1,8,0:0:0:0:
256,192,146748,1,8,0:0:0:0:
256,192,146911,1,0,0:0:0:0:
256,192,146992,1,0,0:0:0:0:
256,192,147073,1,0,0:0:0:0:
256,192,147397,1,8,0:0:0:0:
256,192,147559,1,0,0:0:0:0:
256,192,147884,1,0,0:0:0:0:
256,192,148046,1,12,0:0:0:0:
256,192,148694,1,8,0:0:0:0:
256,192,149019,1,0,0:0:0:0:
256,192,149181,1,0,0:0:0:0:
256,192,149343,1,8,0:0:0:0:
256,192,149667,1,4,0:0:0:0:
256,192,149992,1,8,0:0:0:0:
256,192,150154,1,0,0:0:0:0:
256,192,150478,1,0,0:0:0:0:
256,192,150640,1,12,0:0:0:0:
256,192,151289,1,0,0:0:0:0:
256,192,151614,1,8,0:0:0:0:
256,192,151775,1,8,0:0:0:0:
256,192,151857,1,8,0:0:0:0:
256,192,151938,1,8,0:0:0:0:
256,192,152100,1,0,0:0:0:0:
256,192,152262,1,4,0:0:0:0:
256,192,152586,1,8,0:0:0:0:
256,192,152748,1,8,0:0:0:0:
256,192,153073,1,0,0:0:0:0:
256,192,153235,1,8,0:0:0:0:
256,192,153397,1,4,0:0:0:0:
256,192,153721,1,0,0:0:0:0:
256,192,153884,1,8,0:0:0:0:
256,192,154046,1,4,0:0:0:0:
256,192,154370,1,8,0:0:0:0:
256,192,154451,1,8,0:0:0:0:
256,192,154532,1,8,0:0:0:0:
256,192,154694,1,8,0:0:0:0:
256,192,154857,1,4,0:0:0:0:
256,192,155505,1,8,0:0:0:0:
256,192,155830,1,0,0:0:0:0:
256,192,155992,1,0,0:0:0:0:
256,192,156154,1,8,0:0:0:0:
256,192,156478,1,0,0:0:0:0:
256,192,156803,1,8,0:0:0:0:
256,192,157127,1,8,0:0:0:0:
256,192,157451,1,0,0:0:0:0:
256,192,157938,1,0,0:0:0:0:
256,192,158100,1,8,0:0:0:0:
256,192,158424,1,0,0:0:0:0:
256,192,159073,1,0,0:0:0:0:
256,192,159397,1,8,0:0:0:0:
256,192,159721,1,0,0:0:0:0:
256,192,160046,1,8,0:0:0:0:
256,192,160370,1,8,0:0:0:0:
256,192,160532,1,8,0:0:0:0:
256,192,160857,1,0,0:0:0:0:
256,192,161181,1,0,0:0:0:0:
256,192,161667,1,8,0:0:0:0:
256,192,161992,1,8,0:0:0:0:
256,192,162316,1,8,0:0:0:0:
256,192,162478,1,8,0:0:0:0:
256,192,162640,1,4,0:0:0:0:
256,192,162965,1,8,0:0:0:0:
256,192,163127,1,8,0:0:0:0:
256,192,163451,1,0,0:0:0:0:
256,192,163613,1,8,0:0:0:0:
256,192,163775,1,8,0:0:0:0:
256,192,163938,1,0,0:0:0:0:
256,192,164262,1,8,0:0:0:0:
256,192,164424,1,8,0:0:0:0:
256,192,164748,1,0,0:0:0:0:
256,192,164911,1,8,0:0:0:0:
256,192,165073,1,8,0:0:0:0:
256,192,165235,1,0,0:0:0:0:
256,192,165559,1,8,0:0:0:0:
256,192,165721,1,8,0:0:0:0:
256,192,166046,1,0,0:0:0:0:
256,192,166208,1,8,0:0:0:0:
256,192,166370,1,0,0:0:0:0:
256,192,166532,1,8,0:0:0:0:
256,192,166857,1,8,0:0:0:0:
256,192,167019,1,8,0:0:0:0:
256,192,167181,1,12,0:0:0:0:
256,192,167830,1,4,0:0:0:0:
256,192,168154,1,8,0:0:0:0:
256,192,168316,1,0,0:0:0:0:
256,192,168640,1,0,0:0:0:0:
256,192,168803,1,12,0:0:0:0:
256,192,169451,1,0,0:0:0:0:
256,192,169775,1,8,0:0:0:0:
256,192,170100,1,8,0:0:0:0:
256,192,170262,1,8,0:0:0:0:
256,192,170424,1,4,0:0:0:0:
240,192,170748,1,8,0:0:0:0:
256,192,170911,1,8,0:0:0:0:
256,192,171073,1,0,0:0:0:0:
256,192,171397,1,8,0:0:0:0:
256,192,171721,1,0,0:0:0:0:
256,192,171884,1,0,0:0:0:0:
256,192,172046,1,8,0:0:0:0:
256,192,172208,1,0,0:0:0:0:
256,192,172370,1,8,0:0:0:0:
256,192,172694,1,8,0:0:0:0:
256,192,172857,1,4,0:0:0:0:
256,192,174154,1,8,0:0:0:0:
256,192,174640,1,0,0:0:0:0:
256,192,174965,1,8,0:0:0:0:
256,192,175127,1,8,0:0:0:0:
256,192,175451,1,8,0:0:0:0:
256,192,175938,1,8,0:0:0:0:
256,192,176262,1,0,0:0:0:0:
256,192,176424,1,0,0:0:0:0:
256,192,176748,1,8,0:0:0:0:
256,192,177073,1,0,0:0:0:0:
256,192,177397,1,8,0:0:0:0:
256,192,177721,1,8,0:0:0:0:
256,192,178208,1,0,0:0:0:0:
256,192,179505,1,0,0:0:0:0:
256,192,179667,1,8,0:0:0:0:
256,192,179992,1,8,0:0:0:0:
256,192,180316,1,0,0:0:0:0:
256,192,180640,1,0,0:0:0:0:
256,192,181127,1,8,0:0:0:0:
256,192,181451,1,0,0:0:0:0:
256,192,181613,1,0,0:0:0:0:
256,192,181775,1,8,0:0:0:0:
256,192,182100,1,8,0:0:0:0:
256,192,182262,1,0,0:0:0:0:
256,192,182424,1,8,0:0:0:0:
256,192,182748,1,8,0:0:0:0:
256,192,182911,1,0,0:0:0:0:
256,192,182992,1,0,0:0:0:0:
256,192,183073,1,0,0:0:0:0:
256,192,183235,1,8,0:0:0:0:
256,192,183316,1,8,0:0:0:0:
256,192,183397,1,8,0:0:0:0:
256,192,183721,1,8,0:0:0:0:
256,192,183884,1,8,0:0:0:0:
256,192,184046,1,0,0:0:0:0:
256,192,184370,1,12,0:0:0:0:
256,192,185019,1,8,0:0:0:0:
256,192,185343,1,0,0:0:0:0:
256,192,185667,1,8,0:0:0:0:
256,192,185830,1,0,0:0:0:0:
256,192,185992,1,12,0:0:0:0:
256,192,186316,1,8,0:0:0:0:
256,192,186478,1,0,0:0:0:0:
256,192,186965,1,0,0:0:0:0:
256,192,187289,1,8,0:0:0:0:
256,192,187532,1,8,0:0:0:0:
256,192,187775,1,0,0:0:0:0:
256,192,187938,1,8,0:0:0:0:
256,192,188181,1,8,0:0:0:0:
256,192,188424,1,0,0:0:0:0:
256,192,188586,1,4,0:0:0:0:
256,192,188911,1,8,0:0:0:0:
256,192,189073,1,8,0:0:0:0:
256,192,189235,1,0,0:0:0:0:
256,192,189559,1,12,0:0:0:0:
256,192,189884,1,0,0:0:0:0:
256,192,190046,1,8,0:0:0:0:
256,192,190208,1,0,0:0:0:0:
256,192,190532,1,8,0:0:0:0:
256,192,190775,1,8,0:0:0:0:
256,192,191019,1,8,0:0:0:0:
256,192,191181,1,4,0:0:0:0:
256,192,191505,1,8,0:0:0:0:
256,192,191667,1,8,0:0:0:0:
256,192,191830,1,0,0:0:0:0:
256,192,192154,1,12,0:0:0:0:
256,192,192803,1,8,0:0:0:0:
256,192,193451,1,8,0:0:0:0:
256,192,193775,1,0,0:0:0:0:
256,192,196370,1,0,0:0:0:0:
256,192,197019,1,8,0:0:0:0:
256,192,197667,1,8,0:0:0:0:
256,192,198316,1,0,0:0:0:0:
256,192,198640,1,0,0:0:0:0:
256,192,198965,1,8,0:0:0:0:
256,192,199289,1,0,0:0:0:0:
256,192,199451,1,8,0:0:0:0:
256,192,199775,1,8,0:0:0:0:
256,192,200100,1,0,0:0:0:0:
256,192,200911,1,8,0:0:0:0:
256,192,201235,1,8,0:0:0:0:
256,192,201559,1,0,0:0:0:0:
256,192,202208,1,8,0:0:0:0:
256,192,202857,1,8,0:0:0:0:
256,192,203505,1,0,0:0:0:0:
256,192,203830,1,8,0:0:0:0:
256,192,204154,1,8,0:0:0:0:
256,192,204478,1,0,0:0:0:0:
256,192,204640,1,8,0:0:0:0:
256,192,204965,1,0,0:0:0:0:
256,192,205289,1,0,0:0:0:0:
256,192,206100,1,0,0:0:0:0:
256,192,206262,1,0,0:0:0:0:
256,192,206424,1,8,0:0:0:0:
256,192,206748,1,4,0:0:0:0:
256,192,207235,1,8,0:0:0:0:
256,192,207397,1,8,0:0:0:0:
256,192,207721,1,4,0:0:0:0:
256,192,208370,1,0,0:0:0:0:
256,192,208694,1,8,0:0:0:0:
256,192,209019,1,8,0:0:0:0:
256,192,209181,1,0,0:0:0:0:
256,192,209343,1,12,0:0:0:0:
256,192,209667,1,8,0:0:0:0:
256,192,209830,1,8,0:0:0:0:
256,192,209991,1,4,0:0:0:0:
256,192,210316,1,8,0:0:0:0:
256,192,210478,1,0,0:0:0:0:
256,192,210640,1,12,0:0:0:0:
256,192,210965,1,8,0:0:0:0:
256,192,211127,1,8,0:0:0:0:
256,192,211289,1,0,0:0:0:0:
256,192,211938,1,0,0:0:0:0:
256,192,212262,1,8,0:0:0:0:
256,192,212586,1,8,0:0:0:0:
256,192,212911,1,12,0:0:0:0:
256,192,213559,1,8,0:0:0:0:
256,192,213884,1,0,0:0:0:0:
256,192,214208,1,8,0:0:0:0:
256,192,214370,1,0,0:0:0:0:
256,192,214532,1,8,0:0:0:0:
256,192,214857,1,0,0:0:0:0:
256,192,215019,1,8,0:0:0:0:
256,192,215343,1,8,0:0:0:0:
256,192,215505,1,8,0:0:0:0:
256,192,215667,1,0,0:0:0:0:
256,192,215830,1,8,0:0:0:0:
256,192,216154,1,8,0:0:0:0:
256,192,216478,1,0,0:0:0:0:
256,192,216640,1,0,0:0:0:0:
256,192,216803,1,8,0:0:0:0:
256,192,217127,1,4,0:0:0:0:
256,192,217451,1,8,0:0:0:0:
256,192,217613,1,8,0:0:0:0:
256,192,217776,1,0,0:0:0:0:
256,192,218100,1,8,0:0:0:0:
256,192,218262,1,0,0:0:0:0:
256,192,218424,1,8,0:0:0:0:
256,192,218748,1,8,0:0:0:0:
256,192,218911,1,8,0:0:0:0:
256,192,219073,1,0,0:0:0:0:
256,192,219235,1,0,0:0:0:0:
256,192,219397,1,8,0:0:0:0:
256,192,219722,1,8,0:0:0:0:
256,192,220046,1,0,0:0:0:0:
256,192,220208,1,8,0:0:0:0:
256,192,220289,1,8,0:0:0:0:
256,192,220370,1,8,0:0:0:0:
256,192,220532,1,0,0:0:0:0:
256,192,220857,1,8,0:0:0:0:
256,192,221181,1,0,0:0:0:0:
256,192,221343,1,8,0:0:0:0:
256,192,221667,1,8,0:0:0:0:
256,192,221830,1,8,0:0:0:0:
256,192,221992,1,0,0:0:0:0:
256,192,222154,1,8,0:0:0:0:
256,192,222235,1,8,0:0:0:0:
256,192,222316,1,8,0:0:0:0:
256,192,222640,1,8,0:0:0:0:
256,192,222803,1,0,0:0:0:0:
256,192,223127,1,0,0:0:0:0:
256,192,223289,1,12,0:0:0:0:
256,192,223938,1,8,0:0:0:0:
256,192,224262,1,0,0:0:0:0:
256,192,224424,1,0,0:0:0:0:
256,192,224586,1,8,0:0:0:0:
256,192,224910,1,4,0:0:0:0:
256,192,225235,1,8,0:0:0:0:
256,192,225397,1,0,0:0:0:0:
256,192,225721,1,0,0:0:0:0:
256,192,225883,1,12,0:0:0:0:
256,192,226532,1,0,0:0:0:0:
256,192,226857,1,8,0:0:0:0:
256,192,227019,1,8,0:0:0:0:
256,192,227100,1,8,0:0:0:0:
256,192,227181,1,8,0:0:0:0:
256,192,227343,1,0,0:0:0:0:
256,192,227505,1,4,0:0:0:0:
256,192,227830,1,8,0:0:0:0:
256,192,227992,1,8,0:0:0:0:
256,192,228316,1,0,0:0:0:0:
256,192,228478,1,8,0:0:0:0:
256,192,228640,1,4,0:0:0:0:
256,192,228965,1,0,0:0:0:0:
256,192,229127,1,8,0:0:0:0:
256,192,229289,1,4,0:0:0:0:
256,192,229613,1,8,0:0:0:0:
256,192,229694,1,8,0:0:0:0:
256,192,229775,1,8,0:0:0:0:
256,192,229938,1,8,0:0:0:0:
256,192,230100,1,4,0:0:0:0:
256,192,230586,1,4,0:0:0:0:
256,192,231073,1,12,0:0:0:0:
256,192,231721,1,0,0:0:0:0:
256,192,232046,1,8,0:0:0:0:
256,192,232208,1,8,0:0:0:0:
256,192,232289,1,8,0:0:0:0:
256,192,232370,1,8,0:0:0:0:
256,192,232532,1,0,0:0:0:0:
256,192,232694,1,4,0:0:0:0:
256,192,233019,1,8,0:0:0:0:
256,192,233181,1,8,0:0:0:0:
256,192,233505,1,0,0:0:0:0:
256,192,233667,1,8,0:0:0:0:
256,192,233830,1,4,0:0:0:0:
256,192,234154,1,0,0:0:0:0:
256,192,234316,1,8,0:0:0:0:
256,192,234478,1,4,0:0:0:0:
256,192,234803,1,0,0:0:0:0:
256,192,234965,1,8,0:0:0:0:
256,192,235127,1,12,0:0:0:0:
256,192,235613,1,0,0:0:0:0:
256,192,235938,1,8,0:0:0:0:
256,192,236262,1,0,0:0:0:0:
256,192,236424,1,0,0:0:0:0:
256,192,236586,1,8,0:0:0:0:
256,192,236911,1,0,0:0:0:0:
256,192,237235,1,8,0:0:0:0:
256,192,237397,1,0,0:0:0:0:
256,192,237559,1,8,0:0:0:0:
256,192,237721,1,12,0:0:0:0:
