osu file format v14

[General]
AudioFilename: Rina Hidaka & Manami Numakura - Ray of bullet.mp3
AudioLeadIn: 0
PreviewTime: 50424
Countdown: 0
SampleSet: Normal
StackLeniency: 0.7
Mode: 1
LetterboxInBreaks: 0
WidescreenStoryboard: 0

[Editor]
DistanceSpacing: 1
BeatDivisor: 2
GridSize: 16
TimelineZoom: 1.25

[Metadata]
Title:Ray of bullet
TitleUnicode:Ray of bullet
Artist:Iris Freyja (CV: Hidaka Rina), Mononobe Mitsuki (CV: Numakura Manami)
ArtistUnicode:イリス・フレイア (CV: 日高里菜)、物部深月 (CV: 沼倉愛美)
Creator:Nardoxyribonucleic
Version:Kantan
Source:銃皇無尽のファフニール
Tags:Taiko Juuou Mujin no Fafnir Ending
BeatmapID:660436
BeatmapSetID:291984

[Difficulty]
HPDrainRate:4
CircleSize:5
OverallDifficulty:3
ApproachRate:3
SliderMultiplier:1.2
SliderTickRate:1

[Events]
//Background and Video events
0,0,"Iris.jpg",0,110
//Break Periods
//Storyboard Layer 0 (Background)
//Storyboard Layer 1 (Fail)
//Storyboard Layer 2 (Pass)
//Storyboard Layer 3 (Foreground)
//Storyboard Sound Samples

[TimingPoints]
1776,324.324324324324,4,1,0,70,1,0
9559,-100,4,1,0,80,0,0
19938,-100,4,1,0,70,0,0
40694,-100,4,1,0,80,0,0
51073,-100,4,1,0,90,0,1
84803,-100,4,1,0,80,0,0
89992,-100,4,1,0,70,0,0
110748,-100,4,1,0,80,0,0
121127,-100,4,1,0,90,0,1
154857,-100,4,1,0,80,0,0
193775,-100,4,1,0,50,0,0
206748,-100,4,1,0,80,0,0
212911,-100,4,1,0,90,0,1
230100,-100,4,1,0,80,0,0

[HitObjects]
256,192,1776,5,12,0:0:0:0:
256,192,2748,1,4,0:0:0:0:
256,192,4370,1,12,0:0:0:0:
256,192,5343,1,4,0:0:0:0:
256,192,6965,1,0,0:0:0:0:
256,192,8100,1,8,0:0:0:0:
256,192,8748,1,0,0:0:0:0:
256,192,9559,1,4,0:0:0:0:
256,192,10857,1,8,0:0:0:0:
256,192,12154,1,0,0:0:0:0:
256,192,13451,1,8,0:0:0:0:
256,192,14100,1,8,0:0:0:0:
256,192,14748,1,4,0:0:0:0:
256,192,16046,1,0,0:0:0:0:
256,192,17343,1,8,0:0:0:0:
256,192,18478,1,0,0:0:0:0:
256,192,19938,1,4,0:0:0:0:
256,192,21235,1,0,0:0:0:0:
256,192,21884,1,8,0:0:0:0:
256,192,22532,1,0,0:0:0:0:
256,192,23830,1,0,0:0:0:0:
256,192,24478,1,8,0:0:0:0:
256,192,25127,1,0,0:0:0:0:
256,192,26424,1,8,0:0:0:0:
256,192,27721,1,0,0:0:0:0:
256,192,29019,1,8,0:0:0:0:
256,192,30316,1,4,0:0:0:0:
256,192,31613,1,8,0:0:0:0:
256,192,32911,1,0,0:0:0:0:
256,192,34208,1,0,0:0:0:0:
256,192,34857,1,8,0:0:0:0:
256,192,35505,1,4,0:0:0:0:
256,192,36478,1,12,0:0:0:0:
256,192,37127,1,0,0:0:0:0:
256,192,37775,1,12,0:0:0:0:
256,192,39397,1,12,0:0:0:0:
256,192,40694,1,0,0:0:0:0:
256,192,41343,1,8,0:0:0:0:
256,192,42640,1,8,0:0:0:0:
256,192,43289,1,0,0:0:0:0:
256,192,43938,1,8,0:0:0:0:
256,192,45235,1,8,0:0:0:0:
256,192,45884,1,8,0:0:0:0:
256,192,46857,1,0,0:0:0:0:
256,192,48154,1,8,0:0:0:0:
256,192,49775,1,4,0:0:0:0:
256,192,51073,1,4,0:0:0:0:
256,192,51721,1,8,0:0:0:0:
256,192,52370,1,8,0:0:0:0:
256,192,53019,1,0,0:0:0:0:
256,192,53343,1,0,0:0:0:0:
256,192,53667,1,8,0:0:0:0:
256,192,54316,1,8,0:0:0:0:
256,192,54965,1,0,0:0:0:0:
256,192,56262,1,0,0:0:0:0:
256,192,56911,1,8,0:0:0:0:
256,192,57559,1,8,0:0:0:0:
256,192,57884,1,8,0:0:0:0:
256,192,58208,1,0,0:0:0:0:
256,192,58857,1,0,0:0:0:0:
256,192,59505,1,8,0:0:0:0:
256,192,60154,1,0,0:0:0:0:
256,192,61451,1,4,0:0:0:0:
256,192,62424,1,8,0:0:0:0:
256,192,64046,1,8,0:0:0:0:
256,192,64694,1,0,0:0:0:0:
256,192,65343,1,8,0:0:0:0:
256,192,65992,1,0,0:0:0:0:
256,192,66640,1,4,0:0:0:0:
256,192,67289,1,8,0:0:0:0:
256,192,67938,1,8,0:0:0:0:
256,192,68587,1,0,0:0:0:0:
256,192,68911,1,0,0:0:0:0:
256,192,69235,1,8,0:0:0:0:
256,192,69884,1,8,0:0:0:0:
256,192,70533,1,0,0:0:0:0:
256,192,71830,1,0,0:0:0:0:
256,192,72479,1,0,0:0:0:0:
256,192,72803,1,8,0:0:0:0:
256,192,73127,1,8,0:0:0:0:
256,192,73776,1,8,0:0:0:0:
256,192,74100,1,0,0:0:0:0:
256,192,74425,1,8,0:0:0:0:
256,192,75073,1,8,0:0:0:0:
256,192,75722,1,0,0:0:0:0:
256,192,77019,1,4,0:0:0:0:
256,192,77992,1,12,0:0:0:0:
256,192,79613,1,12,0:0:0:0:
256,192,80586,1,4,0:0:0:0:
256,192,81560,1,8,0:0:0:0:
256,192,82208,1,4,0:0:0:0:
256,192,83343,1,12,0:0:0:0:
256,192,83992,1,4,0:0:0:0:
256,192,84803,1,0,0:0:0:0:
256,192,85775,1,8,0:0:0:0:
256,192,86424,1,8,0:0:0:0:
256,192,87073,1,0,0:0:0:0:
256,192,88694,1,8,0:0:0:0:
256,192,89343,1,0,0:0:0:0:
256,192,89992,1,0,0:0:0:0:
256,192,91289,1,8,0:0:0:0:
256,192,91938,1,8,0:0:0:0:
256,192,92586,1,0,0:0:0:0:
256,192,93884,1,0,0:0:0:0:
256,192,94532,1,8,0:0:0:0:
256,192,95181,1,0,0:0:0:0:
256,192,96478,1,8,0:0:0:0:
256,192,97775,1,0,0:0:0:0:
256,192,99073,1,8,0:0:0:0:
256,192,99721,1,8,0:0:0:0:
256,192,100370,1,4,0:0:0:0:
256,192,101019,1,8,0:0:0:0:
256,192,101667,1,0,0:0:0:0:
256,192,101992,1,8,0:0:0:0:
256,192,102316,1,0,0:0:0:0:
256,192,102965,1,0,0:0:0:0:
256,192,103613,1,8,0:0:0:0:
256,192,104262,1,0,0:0:0:0:
256,192,104586,1,8,0:0:0:0:
256,192,104911,1,8,0:0:0:0:
256,192,105559,1,4,0:0:0:0:
256,192,106532,1,12,0:0:0:0:
256,192,107181,1,0,0:0:0:0:
256,192,107829,1,12,0:0:0:0:
256,192,109451,1,12,0:0:0:0:
256,192,110748,1,0,0:0:0:0:
256,192,111397,1,8,0:0:0:0:
256,192,112694,1,8,0:0:0:0:
256,192,113343,1,0,0:0:0:0:
256,192,113992,1,8,0:0:0:0:
256,192,115289,1,8,0:0:0:0:
256,192,115938,1,8,0:0:0:0:
256,192,116911,1,0,0:0:0:0:
256,192,118208,1,8,0:0:0:0:
256,192,119829,1,12,0:0:0:0:
256,192,121127,1,4,0:0:0:0:
256,192,121775,1,8,0:0:0:0:
256,192,122424,1,8,0:0:0:0:
256,192,123073,1,0,0:0:0:0:
256,192,123397,1,0,0:0:0:0:
256,192,123721,1,8,0:0:0:0:
256,192,124370,1,8,0:0:0:0:
256,192,125019,1,0,0:0:0:0:
256,192,126316,1,0,0:0:0:0:
256,192,126965,1,8,0:0:0:0:
256,192,127613,1,8,0:0:0:0:
256,192,127938,1,8,0:0:0:0:
256,192,128262,1,0,0:0:0:0:
256,192,128911,1,0,0:0:0:0:
256,192,129559,1,8,0:0:0:0:
256,192,130208,1,0,0:0:0:0:
256,192,131505,1,4,0:0:0:0:
256,192,132478,1,8,0:0:0:0:
256,192,134100,1,8,0:0:0:0:
256,192,134748,1,0,0:0:0:0:
256,192,135397,1,8,0:0:0:0:
256,192,136046,1,0,0:0:0:0:
256,192,136694,1,4,0:0:0:0:
256,192,137343,1,8,0:0:0:0:
256,192,137992,1,8,0:0:0:0:
256,192,138641,1,0,0:0:0:0:
256,192,138965,1,0,0:0:0:0:
256,192,139289,1,8,0:0:0:0:
256,192,139938,1,8,0:0:0:0:
256,192,140587,1,0,0:0:0:0:
256,192,141884,1,0,0:0:0:0:
256,192,142533,1,0,0:0:0:0:
256,192,142857,1,8,0:0:0:0:
256,192,143181,1,8,0:0:0:0:
256,192,143830,1,8,0:0:0:0:
256,192,144154,1,0,0:0:0:0:
256,192,144479,1,8,0:0:0:0:
256,192,145127,1,8,0:0:0:0:
256,192,145776,1,0,0:0:0:0:
256,192,147073,1,4,0:0:0:0:
256,192,148046,1,12,0:0:0:0:
256,192,149667,1,12,0:0:0:0:
256,192,150640,1,4,0:0:0:0:
256,192,151614,1,8,0:0:0:0:
256,192,152262,1,4,0:0:0:0:
256,192,153397,1,12,0:0:0:0:
256,192,154046,1,4,0:0:0:0:
256,192,154857,1,0,0:0:0:0:
256,192,156154,1,0,0:0:0:0:
256,192,156803,1,8,0:0:0:0:
256,192,157451,1,0,0:0:0:0:
256,192,158424,1,8,0:0:0:0:
256,192,159397,1,8,0:0:0:0:
256,192,160046,1,8,0:0:0:0:
256,192,161343,1,0,0:0:0:0:
256,192,161992,1,8,0:0:0:0:
256,192,162640,1,4,0:0:0:0:
256,192,163289,1,8,0:0:0:0:
256,192,163613,1,8,0:0:0:0:
256,192,163938,1,0,0:0:0:0:
256,192,164586,1,8,0:0:0:0:
256,192,165235,1,0,0:0:0:0:
256,192,165884,1,8,0:0:0:0:
256,192,166208,1,0,0:0:0:0:
256,192,166532,1,8,0:0:0:0:
256,192,167181,1,12,0:0:0:0:
256,192,167830,1,4,0:0:0:0:
256,192,168803,1,12,0:0:0:0:
256,192,169775,1,0,0:0:0:0:
256,192,170100,1,8,0:0:0:0:
256,192,170424,1,4,0:0:0:0:
256,192,171073,1,0,0:0:0:0:
256,192,171721,1,8,0:0:0:0:
256,192,172857,1,4,0:0:0:0:
256,192,174316,1,8,0:0:0:0:
256,192,174965,1,8,0:0:0:0:
256,192,175613,1,0,0:0:0:0:
256,192,176911,1,8,0:0:0:0:
256,192,178208,1,0,0:0:0:0:
256,192,179505,1,8,0:0:0:0:
256,192,180154,1,0,0:0:0:0:
256,192,180803,1,0,0:0:0:0:
256,192,181451,1,8,0:0:0:0:
256,192,182100,1,0,0:0:0:0:
256,192,182424,1,8,0:0:0:0:
256,192,182748,1,8,0:0:0:0:
256,192,183397,1,4,0:0:0:0:
256,192,184370,1,8,0:0:0:0:
256,192,185343,1,0,0:0:0:0:
256,192,185992,1,12,0:0:0:0:
256,192,187289,1,8,0:0:0:0:
256,192,187938,1,8,0:0:0:0:
256,192,188586,1,0,0:0:0:0:
256,192,189235,1,0,0:0:0:0:
256,192,189559,1,12,0:0:0:0:
256,192,191181,1,8,0:0:0:0:
256,192,191830,1,8,0:0:0:0:
256,192,192154,1,4,0:0:0:0:
256,192,196370,1,0,0:0:0:0:
256,192,198965,1,8,0:0:0:0:
256,192,200911,1,8,0:0:0:0:
256,192,201559,1,0,0:0:0:0:
256,192,202857,1,8,0:0:0:0:
256,192,204154,1,0,0:0:0:0:
256,192,205289,1,8,0:0:0:0:
256,192,206748,1,4,0:0:0:0:
256,192,207721,1,8,0:0:0:0:
256,192,208370,1,0,0:0:0:0:
256,192,208694,1,8,0:0:0:0:
256,192,209343,1,8,0:0:0:0:
256,192,209991,1,0,0:0:0:0:
256,192,210640,1,8,0:0:0:0:
256,192,211289,1,0,0:0:0:0:
256,192,211938,1,0,0:0:0:0:
256,192,212911,1,12,0:0:0:0:
256,192,213884,1,0,0:0:0:0:
256,192,214208,1,0,0:0:0:0:
256,192,214532,1,8,0:0:0:0:
256,192,215181,1,8,0:0:0:0:
256,192,215830,1,0,0:0:0:0:
256,192,217127,1,0,0:0:0:0:
256,192,217776,1,0,0:0:0:0:
256,192,218100,1,8,0:0:0:0:
256,192,218424,1,8,0:0:0:0:
256,192,219073,1,8,0:0:0:0:
256,192,219397,1,0,0:0:0:0:
256,192,219722,1,8,0:0:0:0:
256,192,220370,1,8,0:0:0:0:
256,192,221019,1,0,0:0:0:0:
256,192,221667,1,8,0:0:0:0:
256,192,222316,1,4,0:0:0:0:
256,192,223289,1,12,0:0:0:0:
256,192,224910,1,12,0:0:0:0:
256,192,225883,1,4,0:0:0:0:
256,192,226857,1,8,0:0:0:0:
256,192,227505,1,4,0:0:0:0:
256,192,228640,1,12,0:0:0:0:
256,192,229289,1,4,0:0:0:0:
256,192,230100,1,0,0:0:0:0:
256,192,231073,1,12,0:0:0:0:
256,192,232046,1,8,0:0:0:0:
256,192,232694,1,4,0:0:0:0:
256,192,233830,1,8,0:0:0:0:
256,192,234478,1,0,0:0:0:0:
256,192,235127,1,8,0:0:0:0:
256,192,236586,1,0,0:0:0:0:
256,192,237235,1,8,0:0:0:0:
256,192,237721,1,8,0:0:0:0:
