osu file format v13

[General]
AudioFilename: Iridium-CleanvsDirty.mp3
AudioLeadIn: 3000
PreviewTime: 55058
Countdown: 0
SampleSet: Normal
StackLeniency: 0.7
Mode: 1
LetterboxInBreaks: 0
WidescreenStoryboard: 0

[Editor]
DistanceSpacing: 1.2
BeatDivisor: 4
GridSize: 4
TimelineZoom: 1

[Metadata]
Title:Clean vs. Dirty
TitleUnicode:Clean vs. Dirty
Artist:Iridium
ArtistUnicode:Iridium
Creator:Gato
Version:Oni
Source:FL Studio
Tags:dnb idm electro bass fl drum 'n bass KazukisinX taiko amen break
BeatmapID:180740
BeatmapSetID:60463

[Difficulty]
HPDrainRate:6
CircleSize:5
OverallDifficulty:6
ApproachRate:5
SliderMultiplier:1.4
SliderTickRate:2

[Events]
//Background and Video events
0,0,"background.jpg",0,0
//Break Periods
//Storyboard Layer 0 (Background)
//Storyboard Layer 1 (Fail)
//Storyboard Layer 2 (Pass)
//Storyboard Layer 3 (Foreground)
//Storyboard Sound Samples
//Background Colour Transformations
3,100,163,162,255

[TimingPoints]
49,352.941176470588,4,1,0,50,1,0
22637,-100,4,1,0,55,0,0
33931,-100,4,1,0,60,0,0
96148,-100,4,1,0,65,0,1
118637,-100,4,1,0,65,0,0

[HitObjects]
148,284,49,5,0,0:0:0:0:
316,296,401,1,8,0:0:0:0:
280,220,578,1,8,0:0:0:0:
256,144,2872,1,8,0:0:0:0:
256,144,3225,1,0,0:0:0:0:
256,144,3401,1,0,0:0:0:0:
192,192,5696,1,0,0:0:0:0:
192,192,6048,1,8,0:0:0:0:
192,192,6225,1,8,0:0:0:0:
240,192,8519,1,0,0:0:0:0:
240,192,8872,1,8,0:0:0:0:
240,192,9048,1,8,0:0:0:0:
240,192,9578,1,8,0:0:0:0:
240,192,10284,1,0,0:0:0:0:
144,160,11343,1,0,0:0:0:0:
256,144,11696,1,8,0:0:0:0:
256,144,11872,1,8,0:0:0:0:
256,144,14166,1,8,0:0:0:0:
256,144,14519,1,0,0:0:0:0:
256,144,14696,1,0,0:0:0:0:
192,192,16990,1,0,0:0:0:0:
192,192,17343,1,8,0:0:0:0:
256,144,17519,1,8,0:0:0:0:
240,192,19813,1,0,0:0:0:0:
240,192,20166,1,8,0:0:0:0:
272,112,20343,1,8,0:0:0:0:
240,192,20872,1,8,0:0:0:0:
240,192,21401,1,8,0:0:0:0:
240,192,21578,5,0,0:0:0:0:
256,192,22637,1,0,0:0:0:0:
304,192,22813,1,0,0:0:0:0:
368,192,22990,1,8,0:0:0:0:
416,192,23166,1,0,0:0:0:0:
304,192,23519,1,0,0:0:0:0:
352,192,23696,1,8,0:0:0:0:
416,192,24048,1,0,0:0:0:0:
396,81,24401,1,8,0:0:0:0:
358,122,24578,1,0,0:0:0:0:
389,229,24931,1,8,0:0:0:0:
295,290,25284,1,8,0:0:0:0:
350,290,25460,1,0,0:0:0:0:
270,210,25813,1,8,0:0:0:0:
326,208,25990,1,0,0:0:0:0:
379,224,26078,1,0,0:0:0:0:
325,206,26166,1,0,0:0:0:0:
379,194,26343,1,8,0:0:0:0:
433,182,26519,1,8,0:0:0:0:
323,156,26872,1,0,0:0:0:0:
270,176,27048,1,0,0:0:0:0:
241,224,27225,1,8,0:0:0:0:
241,224,27401,1,8,0:0:0:0:
322,243,27666,1,0,0:0:0:0:
349,248,27754,1,0,0:0:0:0:
404,256,27931,1,8,0:0:0:0:
446,183,28196,1,8,0:0:0:0:
473,188,28284,1,0,0:0:0:0:
334,169,28637,1,8,0:0:0:0:
346,201,28813,1,0,0:0:0:0:
288,192,29166,1,0,0:0:0:0:
272,208,29254,1,0,0:0:0:0:
256,224,29343,1,0,0:0:0:0:
240,240,29431,1,8,0:0:0:0:
240,240,29519,1,8,0:0:0:0:
280,188,29607,1,0,0:0:0:0:
149,149,29872,1,0,0:0:0:0:
326,328,30048,1,8,0:0:0:0:
272,304,30225,1,0,0:0:0:0:
208,256,30401,1,0,0:0:0:0:
240,208,30578,1,8,0:0:0:0:
405,311,30754,1,8,0:0:0:0:
256,224,31107,1,0,0:0:0:0:
256,144,31284,1,0,0:0:0:0:
320,208,31460,1,8,0:0:0:0:
400,208,31637,1,0,0:0:0:0:
368,208,31990,1,8,0:0:0:0:
480,144,32254,1,8,0:0:0:0:
448,160,32343,1,0,0:0:0:0:
368,208,32519,1,0,0:0:0:0:
336,240,32607,1,0,0:0:0:0:
336,272,32784,1,8,0:0:0:0:
304,240,32872,1,8,0:0:0:0:
240,176,33048,1,0,0:0:0:0:
208,144,33137,1,0,0:0:0:0:
208,144,33313,1,0,0:0:0:0:
256,144,33401,1,8,0:0:0:0:
304,144,33578,1,8,0:0:0:0:
304,112,33666,1,8,0:0:0:0:
272,96,33754,1,0,0:0:0:0:
246,230,33931,1,4,0:0:0:0:
284,180,34107,1,0,0:0:0:0:
409,269,34284,1,8,0:0:0:0:
356,204,34460,1,0,0:0:0:0:
272,193,34813,1,0,0:0:0:0:
333,135,34990,1,8,0:0:0:0:
398,186,35166,1,8,0:0:0:0:
403,101,35343,1,0,0:0:0:0:
445,263,35696,1,8,0:0:0:0:
431,180,35872,1,8,0:0:0:0:
438,221,35960,1,0,0:0:0:0:
438,221,36048,1,0,0:0:0:0:
358,194,36225,1,8,0:0:0:0:
206,120,36578,1,8,0:0:0:0:
246,131,36666,1,8,0:0:0:0:
286,144,36754,1,0,0:0:0:0:
356,153,37107,1,8,0:0:0:0:
356,153,37284,1,0,0:0:0:0:
382,154,37460,1,0,0:0:0:0:
382,154,37637,1,8,0:0:0:0:
382,154,37813,1,8,0:0:0:0:
246,131,38166,1,0,0:0:0:0:
246,131,38343,1,0,0:0:0:0:
246,131,38519,1,8,0:0:0:0:
246,131,38696,1,8,0:0:0:0:
224,176,38872,1,0,0:0:0:0:
324,133,38960,1,0,0:0:0:0:
324,133,39048,1,0,0:0:0:0:
382,154,39225,1,8,0:0:0:0:
176,144,39313,1,0,0:0:0:0:
176,144,39401,1,0,0:0:0:0:
310,205,39578,1,0,0:0:0:0:
163,175,39931,1,8,0:0:0:0:
214,144,40107,1,0,0:0:0:0:
168,219,40460,1,0,0:0:0:0:
205,217,40548,1,8,0:0:0:0:
176,224,40637,1,8,0:0:0:0:
230,263,40813,1,8,0:0:0:0:
282,268,40990,1,0,0:0:0:0:
345,273,41343,1,8,0:0:0:0:
116,127,41519,1,0,0:0:0:0:
290,181,41607,1,0,0:0:0:0:
290,181,41696,1,0,0:0:0:0:
232,177,41872,1,0,0:0:0:0:
203,108,42048,1,8,0:0:0:0:
123,159,42225,1,8,0:0:0:0:
123,159,42401,1,0,0:0:0:0:
123,159,42578,1,0,0:0:0:0:
123,159,42754,1,8,0:0:0:0:
225,238,42931,1,0,0:0:0:0:
319,275,43284,5,8,0:0:0:0:
313,184,43637,1,0,0:0:0:0:
208,202,43813,1,0,0:0:0:0:
208,202,43901,1,0,0:0:0:0:
208,202,44078,1,0,0:0:0:0:
239,195,44166,1,8,0:0:0:0:
264,196,44343,1,0,0:0:0:0:
264,196,44431,1,0,0:0:0:0:
306,238,44607,1,0,0:0:0:0:
248,167,44696,1,8,0:0:0:0:
216,154,44872,1,8,0:0:0:0:
318,76,44960,1,8,0:0:0:0:
254,204,45048,5,8,0:0:0:0:
262,264,45401,5,0,0:0:0:0:
208,202,45578,1,0,0:0:0:0:
208,202,45666,1,0,0:0:0:0:
208,202,45754,1,0,0:0:0:0:
208,202,45843,1,8,0:0:0:0:
262,264,48225,5,0,0:0:0:0:
208,202,48401,1,0,0:0:0:0:
208,202,48490,1,0,0:0:0:0:
208,202,48578,1,0,0:0:0:0:
208,202,48666,1,8,0:0:0:0:
322,200,49460,5,4,0:0:0:0:
322,200,49813,1,12,0:0:0:0:
240,128,50166,1,0,0:0:0:0:
224,160,50343,1,0,0:0:0:0:
256,160,50519,1,8,0:0:0:0:
256,160,50696,1,0,0:0:0:0:
224,160,50872,1,0,0:0:0:0:
320,224,51048,1,0,0:0:0:0:
288,208,51225,1,8,0:0:0:0:
288,208,51401,1,0,0:0:0:0:
176,224,51490,1,0,0:0:0:0:
176,224,51578,1,8,0:0:0:0:
144,112,51666,1,8,0:0:0:0:
176,224,51754,1,0,0:0:0:0:
128,176,51843,1,0,0:0:0:0:
240,192,51931,1,8,0:0:0:0:
240,192,52107,1,0,0:0:0:0:
256,160,52284,1,0,0:0:0:0:
304,176,52637,1,8,0:0:0:0:
320,192,52901,1,8,0:0:0:0:
304,128,53078,1,8,0:0:0:0:
304,176,53166,1,0,0:0:0:0:
432,208,53254,1,0,0:0:0:0:
400,224,53343,1,8,0:0:0:0:
156,284,53519,1,0,0:0:0:0:
224,208,53696,1,0,0:0:0:0:
320,288,54048,1,8,0:0:0:0:
215,144,54401,1,0,0:0:0:0:
215,144,54578,1,0,0:0:0:0:
215,144,54754,1,8,0:0:0:0:
224,208,55107,1,4,0:0:0:0:
252,191,55372,1,4,0:0:0:0:
295,176,55637,1,4,0:0:0:0:
256,155,55813,1,12,0:0:0:0:
165,56,56078,1,12,0:0:0:0:
188,61,56343,1,12,0:0:0:0:
299,143,56519,1,0,0:0:0:0:
299,143,56696,1,0,0:0:0:0:
205,172,56872,1,8,0:0:0:0:
252,218,57048,1,0,0:0:0:0:
292,279,57225,1,0,0:0:0:0:
292,279,57401,1,0,0:0:0:0:
219,106,57578,1,8,0:0:0:0:
50,318,57754,1,0,0:0:0:0:
184,236,57843,1,0,0:0:0:0:
228,196,57931,1,0,0:0:0:0:
146,191,58107,1,0,0:0:0:0:
304,176,58284,1,8,0:0:0:0:
320,192,58548,1,8,0:0:0:0:
304,128,58725,1,8,0:0:0:0:
304,176,58813,1,8,0:0:0:0:
432,208,58901,1,0,0:0:0:0:
400,224,58990,1,0,0:0:0:0:
240,240,59166,1,0,0:0:0:0:
240,240,59343,1,0,0:0:0:0:
146,191,59519,1,0,0:0:0:0:
292,259,59696,1,8,0:0:0:0:
292,259,59872,1,0,0:0:0:0:
322,250,60048,1,0,0:0:0:0:
212,114,60225,1,8,0:0:0:0:
231,176,60401,1,8,0:0:0:0:
124,104,60754,1,0,0:0:0:0:
180,61,60931,1,0,0:0:0:0:
180,61,61019,1,0,0:0:0:0:
180,61,61107,1,0,0:0:0:0:
192,112,61284,1,0,0:0:0:0:
216,226,61460,1,8,0:0:0:0:
267,218,61548,1,8,0:0:0:0:
319,210,61637,1,8,0:0:0:0:
371,202,61725,1,8,0:0:0:0:
423,194,61813,1,8,0:0:0:0:
250,162,61990,1,0,0:0:0:0:
101,210,62166,1,0,0:0:0:0:
101,210,62343,1,0,0:0:0:0:
231,330,62519,1,8,0:0:0:0:
249,294,62696,1,0,0:0:0:0:
249,294,62784,1,8,0:0:0:0:
249,294,62960,1,8,0:0:0:0:
400,196,63048,1,0,0:0:0:0:
371,202,63225,1,8,0:0:0:0:
193,163,63401,1,0,0:0:0:0:
145,191,63490,1,0,0:0:0:0:
228,184,63578,1,0,0:0:0:0:
145,191,63754,1,0,0:0:0:0:
194,220,63931,1,8,0:0:0:0:
145,191,64107,1,0,0:0:0:0:
145,191,64196,1,8,0:0:0:0:
145,191,64284,1,0,0:0:0:0:
145,191,64372,1,8,0:0:0:0:
108,203,64460,1,0,0:0:0:0:
108,203,64548,1,0,0:0:0:0:
228,184,64637,1,8,0:0:0:0:
255,184,64813,1,0,0:0:0:0:
308,256,64990,1,0,0:0:0:0:
308,256,65166,1,0,0:0:0:0:
308,256,65343,1,8,0:0:0:0:
308,256,65519,1,0,0:0:0:0:
308,256,65607,1,8,0:0:0:0:
308,256,65696,1,0,0:0:0:0:
308,256,65784,1,8,0:0:0:0:
308,256,65872,1,0,0:0:0:0:
364,264,66048,1,8,0:0:0:0:
229,203,66401,1,4,0:0:0:0:
210,155,66666,1,4,0:0:0:0:
282,244,66931,1,4,0:0:0:0:
174,148,67107,1,12,0:0:0:0:
204,151,67372,1,12,0:0:0:0:
204,151,67637,1,12,0:0:0:0:
197,268,67813,1,0,0:0:0:0:
197,268,67990,1,0,0:0:0:0:
197,268,68166,1,8,0:0:0:0:
197,268,68343,1,0,0:0:0:0:
197,268,68519,1,8,0:0:0:0:
212,83,68696,1,8,0:0:0:0:
175,220,68872,1,8,0:0:0:0:
110,174,69048,1,0,0:0:0:0:
110,174,69225,1,0,0:0:0:0:
110,174,69578,1,8,0:0:0:0:
110,174,69754,1,0,0:0:0:0:
126,107,69843,1,0,0:0:0:0:
110,174,69931,1,8,0:0:0:0:
167,119,70019,1,8,0:0:0:0:
54,147,70107,1,0,0:0:0:0:
54,147,70196,1,0,0:0:0:0:
148,76,70284,1,8,0:0:0:0:
155,203,70460,1,0,0:0:0:0:
167,119,70637,1,0,0:0:0:0:
110,174,70813,1,0,0:0:0:0:
358,189,70901,1,0,0:0:0:0:
126,107,70990,1,8,0:0:0:0:
167,119,71166,1,0,0:0:0:0:
110,174,71343,1,8,0:0:0:0:
110,174,71431,1,8,0:0:0:0:
96,342,71519,1,0,0:0:0:0:
275,180,71696,1,8,0:0:0:0:
110,174,71872,1,8,0:0:0:0:
194,222,72048,5,0,0:0:0:0:
252,200,72225,1,0,0:0:0:0:
260,136,72313,1,0,0:0:0:0:
224,256,72401,1,0,0:0:0:0:
180,126,72578,1,0,0:0:0:0:
226,180,72754,1,8,0:0:0:0:
226,180,72843,1,8,0:0:0:0:
180,64,72931,1,8,0:0:0:0:
180,64,73019,1,8,0:0:0:0:
180,64,73107,1,8,0:0:0:0:
185,40,73284,1,8,0:0:0:0:
256,192,73460,5,0,0:0:0:0:
304,192,73637,1,0,0:0:0:0:
368,192,73813,1,8,0:0:0:0:
416,192,73990,1,0,0:0:0:0:
304,192,74343,1,0,0:0:0:0:
352,192,74519,1,8,0:0:0:0:
416,192,74872,1,4,0:0:0:0:
396,81,75225,1,8,0:0:0:0:
358,122,75401,1,0,0:0:0:0:
389,229,75754,1,8,0:0:0:0:
295,290,76107,1,8,0:0:0:0:
350,290,76284,1,4,0:0:0:0:
270,210,76637,1,8,0:0:0:0:
326,208,76813,1,0,0:0:0:0:
379,224,76901,1,0,0:0:0:0:
325,206,76990,1,0,0:0:0:0:
379,194,77166,1,8,0:0:0:0:
433,182,77343,1,8,0:0:0:0:
384,176,77519,1,0,0:0:0:0:
352,176,77607,1,0,0:0:0:0:
323,156,77696,1,8,0:0:0:0:
270,176,77872,1,8,0:0:0:0:
241,224,78048,1,0,0:0:0:0:
241,224,78225,1,0,0:0:0:0:
182,136,78401,1,8,0:0:0:0:
322,243,78490,1,0,0:0:0:0:
336,208,78578,1,8,0:0:0:0:
404,256,78754,1,8,0:0:0:0:
446,183,78931,1,8,0:0:0:0:
416,176,79019,1,0,0:0:0:0:
473,188,79107,1,0,0:0:0:0:
334,169,79460,1,8,0:0:0:0:
346,201,79637,1,0,0:0:0:0:
251,154,79990,1,8,0:0:0:0:
167,158,80166,1,0,0:0:0:0:
164,112,80254,1,0,0:0:0:0:
334,169,80343,1,8,0:0:0:0:
164,112,80431,1,0,0:0:0:0:
271,200,80519,1,8,0:0:0:0:
216,164,80696,1,8,0:0:0:0:
326,328,80872,1,8,0:0:0:0:
120,215,81048,1,0,0:0:0:0:
157,212,81137,1,0,0:0:0:0:
194,210,81225,1,8,0:0:0:0:
232,207,81313,1,0,0:0:0:0:
269,205,81401,1,0,0:0:0:0:
405,311,81578,1,8,0:0:0:0:
256,224,81931,1,0,0:0:0:0:
256,144,82107,1,0,0:0:0:0:
159,168,82196,1,0,0:0:0:0:
320,208,82284,1,8,0:0:0:0:
400,208,82460,1,0,0:0:0:0:
368,208,82813,1,8,0:0:0:0:
172,135,82990,1,0,0:0:0:0:
480,144,83078,1,8,0:0:0:0:
448,160,83166,1,0,0:0:0:0:
172,135,83254,1,8,0:0:0:0:
368,208,83343,1,0,0:0:0:0:
336,240,83431,1,0,0:0:0:0:
336,272,83607,1,0,0:0:0:0:
304,240,83696,1,8,0:0:0:0:
240,176,83872,1,8,0:0:0:0:
208,144,83960,1,0,0:0:0:0:
208,144,84137,1,8,0:0:0:0:
256,144,84225,1,8,0:0:0:0:
304,144,84313,1,8,0:0:0:0:
304,112,84401,1,8,0:0:0:0:
137,168,84490,1,0,0:0:0:0:
112,144,84578,1,8,0:0:0:0:
96,128,84666,1,0,0:0:0:0:
246,230,84754,1,0,0:0:0:0:
137,168,84931,1,0,0:0:0:0:
409,269,85107,1,8,0:0:0:0:
356,204,85284,1,0,0:0:0:0:
164,228,85460,1,0,0:0:0:0:
272,193,85637,1,0,0:0:0:0:
333,135,85813,1,8,0:0:0:0:
398,186,85990,1,8,0:0:0:0:
403,101,86166,1,0,0:0:0:0:
189,196,86343,1,0,0:0:0:0:
445,263,86519,1,8,0:0:0:0:
431,180,86696,1,8,0:0:0:0:
438,221,86784,1,0,0:0:0:0:
438,221,86872,1,0,0:0:0:0:
358,194,87048,1,8,0:0:0:0:
189,196,87225,1,0,0:0:0:0:
206,120,87401,1,8,0:0:0:0:
246,131,87490,1,8,0:0:0:0:
286,144,87578,1,0,0:0:0:0:
189,196,87754,1,0,0:0:0:0:
356,153,87931,1,8,0:0:0:0:
356,153,88107,1,0,0:0:0:0:
382,154,88284,1,0,0:0:0:0:
382,154,88460,1,8,0:0:0:0:
382,154,88637,1,8,0:0:0:0:
189,196,88813,1,0,0:0:0:0:
246,131,88990,1,0,0:0:0:0:
246,131,89166,1,0,0:0:0:0:
246,131,89343,1,8,0:0:0:0:
246,131,89519,1,8,0:0:0:0:
184,124,89696,1,0,0:0:0:0:
324,133,89784,1,0,0:0:0:0:
324,133,89872,1,8,0:0:0:0:
382,154,90048,1,8,0:0:0:0:
176,144,90137,1,0,0:0:0:0:
176,144,90225,1,0,0:0:0:0:
310,205,90401,1,0,0:0:0:0:
364,240,90578,1,0,0:0:0:0:
163,175,90754,1,8,0:0:0:0:
214,144,90931,1,0,0:0:0:0:
127,237,91107,1,0,0:0:0:0:
212,238,91284,1,0,0:0:0:0:
228,208,91372,1,8,0:0:0:0:
274,196,91460,1,0,0:0:0:0:
306,176,91548,1,0,0:0:0:0:
337,155,91637,1,0,0:0:0:0:
282,268,91813,1,0,0:0:0:0:
139,195,91990,1,0,0:0:0:0:
345,273,92166,1,8,0:0:0:0:
153,160,92431,1,0,0:0:0:0:
189,152,92519,1,0,0:0:0:0:
232,177,92696,1,0,0:0:0:0:
203,108,92872,1,8,0:0:0:0:
123,159,93048,1,8,0:0:0:0:
123,159,93225,1,0,0:0:0:0:
123,159,93401,1,0,0:0:0:0:
123,159,93490,1,0,0:0:0:0:
123,159,93578,1,8,0:0:0:0:
225,238,93754,1,0,0:0:0:0:
180,162,93931,1,0,0:0:0:0:
237,210,94107,1,8,0:0:0:0:
112,190,94372,1,0,0:0:0:0:
112,190,94460,1,0,0:0:0:0:
248,188,94637,1,4,0:0:0:0:
345,240,94990,1,12,0:0:0:0:
283,151,95343,1,12,0:0:0:0:
283,151,95519,1,4,0:0:0:0:
283,151,95872,1,4,0:0:0:0:
200,275,96048,1,0,0:0:0:0:
255,254,96225,1,0,0:0:0:0:
108,201,96313,1,0,0:0:0:0:
255,254,96401,1,8,0:0:0:0:
262,232,96578,1,0,0:0:0:0:
182,71,96754,1,8,0:0:0:0:
204,78,96843,1,0,0:0:0:0:
236,102,96931,1,8,0:0:0:0:
283,151,97107,1,0,0:0:0:0:
266,172,97284,1,8,0:0:0:0:
283,151,97372,1,8,0:0:0:0:
283,151,97460,1,0,0:0:0:0:
210,230,97637,1,0,0:0:0:0:
210,230,97813,1,8,0:0:0:0:
112,191,97990,1,0,0:0:0:0:
112,191,98166,1,0,0:0:0:0:
112,191,98254,1,0,0:0:0:0:
112,191,98343,1,8,0:0:0:0:
112,191,98519,1,8,0:0:0:0:
210,230,98696,1,0,0:0:0:0:
197,208,98784,1,0,0:0:0:0:
197,208,98872,1,0,0:0:0:0:
233,200,99048,1,0,0:0:0:0:
361,276,99225,1,8,0:0:0:0:
361,276,99401,1,0,0:0:0:0:
335,258,99578,1,0,0:0:0:0:
335,258,99754,1,8,0:0:0:0:
346,211,99931,1,8,0:0:0:0:
182,300,100107,1,0,0:0:0:0:
139,184,100196,1,0,0:0:0:0:
233,200,100284,1,0,0:0:0:0:
426,120,100460,1,0,0:0:0:0:
200,169,100548,1,0,0:0:0:0:
233,200,100637,1,8,0:0:0:0:
426,120,100813,1,0,0:0:0:0:
426,120,100990,1,8,0:0:0:0:
402,130,101078,1,0,0:0:0:0:
402,130,101166,1,0,0:0:0:0:
200,169,101254,1,8,0:0:0:0:
293,197,101343,1,0,0:0:0:0:
260,160,101431,1,0,0:0:0:0:
293,197,101519,1,8,0:0:0:0:
236,171,101696,1,0,0:0:0:0:
134,148,101872,1,0,0:0:0:0:
134,148,102048,1,8,0:0:0:0:
158,198,102225,1,0,0:0:0:0:
158,198,102313,1,8,0:0:0:0:
158,198,102401,1,0,0:0:0:0:
158,198,102490,1,8,0:0:0:0:
158,198,102578,1,0,0:0:0:0:
144,176,102666,1,0,0:0:0:0:
128,144,102754,1,8,0:0:0:0:
144,128,102931,1,0,0:0:0:0:
236,171,103107,5,0,0:0:0:0:
236,171,103284,1,0,0:0:0:0:
231,76,103460,1,8,0:0:0:0:
168,315,103637,1,0,0:0:0:0:
168,315,103725,1,8,0:0:0:0:
168,315,103813,1,0,0:0:0:0:
168,315,103901,1,8,0:0:0:0:
168,315,103990,1,0,0:0:0:0:
168,315,104166,1,8,0:0:0:0:
168,315,104343,1,8,0:0:0:0:
168,315,104519,1,0,0:0:0:0:
144,308,104607,1,0,0:0:0:0:
144,308,104784,1,0,0:0:0:0:
170,68,104872,1,8,0:0:0:0:
169,196,105048,1,0,0:0:0:0:
169,196,105225,1,0,0:0:0:0:
169,196,105401,1,8,0:0:0:0:
169,196,105578,1,8,0:0:0:0:
389,100,105754,1,8,0:0:0:0:
184,191,105931,1,0,0:0:0:0:
184,191,106019,1,0,0:0:0:0:
129,98,106196,1,0,0:0:0:0:
129,98,106284,1,8,0:0:0:0:
226,201,106460,1,0,0:0:0:0:
226,201,106548,1,0,0:0:0:0:
226,201,106725,1,0,0:0:0:0:
82,183,106813,1,8,0:0:0:0:
187,230,106990,1,8,0:0:0:0:
187,230,107078,1,8,0:0:0:0:
192,208,107166,1,8,0:0:0:0:
389,100,107343,1,4,0:0:0:0:
389,100,107696,1,8,0:0:0:0:
389,100,107872,1,0,0:0:0:0:
190,159,107960,1,8,0:0:0:0:
190,159,108048,1,0,0:0:0:0:
190,159,108137,1,8,0:0:0:0:
190,159,108225,1,0,0:0:0:0:
291,168,108401,1,8,0:0:0:0:
160,256,108578,1,0,0:0:0:0:
190,159,108666,1,8,0:0:0:0:
190,135,108754,1,0,0:0:0:0:
176,368,108931,1,0,0:0:0:0:
190,135,109107,1,8,0:0:0:0:
190,159,109284,1,0,0:0:0:0:
190,159,109372,1,8,0:0:0:0:
190,159,109460,1,0,0:0:0:0:
190,159,109637,1,8,0:0:0:0:
144,336,109813,1,8,0:0:0:0:
200,304,109990,1,0,0:0:0:0:
190,135,110166,1,0,0:0:0:0:
190,135,110519,1,8,0:0:0:0:
190,135,110696,1,0,0:0:0:0:
190,159,110872,1,0,0:0:0:0:
190,159,111048,1,0,0:0:0:0:
135,92,111225,1,8,0:0:0:0:
105,283,111401,1,8,0:0:0:0:
149,190,111490,1,8,0:0:0:0:
135,92,111578,1,0,0:0:0:0:
108,76,111754,1,0,0:0:0:0:
156,245,111843,1,0,0:0:0:0:
136,220,111931,1,8,0:0:0:0:
136,220,112107,1,8,0:0:0:0:
133,268,112284,1,8,0:0:0:0:
133,268,112372,1,0,0:0:0:0:
133,268,112460,1,0,0:0:0:0:
138,300,112548,1,0,0:0:0:0:
120,286,112637,1,8,0:0:0:0:
32,304,112813,1,8,0:0:0:0:
32,304,112990,1,0,0:0:0:0:
240,224,113166,1,0,0:0:0:0:
122,229,113254,1,0,0:0:0:0:
240,224,113343,1,8,0:0:0:0:
240,224,113519,1,0,0:0:0:0:
192,208,113696,1,0,0:0:0:0:
129,163,113872,1,0,0:0:0:0:
224,249,114048,1,8,0:0:0:0:
236,213,114137,1,0,0:0:0:0:
220,146,114225,1,0,0:0:0:0:
220,146,114313,1,8,0:0:0:0:
220,146,114401,1,0,0:0:0:0:
220,146,114754,1,8,0:0:0:0:
174,134,114931,1,0,0:0:0:0:
240,224,115107,1,0,0:0:0:0:
218,212,115284,1,0,0:0:0:0:
343,281,115460,1,8,0:0:0:0:
343,281,115813,1,0,0:0:0:0:
268,268,115901,1,0,0:0:0:0:
268,268,116078,1,0,0:0:0:0:
268,268,116166,1,8,0:0:0:0:
268,268,116343,1,0,0:0:0:0:
249,255,116519,1,0,0:0:0:0:
268,268,116607,1,0,0:0:0:0:
136,27,116696,1,8,0:0:0:0:
111,116,116872,1,0,0:0:0:0:
144,160,117048,1,0,0:0:0:0:
184,191,117225,5,0,0:0:0:0:
184,191,117313,1,0,0:0:0:0:
129,98,117490,1,0,0:0:0:0:
129,98,117578,1,8,0:0:0:0:
226,201,117754,1,0,0:0:0:0:
226,201,117843,1,0,0:0:0:0:
226,201,118019,1,0,0:0:0:0:
82,183,118107,1,8,0:0:0:0:
187,230,118284,1,8,0:0:0:0:
187,230,118372,1,8,0:0:0:0:
160,224,118460,1,8,0:0:0:0:
288,160,118637,5,4,0:0:0:0:
332,208,118813,1,0,0:0:0:0:
288,160,118990,1,0,0:0:0:0:
352,160,119166,1,0,0:0:0:0:
320,224,119343,1,8,0:0:0:0:
288,160,119696,1,0,0:0:0:0:
288,160,119872,1,8,0:0:0:0:
176,48,120048,1,0,0:0:0:0:
176,48,120225,1,0,0:0:0:0:
176,128,120401,1,8,0:0:0:0:
232,160,120578,1,0,0:0:0:0:
176,128,120754,1,8,0:0:0:0:
238,83,121107,1,0,0:0:0:0:
236,147,121460,1,0,0:0:0:0:
184,184,121637,1,8,0:0:0:0:
236,147,121813,1,0,0:0:0:0:
300,164,121990,1,0,0:0:0:0:
169,82,122166,1,8,0:0:0:0:
169,82,122519,1,0,0:0:0:0:
169,82,122696,1,8,0:0:0:0:
169,82,122872,1,0,0:0:0:0:
169,82,123048,1,0,0:0:0:0:
169,82,123225,1,8,0:0:0:0:
220,44,123401,1,0,0:0:0:0:
169,82,123578,1,8,0:0:0:0:
216,124,123754,1,0,0:0:0:0:
169,82,123931,1,8,0:0:0:0:
180,112,124107,1,0,0:0:0:0:
169,82,124284,1,4,0:0:0:0:
169,82,124637,1,0,0:0:0:0:
180,112,124813,1,8,0:0:0:0:
169,82,124990,1,8,0:0:0:0:
161,222,125343,1,0,0:0:0:0:
227,177,125519,1,8,0:0:0:0:
294,133,125696,1,0,0:0:0:0:
361,89,125872,1,8,0:0:0:0:
284,172,126048,1,0,0:0:0:0:
240,128,126401,1,8,0:0:0:0:
284,172,126578,1,8,0:0:0:0:
276,284,126754,1,0,0:0:0:0:
276,284,127107,1,4,0:0:0:0:
224,84,127460,1,8,0:0:0:0:
204,144,127637,1,0,0:0:0:0:
137,84,127813,1,8,0:0:0:0:
178,182,128166,1,0,0:0:0:0:
178,182,128343,1,8,0:0:0:0:
269,190,128519,1,0,0:0:0:0:
269,190,128696,1,8,0:0:0:0:
266,56,128872,1,0,0:0:0:0:
226,137,129048,1,0,0:0:0:0:
226,137,129225,1,8,0:0:0:0:
128,192,129578,1,8,0:0:0:0:
156,200,129931,1,4,0:0:0:0:
156,200,130284,1,0,0:0:0:0:
64,243,130460,1,0,0:0:0:0:
156,200,130637,1,8,0:0:0:0:
159,148,130990,1,0,0:0:0:0:
190,144,131166,1,8,0:0:0:0:
190,144,131343,1,0,0:0:0:0:
190,144,131519,1,8,0:0:0:0:
267,217,131696,1,0,0:0:0:0:
267,217,132048,1,8,0:0:0:0:
272,244,132225,1,0,0:0:0:0:
267,217,132578,1,8,0:0:0:0:
267,217,132754,1,0,0:0:0:0:
267,217,133107,1,0,0:0:0:0:
280,152,133284,1,0,0:0:0:0:
152,44,133460,1,8,0:0:0:0:
199,157,133813,1,0,0:0:0:0:
199,157,133990,1,8,0:0:0:0:
199,157,134166,1,0,0:0:0:0:
182,74,134343,1,0,0:0:0:0:
182,74,134519,1,0,0:0:0:0:
182,74,134872,1,8,0:0:0:0:
187,207,135401,1,0,0:0:0:0:
224,160,135578,1,4,0:0:0:0:
224,192,135931,1,4,0:0:0:0:
224,160,136284,1,8,0:0:0:0:
224,160,136990,1,0,0:0:0:0:
224,192,137343,1,0,0:0:0:0:
224,160,137696,1,8,0:0:0:0:
224,160,138401,1,0,0:0:0:0:
224,192,138754,1,8,0:0:0:0:
65,155,138931,1,0,0:0:0:0:
224,160,139460,1,0,0:0:0:0:
224,160,140166,1,0,0:0:0:0:
224,160,141225,1,4,0:0:0:0:
