osu file format v5

[General]
AudioFilename: IOSYS_toho9_SansuuKyoushitsu.mp3
AudioLeadIn: 0
PreviewTime: -1
Countdown: 1
SampleSet: Normal
StackLeniency: 0.7
Mode: 0
LetterboxInBreaks: 1
EditorBookmarks: 10999,21971,32942,43914,54885,65857,98771

[Metadata]
Title:Sansuu Kyoushitsu
Artist:Iosys
Creator:Lenneth123
Version:Hard
Source:
Tags:

[Difficulty]
HPDrainRate:4
CircleSize:4
OverallDifficulty:5
SliderMultiplier:1
SliderTickRate:2

[Events]
//Background and Video events
//Break Periods
2,65714,70142
//Storyboard Layer 0 (Background)
//Storyboard Layer 1 (Failing)
//Storyboard Layer 2 (Passing)
//Storyboard Layer 3 (Foreground)
//Storyboard Sound Samples
//Background Colour Transformations
3,100,163,162,255

[TimingPoints]
11000,342.857142857143,4,1,0,100,1

[Colours]
Combo1 : 255,150,0
Combo2 : 40,205,31
Combo3 : 45,88,228
Combo4 : 200,38,38

[HitObjects]
94,196,10485,2,0,B|146:266,1,50
147,215,10828,2,0,B|195:262,1,50
348,223,11514,2,0,B|337:160,1,50
375,144,11857,1,0
413,122,12028,1,0
388,85,12199,1,0
345,70,12371,1,0
190,126,13228,6,0,B|174:192,1,50
159,199,13571,2,0,B|141:266,1,50,0|0
218,309,14257,2,0,B|288:282,1,50
300,316,14599,1,0
344,312,14771,1,0
369,275,14942,1,0
347,235,15114,1,0
209,136,16142,6,0,B|323:91,1,100
389,162,17000,2,0,B|384:220,1,50
341,233,17342,2,0,B|327:296,1,50
289,296,17685,1,0
246,307,17857,1,0
202,320,18028,2,0,B|196:293,2,25
157,317,18371,1,0
118,294,18542,1,0
99,253,18714,1,0
101,208,18885,1,0
80,168,19057,1,0
123,158,19228,6,0,B|239:71,1,100,0|0
290,75,19914,2,0,B|287:206,1,100
267,263,20600,1,0
225,281,20771,2,0,B|224:232,2,25,0|0|0
173,286,21114,1,0
128,288,21285,1,0
150,109,21971,6,0,B|217:84|265:133,1,100,0|0
290,124,22485,2,0,B|315:190|279:256,1,100
202,322,23342,2,0,B|142:289|102:222,1,100
103,217,23857,2,0,B|112:157|184:157,1,100
287,228,24714,6,0,B|316:297|390:254|380:257,1,100
401,231,25228,2,0,B|439:161|353:119,1,100
259,97,26085,1,0
219,176,26428,1,0
256,256,26771,1,0
292,175,27114,1,0
232,107,27457,6,0,B|169:88|107:149|114:153,1,100
106,160,27971,2,0,B|90:242|134:272,1,100
242,308,28828,2,0,B|306:328|348:284,1,100
368,262,29342,2,0,B|369:196|283:192,1,100
363,70,30200,6,0,B|291:44|222:90,1,100
245,109,30714,2,0,B|208:165|124:102,1,100
81,235,31571,2,0,B|127:174|177:242|207:317|254:338|317:327|361:284|329:244,1,300
412,239,32942,5,0
390,151,33285,1,0
365,112,33457,2,0,B|284:95|239:124,1,100
136,70,34314,1,0
95,150,34657,1,0
72,188,34828,2,0,B|105:270|181:259,1,100
257,323,35685,5,0
340,288,36028,1,0
379,265,36200,2,0,B|368:179|286:196,1,100
316,58,37057,1,0
225,62,37400,1,0
145,104,37742,1,0
85,171,38085,1,0
82,261,38428,5,0
158,308,38771,1,0
194,281,38942,2,0,B|254:231|304:290,1,100
413,315,39800,1,0
462,239,40142,1,0
444,197,40314,2,0,B|372:239|330:189,1,100
231,273,41171,6,0,B|209:251,1,25
255,239,41428,2,0,B|223:206,1,25
280,206,41685,2,0,B|259:181,1,25
307,174,41942,2,0,B|290:142,1,25
337,135,42200,1,0
313,96,42371,1,0
274,72,42542,1,0
229,78,42714,1,0
189,98,42885,1,0
148,118,43057,2,0,B|117:145,1,25
257,196,43914,5,0
347,196,44257,1,0
383,222,44428,1,0
347,250,44600,2,0,B|246:313,1,100
172,307,45285,2,0,B|132:272,1,50
99,245,45628,2,0,B|101:186,1,50
105,150,45971,1,0
148,71,46314,1,0
238,74,46657,5,0
265,109,46828,1,0
231,139,47000,1,0
266,166,47171,1,0
227,189,47342,2,0,B|209:247|290:266,1,100
316,282,47857,1,0
360,284,48028,1,0
450,284,48371,2,0,B|450:179,1,100,0|0
343,96,49400,6,0,B|299:132,1,50
266,103,49743,2,0,B|216:147,1,50
187,118,50085,2,0,B|114:129|89:203,1,100
93,258,50771,1,0
123,291,50942,1,0
150,255,51114,1,0
172,293,51285,1,0
200,257,51457,2,0,B|261:272|312:269,1,100
389,272,52142,6,0,B|390:153|384:159,1,100
382,126,52657,1,0
351,92,52828,1,0
326,129,53000,1,0
298,93,53171,1,0
272,130,53342,1,0
241,96,53514,2,0,B|151:114|142:159|159:212,1,150
151,239,54200,1,0
254,193,54885,6,0,B|280:242,1,50
315,212,55228,2,0,B|342:263,1,50
383,257,55571,1,0
383,166,55914,1,0
369,76,56257,2,0,B|314:105,1,50
296,63,56600,1,0
270,99,56771,1,0
239,65,56942,2,0,B|185:69|135:131,1,100
101,185,57628,6,0,B|54:241,1,50
46,262,57971,2,0,B|98:303,1,50
129,301,58314,1,0
219,303,58657,2,0,B|328:304,1,100
399,262,59342,1,0
443,183,59685,1,0
346,121,60371,6,0,B|307:67|241:54|174:75|147:117|135:151|147:179|170:220|204:238|233:249|277:249|329:220|356:179|353:151|353:109|350:92|349:83|351:359,1,700
262,316,63114,1,0
140,182,63800,1,0
257,59,64485,1,0
257,152,64828,1,0
257,242,65171,1,0
257,332,65514,1,0
252,205,71342,5,0
256,122,72714,5,0
311,192,73057,1,0
256,263,73400,1,0
198,193,73742,1,0
185,103,74085,6,0,B|327:104,1,100
285,194,74771,2,0,B|179:192,1,100
181,282,75457,2,0,B|294:282,2,100
139,264,76314,6,0,B|91:228,1,50
64,204,76657,2,0,B|111:160,1,50
233,194,77342,2,0,B|235:139,1,50
236,98,77685,1,0
281,97,77857,1,0
315,125,78028,1,0
312,170,78200,2,0,B|313:285,2,100
350,193,79057,6,0,B|402:231,1,50
423,253,79400,2,0,B|380:302,1,50
257,318,80085,2,0,B|204:281,1,50
170,286,80428,1,0
124,286,80600,1,0
92,253,80771,1,0
90,208,80942,2,0,B|90:101,2,100
180,203,81971,5,0
270,203,82314,1,0
371,114,82828,2,0,B|319:69,1,50
288,75,83171,2,0,B|246:117,1,50
207,111,83514,1,0
201,201,83857,6,0,B|237:246,1,50
277,245,84200,2,0,B|321:205,1,50
358,207,84542,2,0,B|359:263,2,50
403,207,85057,1,0
362,126,85400,1,0
274,104,85742,1,0
184,110,86085,1,0
121,175,86428,2,0,B|197:259,2,100
110,130,87285,6,0,B|164:128,1,50
205,128,87628,2,0,B|268:125|267:134,1,50
390,129,88314,2,0,B|389:188,1,50
351,204,88657,1,0
347,248,88828,1,0
313,278,89000,1,0
268,280,89171,1,0
90,251,90028,6,0,B|89:187,1,50
133,193,90371,2,0,B|130:116,1,50
234,56,91057,2,0,B|291:55,1,50
329,59,91400,1,0
366,83,91571,2,0,B|429:131,2,50
339,303,92942,6,0,B|211:305,1,100
104,286,93800,1,0
135,253,93971,1,0
107,217,94142,1,0
139,186,94314,1,0
176,161,94485,1,0
221,158,94657,2,0,B|336:161,3,100
410,166,96028,6,0,B|336:256,1,100
308,161,96714,2,0,B|223:251,1,100
196,153,97400,2,0,B|126:234,2,100
150,109,98771,6,0,B|217:84|265:133,1,100,0|0
290,124,99285,2,0,B|315:190|279:256,1,100
202,322,100142,2,0,B|142:289|102:222,1,100
103,217,100657,2,0,B|112:157|184:157,1,100
287,228,101514,6,0,B|316:297|390:254|380:257,1,100
401,231,102028,2,0,B|439:161|353:119,1,100
259,97,102885,1,0
219,176,103228,1,0
256,256,103571,1,0
292,175,103914,1,0
232,107,104257,6,0,B|169:88|107:149|114:153,1,100
106,160,104771,2,0,B|90:242|134:272,1,100
242,308,105628,2,0,B|306:328|348:284,1,100
368,262,106142,2,0,B|369:196|283:192,1,100
363,70,107000,6,0,B|291:44|222:90,1,100
245,109,107514,2,0,B|208:165|124:102,1,100
81,235,108371,2,0,B|127:174|177:242|207:317|254:338|317:327|361:284|329:244,1,300
412,239,109742,5,0
390,151,110085,1,0
365,112,110257,2,0,B|284:95|239:124,1,100
136,70,111114,1,0
95,150,111457,1,0
72,188,111628,2,0,B|105:270|181:259,1,100
257,323,112485,5,0
340,288,112828,1,0
379,265,113000,2,0,B|368:179|286:196,1,100
316,58,113857,1,0
225,62,114200,1,0
145,104,114542,1,0
85,171,114885,1,0
82,261,115228,5,0
158,308,115571,1,0
194,281,115742,2,0,B|254:231|304:290,1,100
413,315,116600,1,0
462,239,116942,1,0
444,197,117114,2,0,B|372:239|330:189,1,100
231,273,117971,6,0,B|209:251,1,25
255,239,118228,2,0,B|223:206,1,25
280,206,118485,2,0,B|259:181,1,25
307,174,118742,2,0,B|290:142,1,25
337,135,119000,1,0
313,96,119171,1,0
274,72,119342,1,0
229,78,119514,1,0
189,98,119685,1,0
148,118,119857,2,0,B|117:145,1,25
