osu file format v5

[General]
AudioFilename: Marisa stole the precious thing-Iosys.mp3
AudioLeadIn: 0
PreviewTime: -1
Countdown: 1
SampleSet: None

[Metadata]
Title:Marisa stole the precious thing
Artist:Iosys
Creator:sakimichi
Version:Hard

[Difficulty]
HPDrainRate:1
CircleSize:5
OverallDifficulty:10
SliderMultiplier:0.5
SliderTickRate:1

[Events]
//Background and Video events
0,0,"3509-kanata konata lucky_star.jpg"
//Break Periods
2,33784,38441
//Storyboard Layer 0 (Background)
//Storyboard Layer 1 (Failing)
//Storyboard Layer 2 (Passing)
//Storyboard Layer 3 (Foreground)
//Storyboard Sound Samples
//Background Colour Transformations
3,100,163,162,255

[TimingPoints]
9408,331.185112800716,4,0,0,100

[Colours]
Combo1 : 255,0,128
Combo2 : 154,205,248
Combo3 : 234,83,74
Combo4 : 255,140,198
Combo5 : 81,168,255

[HitObjects]
112,129,6758,1,0
160,160,8082,1,0
224,160,9322,1,0
128,256,10141,1,0
192,256,10564,1,0
256,256,10935,1,0
104,94,11395,2,0,B|200:95,8,50
100,176,14375,2,0,B|127:176,8,50
96,331,17025,2,0,B|193:331,7,50
128,128,19933,1,0
128,128,20303,1,0
196,128,20727,1,0
263,131,20999,1,0
329,135,21521,1,0
98,220,21993,2,0,B|196:220,2,50
97,127,22655,2,0,B|201:127,4,100
455,128,25636,2,0,B|327:64,3,100
96,128,28455,2,0,B|224:128,3,100
64,138,31266,2,0,B|421:136,1,350
256,192,39041,12,0,43588
132,104,45507,1,0
132,104,45838,1,0
132,104,46169,1,0
132,104,46500,1,0
132,104,46831,1,0
132,104,47163,1,0
132,104,47494,1,0
132,104,47825,1,0
267,96,48156,1,0
267,96,48487,1,0
267,96,48819,1,0
267,96,49150,1,0
267,96,49481,1,0
267,96,49812,1,0
129,234,50143,2,0,B|237:236,1,100
88,194,51137,1,0
88,194,51468,1,0
88,194,51799,1,0
88,194,52130,1,0
88,194,52462,1,0
88,194,52793,1,0
88,194,53124,1,0
88,194,53455,1,0
224,194,53786,1,0
224,194,54117,1,0
196,106,54449,1,0
196,106,54780,1,0
196,106,55111,1,0
196,106,55442,1,0
275,106,55773,2,0,B|392:106,1,100
137,108,56767,1,0
137,108,57098,1,0
137,108,57761,1,0
239,199,58092,5,0
239,199,58423,1,0
239,199,58754,1,0
239,199,59085,1,0
274,122,59416,1,0
274,122,59748,1,0
274,122,60079,1,0
274,122,60410,1,0
274,122,61072,1,0
274,122,61404,1,0
274,122,61735,1,0
274,122,62066,1,0
77,242,62397,1,0
77,242,62728,1,0
77,242,63059,1,0
77,242,63391,1,0
109,84,63722,2,0,B|170:85,3,50
33,173,65047,2,0,B|298:112|240:307,1,300
64,128,68027,2,0,B|128:128,1,50
216,123,68358,2,0,B|277:126,3,50
339,127,69352,2,0,B|436:127,2,50
70,233,70014,2,0,B|268:232,1,150
178,72,71008,1,0
178,72,71339,1,0
178,72,71670,1,0
178,72,72001,1,0
178,72,72333,1,0
178,72,72664,1,0
178,72,72995,1,0
34,212,73326,2,0,B|275:192,2,200
188,104,76307,1,0
188,104,76969,1,0
188,104,77300,1,0
188,104,77632,1,0
65,203,79288,2,0,B|288:104|339:284,2,300
43,98,83593,2,0,B|182:100,1,100
138,224,84255,2,0,B|312:226,1,150
95,78,85249,2,0,B|148:80|147:81,2,50
96,135,86242,2,0,B|178:135,2,50
118,196,86905,2,0,B|232:196,2,100
256,192,88561,12,0,90217
45,166,90548,2,0,B|281:92|181:238,1,250
422,163,93197,2,0,B|346:340|244:293,2,200
41,119,96178,2,0,B|356:116|228:264,1,300
67,124,99159,2,0,B|285:278|57:256,1,250
90,112,101808,1,0
90,112,102139,1,0
90,112,102471,1,0
90,112,102802,1,0
90,112,103133,1,0
71,186,103133,2,0,B|319:197,1,200
304,140,104789,6,0,B|37:70|59:188|60:188,1,250
59,127,107438,1,0
59,127,107769,1,0
59,127,108101,1,0
110,140,108763,2,0,B|333:206|60:290|62:290|64:283,1,250
223,138,110750,2,0,B|463:207|405:42,1,250
404,42,112406,2,0,B|138:55|328:268|328:265,1,300
235,121,116049,1,0
235,121,116380,1,0
235,121,116711,1,0
235,121,117043,1,0
235,121,117374,1,0
235,121,117705,1,0
235,121,118036,1,0
235,121,118367,1,0
235,121,118699,1,0
