osu file format v9

[General]
AudioFilename: ma ka se te Tonight.mp3
AudioLeadIn: 0
PreviewTime: 66332
Countdown: 0
SampleSet: Normal
StackLeniency: 0.2
Mode: 0
LetterboxInBreaks: 1

[Editor]
Bookmarks: 17071
DistanceSpacing: 0.3
BeatDivisor: 1
GridSize: 32

[Metadata]
Title:Ma.Ka.Se.Te Tonight (TV Size)
Artist:Iori Nomizu
Creator:MiKoMokoShost
Version:KEY
Source:korewa zombie desuka?
Tags:Optimal kerry wood, and lk plug ismail

[Difficulty]
HPDrainRate:4
CircleSize:4
OverallDifficulty:7
ApproachRate:7
SliderMultiplier:1.60000000596046
SliderTickRate:0.5

[Events]
//Background and Video events
0,0,"BG-KEY.jpg"
//Break Periods
2,59038,65895
//Storyboard Layer 0 (Background)
//Storyboard Layer 1 (Fail)
//Storyboard Layer 2 (Pass)
//Storyboard Layer 3 (Foreground)
//Storyboard Sound Samples
//Background Colour Transformations
3,100,163,162,255

[TimingPoints]
6464,331.491712707182,4,1,0,49,1,0
6629,-100,4,1,1,49,0,0
6961,-100,4,1,0,49,0,0
7126,-100,4,1,2,49,0,0
7458,-100,4,1,1,49,0,0
7789,-100,4,1,1,49,0,0
8452,-100,4,1,0,49,0,0
8784,-100,4,1,2,49,0,0
9115,-100,4,1,1,49,0,0
9447,-100,4,1,0,49,0,0
10110,-100,4,1,0,49,0,0
10441,-100,4,1,1,49,0,0
10773,-100,4,1,0,49,0,0
11104,-100,4,1,1,49,0,0
11436,-100,4,1,0,49,0,0
11767,-100,4,1,1,49,0,0
16740,-100,4,1,0,61,0,0
17071,-100,4,1,0,49,0,0
17734,-100,4,1,1,49,0,0
18066,-100,4,1,0,49,0,0
18729,-100,4,1,1,49,0,0
19060,-100,4,1,1,49,0,0
19392,-100,4,1,1,49,0,0
19723,-100,4,1,1,49,0,0
20055,-100,4,1,1,49,0,0
20386,-100,4,1,1,49,0,0
21049,-100,4,1,1,49,0,0
27679,-100,4,1,0,0,0,0
28010,-100,4,1,0,49,0,0
29834,-100,4,1,2,49,0,0
29999,-100,4,1,1,49,0,0
30165,-100,4,1,2,49,0,0
30331,-100,4,1,0,0,0,0
30662,-100,4,1,0,49,0,0
33149,-100,4,1,2,49,0,0
33314,-100,4,1,1,49,0,0
37126,-50,4,1,0,49,0,0
37955,-50,4,1,1,49,0,0
40607,-100,4,1,1,49,0,0
42596,-100,4,1,0,49,0,0
44254,-100,4,1,0,49,0,0
48894,-200,4,1,1,22,0,0
49226,-200,4,1,2,22,0,0
49392,-200,4,1,1,22,0,0
49889,-200,4,1,2,22,0,0
50055,-200,4,1,1,22,0,0
58839,-100,4,1,0,49,0,0
66795,-100,4,1,0,49,0,1
73756,-100,4,1,0,0,0,1
75414,-100,4,1,0,49,0,1
76905,-100,4,1,2,49,0,1
77071,-100,4,1,0,49,0,0
77171,-100,4,1,0,49,0,1
89005,1333.33333333333,4,1,0,0,1,1
90331,-100,4,2,0,49,0,1

[Colours]
Combo1 : 255,150,0
Combo2 : 5,240,5
Combo3 : 5,5,240
Combo4 : 240,5,5

[HitObjects]
192,48,6463,6,0,B|96:0|16:48,1,160.000000596046,0|8
32,160,7126,2,0,B|32:256,1,80.000000298023,0|0
32,240,7458,1,8
160,208,7789,5,0
224,208,7955,1,8
288,208,8121,1,0
352,208,8287,1,8
304,80,8618,6,0,B|304:32|208:0|160:32|96:32|96:128,2,240.000000894069,0|8|0
176,112,9944,5,0
240,112,10110,1,0
304,112,10276,1,0
288,176,10441,5,0
304,240,10607,1,8
304,304,10773,1,0
240,304,10939,5,0
176,304,11104,1,8
112,304,11270,1,0
112,240,11436,5,0
112,176,11602,1,8
112,112,11767,1,0
256,192,11933,12,0,13756
256,192,14419,12,0,17071
256,192,17403,5,12
256,192,17734,2,0,B|176:192,1,80.000000298023,0|8
48,192,18231,1,0
32,64,18563,1,8
160,32,18894,1,0
224,32,19060,1,8
352,16,19392,1,0
432,128,19723,1,8
464,256,20055,1,0
336,288,20386,1,8
272,288,20552,1,0
208,288,20718,1,8
144,288,20883,1,0
16,256,21215,6,0,B|16:112,1,80.000000298023,0|8
128,336,21712,2,0,B|128:240,1,80.000000298023,0|8
96,0,22375,5,8
224,0,22706,1,0
352,16,23038,1,8
416,16,23204,1,0
432,144,23535,1,8
336,224,23867,1,0
208,240,24198,1,8
144,240,24364,1,0
32,176,24695,1,8
96,64,25027,5,0
224,64,25359,1,8
352,48,25690,1,8
352,48,25856,1,0
352,48,26022,1,8
352,48,26187,1,0
224,192,26519,5,8
224,192,26685,2,0,B|160:224|96:160,1,80.000000298023
146,195,27017,2,8,B|96:224|32:160,1,80.000000298023
70,190,27348,1,0
70,190,27514,1,0
70,190,27680,1,8
128,64,29668,6,0,B|64:64|64:128|64:176|144:176,2,160.000000596046,8|0|0
160,128,30662,1,0
96,112,32983,6,0,B|272:112,1,160.000000596046,0|8
384,112,33646,2,0,B|368:208,1,80.000000298023,0|8
304,304,34143,2,0,B|128:304,1,160.000000596046,0|8
80,192,34806,1,0
80,192,34972,1,8
128,80,35303,1,0
224,160,35635,1,0
176,288,35966,1,8
48,288,36298,5,0
32,224,36463,1,8
16,160,36629,1,0
0,96,36795,1,8
256,80,37126,6,0,B|448:80,1,160.000000596046,8|0
480,80,37624,2,0,B|480:256,1,160.000000596046,0|8
224,240,38204,5,0
128,320,38370,1,8
48,224,38535,1,0
128,128,38701,1,8
256,128,38867,1,0
320,240,39033,1,8
320,368,39198,1,0
320,368,39364,2,8,B|144:368,1,160.000000596046
160,368,39695,2,8,B|176:176,1,160.000000596046
173,208,40027,1,0
173,208,40193,1,8
173,208,40358,1,0
256,192,40607,12,0,43591
256,192,43922,12,0,46408
56,72,48894,6,0,B|56:224|56:224,1,160.000000596046
192,96,49889,5,0
288,128,50220,1,0
224,192,50552,1,0
224,192,50883,2,0,B|288:128,2,80.000000298023
224,192,51878,2,0,B|160:256,2,80.000000298023
224,192,52872,1,0
224,192,53204,1,0
160,192,53535,5,0
160,192,53867,1,0
96,192,54198,5,0
96,192,54530,1,0
32,192,54861,5,0
32,192,55193,1,0
32,192,55524,2,0,B|32:352,5,160.000000596046
144,32,66795,6,8,B|32:32,1,80.000000298023
128,96,67126,2,0,B|256:96,1,80.000000298023
128,160,67458,1,0
128,160,67624,2,8,B|160:256|160:80,1,80.000000298023
128,160,67955,1,0
128,160,68121,1,8
160,304,68784,6,0,B|80:288|64:176,1,160.000000596046,0|8
256,192,69447,1,8
256,96,69613,5,8
352,96,69778,1,8
352,192,69944,1,0
352,288,70110,1,8
256,288,70276,1,8
256,384,70441,1,0
352,384,70607,1,0
352,384,70773,2,0,B|352:240,2,80.000000298023,0|8|0
208,256,71436,5,0
64,128,71767,1,8
256,80,72099,5,0
160,80,72265,1,0
208,160,72430,1,0
160,80,72596,1,0
256,80,72762,1,8
304,160,72928,1,0
352,80,73093,1,0
400,160,73259,1,0
352,80,73425,1,8
256,192,73591,12,8,74586
272,112,75082,5,0
272,112,75248,1,0
128,208,75580,1,0
288,320,75911,1,0
496,128,76740,6,0,B|320:128,1,160.000000596046,0|4
144,144,77403,1,0
144,240,77569,1,0
144,144,77734,1,0
144,240,77900,1,12
144,144,78066,1,0
144,144,78231,2,0,B|176:192|128:288,2,80.000000298023
320,80,79392,5,8
128,80,79724,1,0
48,256,80055,6,8,B|48:352,1,80.000000298023
256,336,80386,2,0,B|256:240,1,80.000000298023
416,256,80718,2,8,B|416:352,1,80.000000298023
256,336,81049,1,0
256,336,81215,2,0,B|208:224|336:224|224:80,1,240.000000894069,0|8
64,32,82044,5,0
64,96,82209,1,0
64,160,82375,1,8
64,224,82541,1,0
64,288,82707,5,0
88,288,82872,1,0
112,288,83038,1,0
136,288,83204,1,0
160,288,83370,2,0,B|240:288,11,80.000000298023
320,176,85359,5,0
320,176,85524,1,0
240,128,85690,5,0
160,192,85856,2,0,B|160:304,1,80.000000298023
64,288,86187,5,0
112,368,86353,1,0
160,288,86519,1,0
112,368,86684,1,0
64,288,86850,1,0
112,208,87016,1,0
64,288,87182,1,0
112,208,87347,1,0
256,192,87513,12,0,89005
208,64,89338,6,0,B|80:64,1,120.000000447034
