osu file format v14

[General]
AudioFilename: Intoxicados - Nunca Quise.mp3
AudioLeadIn: 0
PreviewTime: 18054
Countdown: 0
SampleSet: Soft
StackLeniency: 0.7
Mode: 2
LetterboxInBreaks: 1
WidescreenStoryboard: 1

[Editor]
Bookmarks: 83647,99919,181274,190935
DistanceSpacing: 2
BeatDivisor: 4
GridSize: 4
TimelineZoom: 0.9999999

[Metadata]
Title:Nunca Quise
TitleUnicode:Nunca Quise
Artist:Intoxicados
ArtistUnicode:Intoxicados
Creator:Manuxz
Version:Rain
Source:
Tags:Pity Alvarez Rock Argentino Otro dia en el planeta Tierra
BeatmapID:725593
BeatmapSetID:298565

[Difficulty]
HPDrainRate:7
CircleSize:4
OverallDifficulty:9
ApproachRate:9
SliderMultiplier:1.7
SliderTickRate:2

[Events]
//Background and Video events
0,0,"BG.jpg",0,0
//Break Periods
//Storyboard Layer 0 (Background)
//Storyboard Layer 1 (Fail)
//Storyboard Layer 2 (Pass)
//Storyboard Layer 3 (Foreground)
//Storyboard Sound Samples

[TimingPoints]
258,508.474576271186,4,2,1,75,1,0
12461,-100,4,2,1,10,0,0
13224,-100,4,2,1,15,0,0
13986,-100,4,2,1,20,0,0
14749,-100,4,2,1,25,0,0
15512,-100,4,2,1,30,0,0
15766,-100,4,2,1,35,0,0
16020,-100,4,2,1,40,0,0
16274,-100,4,2,1,45,0,0
16529,-100,4,2,1,50,0,0
16783,-100,4,2,1,55,0,0
17037,-100,4,2,1,60,0,0
17291,-100,4,2,1,65,0,0
17546,-100,4,2,1,70,0,0
51105,-100,4,2,1,75,0,1
66359,-100,4,2,1,75,0,0
98647,-100,4,3,1,75,0,0
99410,-100,4,2,1,75,0,0
116190,-100,4,2,1,75,0,1
131952,-100,4,2,1,75,0,0
133732,-100,4,3,1,50,0,0
134495,-100,4,2,1,75,0,0
150766,-100,4,2,1,50,0,1
167037,-100,4,2,1,50,0,0

[Colours]
Combo1 : 255,0,0
Combo2 : 128,255,128
Combo3 : 255,128,64
Combo4 : 255,255,128

[HitObjects]
352,352,258,6,0,B|416:256|416:256|367:231,1,170,2|0,0:0|0:0,0:0:0:0:
112,231,1274,2,0,L|64:160,1,85,2|0,0:0|0:0,0:0:0:0:
192,160,1783,1,0,0:0:0:0:
319,160,2037,1,0,0:0:0:0:
512,160,2291,6,0,P|504:240|443:308,1,170,2|0,0:0|0:0,0:0:0:0:
319,305,3054,1,0,0:0:0:0:
191,305,3308,2,0,L|203:213,1,85,2|0,0:0|0:0,0:0:0:0:
0,224,3817,2,0,L|10:138,1,85
231,32,4325,6,0,B|283:40|303:72|303:72|283:104|229:107,1,170,2|0,0:0|0:0,0:0:0:0:
116,104,5088,1,0,0:0:0:0:
0,107,5342,2,0,L|33:185,1,85,2|0,0:0|0:0,0:0:0:0:
232,192,5851,2,0,L|198:270,1,85
445,264,6359,6,0,B|489:219|489:219|399:160,1,170,2|0,0:0|0:0,0:0:0:0:
271,160,7122,1,0,0:0:0:0:
143,160,7376,2,0,L|179:84,1,85,2|0,0:0|0:0,0:0:0:0:
380,152,7885,2,0,L|344:76,1,85
80,252,8393,6,0,B|40:304|40:304|136:344,1,170,2|0,0:0|0:0,0:0:0:0:
264,344,9156,1,0,0:0:0:0:
391,344,9410,2,0,L|391:256,1,85,2|0,0:0|0:0,0:0:0:0:
188,192,9919,2,0,L|188:277,1,85
477,144,10427,6,0,B|432:200|432:200|497:272,1,170,2|0,0:0|0:0,0:0:0:0:
369,272,11190,1,0,0:0:0:0:
100,256,11444,2,0,L|136:172,1,85,2|0,0:0|0:0,0:0:0:0:
473,172,11952,2,0,L|509:88,1,85,2|0,0:0|0:0,0:0:0:0:
38,171,12461,6,0,L|6:93,1,85,8|8,0:0|0:0,0:0:0:0:
133,93,12969,1,8,0:0:0:0:
286,93,13224,2,0,L|201:93,1,85,8|8,0:0|0:0,0:0:0:0:
353,93,13732,1,8,0:0:0:0:
506,93,13986,2,0,L|421:93,1,85,8|8,0:0|0:0,0:0:0:0:
104,288,14495,6,0,L|19:288,2,85,8|8|8,0:0|0:0|0:0,0:0:0:0:
256,288,15257,2,0,L|168:288,1,85,8|8,0:0|0:0,0:0:0:0:
324,288,15766,1,8,0:0:0:0:
476,288,16020,2,0,L|391:288,1,85,8|8,0:0|0:0,0:0:0:0:
224,224,16529,6,0,B|309:224,1,85,8|8,0:0|0:0,0:0:0:0:
156,224,17037,1,8,0:0:0:0:
3,224,17291,2,0,B|88:224,1,85,8|8,0:0|0:0,0:0:0:0:
416,160,17800,5,8,0:3:0:0:
263,160,18054,1,8,0:3:0:0:
110,160,18308,1,8,0:3:0:0:
448,352,18563,6,0,B|352:320|352:320|400:271,1,170,4|8,0:0|0:0,0:0:0:0:
273,271,19325,1,0,0:0:0:0:
145,271,19580,2,0,L|219:229,1,85,2|0,0:0|0:0,0:0:0:0:
91,229,20088,2,0,L|18:186,1,85,8|0,0:0|0:0,0:0:0:0:
336,160,20596,6,0,P|368:86|449:83,1,170,2|8,0:0|0:0,0:0:0:0:
321,301,21359,1,0,0:0:0:0:
193,301,21613,1,2,0:0:0:0:
128,301,21741,1,0,0:0:0:0:
64,301,21868,2,0,L|149:301,1,85,0|8,0:0|0:0,0:0:0:0:
21,235,22376,1,0,0:0:0:0:
432,224,22630,5,2,0:0:0:0:
368,224,22757,1,0,0:0:0:0:
303,224,22885,1,0,0:0:0:0:
175,224,23139,2,0,P|168:183|175:141,1,85,8|0,0:0|0:0,0:0:0:0:
328,144,23647,1,2,0:0:0:0:
175,140,23902,2,0,L|208:48,1,85,0|8,0:0|0:0,0:0:0:0:
47,56,24410,1,0,0:0:0:0:
392,40,24664,6,0,B|344:112,1,85,2|0,0:0|0:0,0:0:0:0:
256,112,25046,1,0,0:0:0:0:
168,112,25173,2,0,L|216:184,1,85,8|0,0:0|0:0,0:0:0:0:
432,176,25681,1,2,0:0:0:0:
216,296,25935,1,0,0:0:0:0:
386,296,26190,1,8,0:0:0:0:
168,224,26444,1,0,0:0:0:0:
488,344,26698,6,0,L|481:259,1,85,2|0,0:0|0:0,0:0:0:0:
328,256,27207,2,0,L|233:227,1,85,8|0,0:0|0:0,0:0:0:0:
391,231,27715,1,2,0:0:0:0:
214,122,27969,2,0,L|311:87,1,85,0|8,0:0|0:0,0:0:0:0:
438,93,28478,1,0,0:0:0:0:
112,48,28732,6,0,L|197:48,1,85,2|0,0:0|0:0,0:0:0:0:
341,48,29241,2,0,L|256:48,1,85,8|0,0:0|0:0,0:0:0:0:
400,48,29749,2,0,B|400:140|400:140|322:140,1,170,2|8,0:0|0:0,0:0:0:0:
424,242,30512,1,0,0:0:0:0:
88,236,30766,5,2,0:0:0:0:
3,192,30893,1,0,0:0:0:0:
87,132,31020,1,0,0:0:0:0:
231,132,31274,2,0,B|176:200,1,85,8|0,0:0|0:0,0:0:0:0:
264,216,31656,1,0,0:0:0:0:
349,212,31783,1,2,0:0:0:0:
476,212,32037,2,0,L|512:288,1,85,0|8,0:0|0:0,0:0:0:0:
384,288,32546,1,0,0:0:0:0:
69,288,32800,6,0,L|154:288,1,85,2|0,0:0|0:0,0:0:0:0:
316,288,33308,1,0,0:0:0:0:
0,132,33563,2,0,L|36:208,1,85,0|2,0:0|0:0,0:0:0:0:
121,208,33944,1,0,0:0:0:0:
205,208,34071,2,0,L|265:147,1,85,0|8,0:0|0:0,0:0:0:0:
119,147,34580,1,0,0:0:0:0:
460,64,34834,6,0,L|376:46,1,85,2|0,0:0|0:0,0:0:0:0:
232,133,35342,2,0,L|315:150,1,85,8|0,0:0|0:0,0:0:0:0:
400,150,35724,1,0,0:0:0:0:
484,150,35851,2,0,L|397:168,2,85,2|0|8,0:0|0:0|0:0,0:0:0:0:
348,150,36613,1,0,0:0:0:0:
211,150,36868,6,0,P|183:181|143:197,1,85,2|0,0:0|0:0,0:0:0:0:
7,196,37376,2,0,P|22:235|55:263,1,85,8|0,0:0|0:0,0:0:0:0:
138,262,37757,1,0,0:0:0:0:
223,262,37885,1,2,0:0:0:0:
358,262,38139,2,0,P|318:247|290:215,1,85,0|8,0:0|0:0,0:0:0:0:
426,215,38647,1,0,0:0:0:0:
84,180,38902,5,2,0:0:0:0:
12,184,39029,1,0,0:0:0:0:
84,180,39156,1,0,0:0:0:0:
236,180,39410,2,0,B|201:102,1,85,8|0,0:0|0:0,0:0:0:0:
47,102,39919,1,2,0:0:0:0:
201,102,40173,2,0,L|286:102,1,85,0|8,0:0|0:0,0:0:0:0:
438,102,40681,1,0,0:0:0:0:
116,336,40935,6,0,L|160:256,1,85,2|0,0:0|0:0,0:0:0:0:
242,261,41317,1,0,0:0:0:0:
326,261,41444,2,0,L|274:189,1,85,8|0,0:0|0:0,0:0:0:0:
412,192,41952,1,2,0:0:0:0:
156,160,42207,2,0,L|71:160,2,85,0|8|0,0:0|0:0|0:0,0:0:0:0:
496,108,42969,6,0,L|411:108,1,85,2|0,0:0|0:0,0:0:0:0:
274,108,43478,2,0,L|189:108,2,85,8|0|2,0:0|0:0|0:0,0:0:0:0:
189,108,44113,1,0,0:0:0:0:
103,108,44241,2,0,L|18:108,1,85,0|8,0:0|0:0,0:0:0:0:
153,276,44749,1,0,0:0:0:0:
493,284,45003,6,0,L|411:308,1,85,2|0,0:0|0:0,0:0:0:0:
326,308,45385,1,0,0:0:0:0:
241,308,45512,2,0,L|326:308,1,85,8|0,0:0|0:0,0:0:0:0:
190,308,46020,1,2,0:0:0:0:
54,308,46274,2,0,B|4:238,1,85,0|8,0:0|0:0,0:0:0:0:
141,238,46783,1,0,0:0:0:0:
468,232,47037,6,0,B|489:149,1,85,2|0,0:0|0:0,0:0:0:0:
44,232,47546,2,0,B|3:157,1,85,8|0,0:0|0:0,0:0:0:0:
147,157,48054,1,2,0:0:0:0:
464,232,48308,2,0,B|360:232,1,85,8|0,0:0|0:0,0:0:0:0:
481,129,48817,1,0,0:0:0:0:
152,240,49071,6,0,B|196:314,1,85,2|0,0:0|0:0,0:0:0:0:
50,313,49580,1,8,0:0:0:0:
368,84,49834,2,0,B|453:84,1,85,0|2,0:0|0:0,0:0:0:0:
256,260,50342,1,8,0:0:0:0:
111,256,50596,1,8,0:0:0:0:
341,304,50851,1,8,0:0:0:0:
318,232,50978,1,8,0:0:0:0:
131,336,51105,5,4,0:0:0:0:
286,80,51359,1,0,0:0:0:0:
441,80,51613,2,0,L|356:80,2,85,8|0|2,0:0|0:0|0:0,0:0:0:0:
306,80,52376,1,0,0:0:0:0:
170,80,52630,2,0,L|115:145,1,85,8|0,0:0|0:0,0:0:0:0:
200,144,53012,1,0,0:0:0:0:
392,152,53139,2,0,L|447:217,1,85,2|0,0:0|0:0,0:0:0:0:
311,216,53647,1,8,0:0:0:0:
174,216,53902,1,0,0:0:0:0:
496,160,54156,5,2,0:0:0:0:
399,256,54410,1,0,0:0:0:0:
72,260,54665,1,8,0:0:0:0:
168,163,54919,1,0,0:0:0:0:
512,160,55173,2,0,L|439:116,1,85,2|0,0:0|0:0,0:0:0:0:
303,116,55681,5,8,0:0:0:0:
439,116,55935,1,0,0:0:0:0:
167,116,56190,1,2,0:0:0:0:
303,116,56444,1,0,0:0:0:0:
31,116,56698,2,0,B|31:72|31:72|57:42,1,85,8|0,0:0|0:0,0:0:0:0:
404,336,57207,2,0,B|488:320|488:320|394:336,1,170,2|8,0:0|0:0,0:0:0:0:
512,264,57969,1,0,0:0:0:0:
192,312,58224,5,2,0:0:0:0:
388,228,58478,1,0,0:0:0:0:
217,228,58733,1,8,0:0:0:0:
47,228,58987,1,0,0:0:0:0:
413,132,59241,2,0,L|483:85,1,85,2|0,0:0|0:0,0:0:0:0:
399,85,59622,1,0,0:0:0:0:
314,85,59749,6,0,L|399:85,1,85,8|0,0:0|0:0,0:0:0:0:
68,72,60257,1,2,0:0:0:0:
188,192,60512,1,0,0:0:0:0:
512,312,60766,2,0,L|452:373,1,85,8|0,0:0|0:0,0:0:0:0:
120,368,61274,5,2,0:0:0:0:
264,368,61529,1,0,0:0:0:0:
60,269,61783,2,0,L|74:186,1,85,8|0,0:0|0:0,0:0:0:0:
336,200,62291,2,0,L|322:116,1,85,2|0,0:0|0:0,0:0:0:0:
0,136,62800,2,0,P|0:93|20:56,1,85,8|0,0:0|0:0,0:0:0:0:
480,320,63308,6,0,P|407:278|383:199,1,170,2|8,0:0|0:0,0:0:0:0:
31,320,64071,2,0,P|104:278|128:199,1,170
448,192,64834,2,0,L|380:124,1,85,8|0,0:0|0:0,0:0:0:0:
64,192,65342,6,0,L|124:131,1,85,2|0,0:0|0:0,0:0:0:0:
452,236,65851,1,8,0:0:0:0:
282,236,66105,1,8,0:0:0:0:
452,236,66359,2,0,L|407:163,1,85,8|0,0:0|0:0,0:0:0:0:
262,163,66868,2,0,L|306:90,1,85,8|0,0:0|0:0,0:0:0:0:
233,90,67249,1,0,0:0:0:0:
28,88,67376,6,0,B|28:173,1,85,4|0,0:0|0:0,0:0:0:0:
172,173,67885,2,0,L|112:234,1,85,8|0,0:0|0:0,0:0:0:0:
256,233,68393,1,2,0:0:0:0:
340,233,68520,1,0,0:0:0:0:
424,233,68647,2,0,L|485:293,1,85,0|8,0:0|0:0,0:0:0:0:
339,292,69156,1,0,0:0:0:0:
20,296,69410,6,0,L|105:296,1,85,2|0,0:0|0:0,0:0:0:0:
249,296,69919,2,0,B|164:296,1,85,8|0,0:0|0:0,0:0:0:0:
249,296,70300,1,0,0:0:0:0:
335,296,70427,1,2,0:0:0:0:
479,296,70681,2,0,B|495:212,1,85,0|8,0:0|0:0,0:0:0:0:
350,212,71190,1,0,0:0:0:0:
16,192,71444,5,2,0:0:0:0:
100,192,71571,1,0,0:0:0:0:
184,192,71698,2,0,L|99:192,2,85,0|8|0,0:0|0:0|0:0,0:0:0:0:
39,192,72461,1,2,0:0:0:0:
184,192,72715,2,0,L|249:126,1,85,0|8,0:0|0:0,0:0:0:0:
99,131,73224,1,0,0:0:0:0:
424,92,73478,6,0,B|468:164|468:164|425:238,1,170,2|8,2:0|2:0,2:0:0:0:
288,238,74241,1,0,0:0:0:0:
72,232,74495,1,0,0:0:0:0:
328,304,74749,2,0,L|412:328,2,85,0|8|0,0:0|0:0|0:0,0:0:0:0:
4,316,75512,6,0,L|89:316,1,85,2|0,0:0|0:0,0:0:0:0:
224,316,76020,2,0,L|163:255,1,85,8|0,0:0|0:0,0:0:0:0:
27,255,76529,1,2,0:0:0:0:
163,255,76783,2,0,L|223:194,1,85,0|8,0:0|0:0,0:0:0:0:
87,194,77291,1,0,0:0:0:0:
428,192,77546,5,2,0:0:0:0:
488,131,77673,1,0,0:0:0:0:
508,48,77800,1,0,0:0:0:0:
363,48,78054,1,8,0:0:0:0:
218,48,78308,2,0,L|338:168,1,170
193,168,79071,1,8,0:0:0:0:
48,168,79325,1,0,0:0:0:0:
363,168,79580,6,0,L|343:251,1,85,2|0,0:0|0:0,0:0:0:0:
16,340,80088,2,0,B|56:260,1,85,8|0,0:0|0:0,0:0:0:0:
138,263,80469,1,0,0:0:0:0:
222,263,80596,1,2,0:0:0:0:
372,228,80851,2,0,L|329:154,1,85,0|8,0:0|0:0,0:0:0:0:
473,154,81359,1,0,0:0:0:0:
128,192,81613,6,0,L|170:118,1,85,2|0,0:0|0:0,0:0:0:0:
315,118,82122,2,0,L|400:118,2,85,8|0|2,0:0|0:0|0:0,0:0:0:0:
230,118,82757,1,0,0:0:0:0:
144,118,82885,1,0,0:0:0:0:
288,266,83139,1,8,0:0:0:0:
432,266,83393,1,0,0:0:0:0:
100,272,83647,6,0,L|43:208,2,85,4|0|8,0:0|0:0|0:0,0:0:0:0:
244,112,84410,1,0,0:0:0:0:
328,112,84537,1,0,0:0:0:0:
412,112,84664,2,0,L|472:172,1,85
327,212,85173,1,0,0:0:0:0:
182,212,85427,1,0,0:0:0:0:
504,340,85681,6,0,B|334:340,1,170,2|8,0:0|0:0,0:0:0:0:
117,340,86444,1,0,0:0:0:0:
286,340,86698,1,2,0:0:0:0:
69,219,86952,1,0,0:0:0:0:
239,219,87207,1,8,0:0:0:0:
23,99,87460,1,0,0:0:0:0:
364,88,87715,6,0,L|300:144,1,85,2|0,0:0|0:0,0:0:0:0:
155,143,88224,2,0,L|228:185,1,85,8|0,0:0|0:0,0:0:0:0:
372,185,88732,2,0,L|457:185,2,85,2|0|8,0:0|0:0|0:0,0:0:0:0:
512,185,89495,1,0,0:0:0:0:
172,216,89749,6,0,B|204:304,1,85,2|0,0:0|0:0,0:0:0:0:
56,295,90257,2,0,B|87:215,1,85,8|0,0:0|0:0,0:0:0:0:
172,216,90639,1,0,0:0:0:0:
256,216,90766,1,2,0:0:0:0:
40,208,91020,2,0,L|4:132,1,85,0|8,0:0|0:0,0:0:0:0:
196,128,91529,1,0,0:0:0:0:
512,200,91783,6,0,L|452:140,1,85,2|0,0:0|0:0,0:0:0:0:
307,245,92291,2,0,B|392:245,1,85,8|0,0:0|0:0,0:0:0:0:
247,245,92800,2,0,L|307:185,1,85,2|0,0:0|0:0,0:0:0:0:
162,184,93308,1,8,0:0:0:0:
162,39,93563,1,0,0:0:0:0:
246,39,93690,1,0,0:0:0:0:
440,44,93817,6,0,B|384:144|384:144|428:177,1,170,2|8,0:0|0:0,0:0:0:0:
283,177,94580,1,0,0:0:0:0:
138,177,94834,2,0,L|152:260,1,85,2|0,0:0|0:0,0:0:0:0:
7,260,95342,2,0,L|67:320,1,85,8|0,0:0|0:0,0:0:0:0:
408,316,95851,6,0,L|468:256,1,85,2|0,0:0|0:0,0:0:0:0:
324,256,96359,2,0,L|384:195,1,85,8|0,0:0|0:0,0:0:0:0:
311,195,96741,1,0,0:0:0:0:
239,195,96868,1,2,0:0:0:0:
94,195,97122,2,0,L|178:195,1,85,0|8,0:0|0:0,0:0:0:0:
348,136,97630,1,0,0:0:0:0:
32,128,97884,5,2,0:0:0:0:
216,128,98138,1,0,0:0:0:0:
100,336,98392,1,8,0:0:0:0:
424,188,98647,1,8,0:0:0:0:
244,256,98902,1,8,0:0:0:0:
202,256,99028,1,8,0:0:0:0:
160,256,99155,1,8,0:0:0:0:
420,272,99410,1,8,0:0:0:0:
462,272,99537,2,0,L|504:272,1,42.5
104,80,99919,6,0,L|20:81,1,85,4|0,0:0|0:0,0:0:0:0:
164,81,100427,1,8,0:0:0:0:
308,81,100681,2,0,L|247:141,1,85,0|2,0:0|0:0,0:0:0:0:
333,141,101063,1,0,0:0:0:0:
417,141,101190,2,0,L|356:80,1,85,0|8,0:0|0:0,0:0:0:0:
501,80,101698,1,0,0:0:0:0:
164,81,101952,6,0,L|79:81,1,85,2|0,0:0|0:0,0:0:0:0:
223,81,102461,1,8,0:0:0:0:
367,303,102715,1,0,0:0:0:0:
282,303,102842,1,0,0:0:0:0:
197,303,102969,2,0,L|282:303,2,85,2|0|8,0:0|0:0|0:0,0:0:0:0:
52,303,103731,1,0,0:0:0:0:
392,316,103986,6,0,B|392:146,1,170,2|8,0:0|0:0,0:0:0:0:
247,146,104749,2,0,L|307:85,1,85,0|2,0:0|0:0,0:0:0:0:
162,85,105257,1,0,0:0:0:0:
307,85,105511,1,8,0:0:0:0:
162,85,105765,1,0,0:0:0:0:
504,280,106020,6,0,L|491:195,1,85,2|0,0:0|0:0,0:0:0:0:
346,195,106529,2,0,L|334:279,1,85,8|0,0:0|0:0,0:0:0:0:
189,279,107037,1,2,0:0:0:0:
358,105,107291,1,0,0:0:0:0:
40,112,107546,2,0,L|125:112,1,85,8|0,0:0|0:0,0:0:0:0:
472,272,108054,6,0,L|387:272,1,85,2|0,0:0|0:0,0:0:0:0:
242,272,108563,2,0,L|157:272,1,85,8|0,0:0|0:0,0:0:0:0:
241,272,108944,1,0,0:0:0:0:
325,272,109071,2,0,L|410:272,1,85,2|0,0:0|0:0,0:0:0:0:
265,112,109580,1,8,0:0:0:0:
120,112,109834,1,0,0:0:0:0:
456,112,110088,6,0,B|371:112,1,85,2|0,0:0|0:0,0:0:0:0:
226,112,110596,2,0,B|311:112,1,85,8|0,0:0|0:0,0:0:0:0:
166,112,111105,2,0,L|81:112,2,85,2|0|8,0:0|0:0|0:0,0:0:0:0:
21,112,111868,1,0,0:0:0:0:
364,112,112122,6,0,L|432:163,1,85,2|0,0:0|0:0,0:0:0:0:
112,292,112630,2,0,L|44:241,1,85,8|0,0:0|0:0,0:0:0:0:
188,241,113139,1,2,0:0:0:0:
332,241,113393,2,0,L|354:158,1,85,0|8,0:0|0:0,0:0:0:0:
498,158,113902,1,0,0:0:0:0:
160,148,114156,6,0,L|204:72,1,85,2|0,0:0|0:0,0:0:0:0:
352,336,114664,1,8,0:0:0:0:
32,328,114919,1,0,0:0:0:0:
380,260,115173,1,2,0:0:0:0:
482,227,115427,1,0,0:0:0:0:
140,224,115681,2,0,L|79:163,1,85,8|0,0:0|0:0,0:0:0:0:
404,152,116190,5,6,0:0:0:0:
251,152,116444,1,0,0:0:0:0:
404,152,116698,2,0,B|489:152,2,85,8|0|2,0:0|0:0|0:0,0:0:0:0:
314,152,117334,1,0,0:0:0:0:
225,152,117461,1,0,0:0:0:0:
72,152,117715,2,0,B|24:81,1,85,8|0,0:0|0:0,0:0:0:0:
109,81,118096,1,0,0:0:0:0:
304,76,118224,6,0,L|360:152,1,85
507,144,118732,1,8,0:0:0:0:
354,240,118987,1,0,0:0:0:0:
40,240,119241,1,2,0:0:0:0:
205,277,119495,1,0,0:0:0:0:
40,324,119750,1,8,0:0:0:0:
380,332,120004,1,0,0:0:0:0:
12,160,120258,6,0,L|97:160,1,85,2|0,0:0|0:0,0:0:0:0:
249,160,120766,1,8,0:0:0:0:
97,160,121020,1,0,0:0:0:0:
249,224,121274,1,0,0:0:0:0:
339,224,121402,1,0,0:0:0:0:
428,224,121529,1,0,0:0:0:0:
275,160,121783,1,8,0:0:0:0:
427,160,122037,1,0,0:0:0:0:
511,160,122164,1,0,0:0:0:0:
318,64,122291,6,0,B|152:132,1,170
7,128,123054,1,0,0:0:0:0:
336,260,123308,1,0,0:0:0:0:
506,260,123563,1,0,0:0:0:0:
165,260,123818,1,8,0:0:0:0:
416,352,124072,1,0,0:0:0:0:
80,272,124326,6,0,L|107:184,1,85,2|0,0:0|0:0,0:0:0:0:
257,190,124834,2,0,L|169:217,1,85,8|0,0:0|0:0,0:0:0:0:
328,214,125342,1,2,0:0:0:0:
0,128,125597,1,0,0:0:0:0:
152,128,125851,2,0,L|92:67,1,85,8|0,0:0|0:0,0:0:0:0:
245,67,126359,5,2,0:0:0:0:
334,64,126486,1,0,0:0:0:0:
424,64,126614,1,0,0:0:0:0:
254,320,126868,2,0,B|374:198,1,170,8|2,0:0|0:0,0:0:0:0:
284,168,127503,1,0,0:0:0:0:
194,168,127631,1,0,0:0:0:0:
512,192,127885,2,0,P|486:225|450:248,1,85,8|0,0:0|0:0,0:0:0:0:
32,352,128393,6,0,B|112:320|112:320|80:240,1,170,2|8,0:0|0:0,0:0:0:0:
431,242,129156,2,0,B|400:320|400:320|480:352,1,170
122,336,129919,2,0,L|68:269,1,85,8|0,0:0|0:0,0:0:0:0:
390,336,130427,5,2,0:0:0:0:
471,312,130681,1,0,0:0:0:0:
390,336,130935,1,8,0:0:0:0:
56,68,131190,2,8,B|104:96|104:96|3:150,1,170,8|0,0:0|0:0,0:0:0:0:
320,340,131952,5,8,0:0:0:0:
149,340,132207,1,0,0:0:0:0:
272,256,132461,1,2,0:0:0:0:
424,256,132715,1,0,0:0:0:0:
232,176,132969,1,8,0:0:0:0:
70,176,133224,5,0,0:0:0:0:
288,96,133478,1,2,0:0:0:0:
457,96,133732,1,2,0:0:0:0:
216,32,133986,2,0,L|136:80,1,85,8|8,0:0|0:0,0:0:0:0:
228,75,134368,1,8,0:0:0:0:
420,336,134495,6,0,P|338:322|279:263,1,170,4|8,0:0|0:0,0:0:0:0:
142,262,135257,1,0,0:0:0:0:
5,262,135512,2,0,P|46:266|78:294,1,85,2|0,0:0|0:0,0:0:0:0:
222,293,136020,1,8,0:0:0:0:
366,293,136274,1,0,0:0:0:0:
47,171,136529,6,0,P|92:105|45:40,1,170,2|8,0:0|0:0,0:0:0:0:
192,60,137291,1,0,0:0:0:0:
512,32,137546,2,0,L|434:67,2,85,2|0|8,0:0|0:0|0:0,0:0:0:0:
367,32,138308,1,0,0:0:0:0:
34,308,138563,6,0,L|106:262,1,85,2|0,0:0|0:0,0:0:0:0:
250,262,139071,1,8,0:0:0:0:
394,262,139325,2,0,L|317:224,2,85,2|2|0,0:0|0:0|0:0,0:0:0:0:
250,262,140088,1,8,0:0:0:0:
106,262,140342,1,0,0:0:0:0:
436,80,140596,6,0,B|484:149|484:149|439:172|433:213,1,170,2|8,0:0|0:0,0:0:0:0:
287,213,141359,2,0,L|340:280,1,85,0|2,0:0|0:0,0:0:0:0:
20,136,141868,1,0,0:0:0:0:
164,136,142122,1,8,0:0:0:0:
20,136,142376,1,0,0:0:0:0:
340,44,142630,6,0,L|292:120,1,85,2|0,0:0|0:0,0:0:0:0:
439,115,143139,1,8,0:0:0:0:
150,115,143647,2,0,L|170:197,1,85,2|0,0:0|0:0,0:0:0:0:
492,276,144156,2,0,L|465:195,1,85,8|2,0:0|0:0,0:0:0:0:
120,280,144664,6,0,L|146:199,1,85,2|2,0:0|0:0,0:0:0:0:
291,199,145173,1,8,0:0:0:0:
435,199,145427,1,0,0:0:0:0:
96,104,145681,2,0,L|76:186,1,85,2|0,0:0|0:0,0:0:0:0:
417,104,146190,2,0,L|437:186,1,85,8|0,0:0|0:0,0:0:0:0:
88,104,146698,6,0,B|60:216|60:216|104:248,1,170,8|2,0:0|0:0,0:0:0:0:
424,104,147461,2,0,B|452:216|452:216|408:248,1,170,8|0,0:0|0:0,0:0:0:0:
80,296,148224,1,8,0:0:0:0:
7,251,148478,1,0,0:0:0:0:
324,260,148732,6,0,B|412:256|412:256|335:226,1,170,8|2,0:0|0:0,0:0:0:0:
16,216,149495,2,0,L|98:67,1,170,8|0,0:0|0:0,0:0:0:0:
440,36,150257,1,8,0:0:0:0:
355,36,150512,1,0,0:0:0:0:
4,52,150766,6,0,B|135:160,1,170,4|8,0:0|0:0,0:0:0:0:
288,160,151529,1,0,0:0:0:0:
440,160,151783,2,0,B|454:199|454:199|437:238,1,85,2|0,0:0|0:0,0:0:0:0:
284,238,152291,1,8,0:0:0:0:
130,238,152546,1,0,0:0:0:0:
214,238,152673,1,0,0:0:0:0:
406,236,152800,6,0,B|354:160,1,85,2|0,0:0|0:0,0:0:0:0:
188,165,153308,2,0,B|244:101,1,85,8|0,2:0|2:0,2:0:0:0:
398,101,153817,1,2,0:0:0:0:
80,316,154071,1,0,0:0:0:0:
232,316,154325,1,8,0:0:0:0:
385,316,154580,1,0,0:0:0:0:
48,104,154834,6,0,L|136:104,1,85,2|0,0:0|0:0,0:0:0:0:
285,104,155342,1,8,0:0:0:0:
437,104,155596,1,0,0:0:0:0:
476,28,155724,1,0,0:0:0:0:
285,280,155851,2,0,L|355:232,1,85,2|0,0:0|0:0,0:0:0:0:
508,232,156359,1,8,0:0:0:0:
355,232,156613,1,0,0:0:0:0:
36,272,156868,6,0,L|119:250,1,85,2|0,0:0|0:0,0:0:0:0:
288,250,157376,1,8,0:0:0:0:
118,134,157630,2,0,L|35:156,1,85,0|2,0:0|0:0,0:0:0:0:
376,128,158139,2,0,L|459:150,2,85,0|8|0,0:0|0:0|0:0,0:0:0:0:
32,36,158902,6,0,L|8:120,1,85,2|0,0:0|0:0,0:0:0:0:
178,117,159410,1,8,0:0:0:0:
347,117,159664,1,0,0:0:0:0:
8,304,159919,1,2,0:0:0:0:
92,304,160046,1,0,0:0:0:0:
176,304,160173,1,0,0:0:0:0:
504,296,160427,2,0,L|435:245,1,85,8|0,0:0|0:0,0:0:0:0:
120,208,160935,6,0,L|204:193,1,85,2|0,0:0|0:0,0:0:0:0:
50,193,161444,2,0,L|22:104,1,85,8|0,0:0|0:0,0:0:0:0:
109,111,161825,1,0,0:0:0:0:
301,108,161952,2,0,L|218:123,1,85,2|0,0:0|0:0,0:0:0:0:
370,123,162461,2,0,L|452:141,1,85,8|0,0:0|0:0,0:0:0:0:
109,111,162969,6,0,P|63:177|105:245,1,170,8|2,0:0|0:0,0:0:0:0:
423,167,163732,2,0,P|464:238|423:308,1,170,8|0,0:0|0:0,0:0:0:0:
91,308,164495,2,0,L|151:247,1,85,8|0,0:0|0:0,0:0:0:0:
256,192,165003,12,2,166783,0:0:0:0:
340,272,167037,6,0,B|510:272,1,170,4|8,0:0|0:0,0:0:0:0:
365,272,167800,1,0,0:0:0:0:
220,272,168054,2,0,B|50:272,1,170,2|8,0:0|0:0,0:0:0:0:
194,272,168817,1,0,0:0:0:0:
148,200,168944,1,0,0:0:0:0:
340,112,169071,6,0,L|276:180,1,85,2|0,0:0|0:0,0:0:0:0:
426,173,169580,1,8,0:0:0:0:
137,173,170088,1,2,0:0:0:0:
344,216,170342,1,0,0:0:0:0:
112,168,170596,1,8,0:0:0:0:
372,208,170851,1,0,0:0:0:0:
48,104,171105,6,0,B|124:68|124:68|47:28,1,170,2|8,0:0|0:0,0:0:0:0:
218,28,171868,1,0,0:0:0:0:
278,88,171995,1,0,0:0:0:0:
470,100,172122,2,0,B|456:296,1,170,2|8,0:0|0:0,0:0:0:0:
287,269,172885,1,0,0:0:0:0:
117,269,173139,6,0,L|202:275,1,85,2|0,0:0|0:0,0:0:0:0:
31,274,173647,1,8,0:0:0:0:
404,112,174156,1,2,0:0:0:0:
88,112,174410,2,0,L|3:112,2,85,0|8|0,0:0|0:0|0:0,0:0:0:0:
432,36,175173,5,2,0:0:0:0:
143,36,175681,1,8,0:0:0:0:
483,348,176190,2,0,L|435:279,1,85,2|0,0:0|0:0,0:0:0:0:
264,278,176698,2,0,L|88:276,1,170,8|2,0:0|0:0,0:0:0:0:
238,276,177461,6,0,L|199:199,1,85,0|8,0:0|0:0,0:0:0:0:
55,199,177969,1,0,0:0:0:0:
384,164,178224,2,0,P|394:123|383:82,1,85,2|0,0:0|0:0,0:0:0:0:
238,82,178732,1,8,0:0:0:0:
93,82,178986,1,0,0:0:0:0:
412,168,179241,6,0,B|492:239|492:239|492:301,1,170,8|2,0:0|0:0,0:0:0:0:
152,304,180003,2,0,B|328:300,1,170,8|2,0:0|0:0,0:0:0:0:
0,172,180766,2,0,L|0:87,1,85,8|0,0:0|0:0,0:0:0:0:
256,192,181274,12,2,183817,0:0:0:0:
224,352,184071,6,0,L|54:352,1,170,8|0,0:0|0:0,0:0:0:0:
198,232,184833,1,8,0:0:0:0:
342,32,185088,1,8,0:0:0:0:
257,32,185215,1,8,0:0:0:0:
64,39,185342,2,0,P|105:112|185:132,1,170,4|8,0:0|0:0,0:0:0:0:
473,133,186359,1,2,0:0:0:0:
248,320,186868,2,0,B|163:320,1,85,4|2,0:0|0:0,0:0:0:0:
307,320,187376,6,0,B|392:320,2,85,2|2|8,0:0|0:0|0:0,0:0:0:0:
163,320,188138,1,0,0:0:0:0:
18,320,188392,1,2,0:0:0:0:
163,320,188646,1,0,0:0:0:0:
494,320,188902,1,8,0:0:0:0:
349,320,189156,1,0,0:0:0:0:
8,232,189410,6,0,L|93:232,1,85,4|0,0:0|0:0,0:0:0:0:
135,232,189728,1,0,0:0:0:0:
177,232,189791,1,0,0:0:0:0:
219,232,189855,1,0,0:0:0:0:
262,152,189918,2,0,L|177:152,1,85,2|0,0:0|0:0,0:0:0:0:
512,160,190427,2,0,L|427:160,1,85,2|0,0:0|0:0,0:0:0:0:
80,144,190935,5,4,0:0:0:0:
